  0
SECTION
  2
HEADER
  9
$ACADVER
  1
AC1009
  9
$DWGCODEPAGE
  3
ansi_1252
  9
$INSBASE
 10
0.0
 20
0.0
 30
0.0
  9
$EXTMIN
 10
0.0
 20
0.0
 30
0.0
  9
$EXTMAX
 10
11.0
 20
8.5
 30
0.0
  9
$LIMMIN
 10
0.0
 20
0.0
  9
$LIMMAX
 10
11.0
 20
8.5
  9
$ORTHOMODE
 70
     0
  9
$REGENMODE
 70
     1
  9
$FILLMODE
 70
     1
  9
$QTEXTMODE
 70
     0
  9
$MIRRTEXT
 70
     1
  9
$DRAGMODE
 70
     2
  9
$LTSCALE
 40
1.0
  9
$OSMODE
 70
    37
  9
$ATTMODE
 70
     1
  9
$TEXTSIZE
 40
0.094
  9
$TRACEWID
 40
0.05
  9
$TEXTSTYLE
  7
STANDARD
  9
$CLAYER
  8
0
  9
$CELTYPE
  6
BYLAYER
  9
$CECOLOR
 62
   256
  9
$DIMSCALE
 40
1.0
  9
$DIMASZ
 40
0.094
  9
$DIMEXO
 40
0.05
  9
$DIMDLI
 40
0.38
  9
$DIMRND
 40
0.0
  9
$DIMDLE
 40
0.0
  9
$DIMEXE
 40
0.125
  9
$DIMTP
 40
0.0
  9
$DIMTM
 40
0.0
  9
$DIMTXT
 40
0.094
  9
$DIMCEN
 40
0.09
  9
$DIMTSZ
 40
0.0
  9
$DIMTOL
 70
     0
  9
$DIMLIM
 70
     0
  9
$DIMTIH
 70
     1
  9
$DIMTOH
 70
     1
  9
$DIMSE1
 70
     0
  9
$DIMSE2
 70
     0
  9
$DIMTAD
 70
     0
  9
$DIMZIN
 70
     0
  9
$DIMBLK
  1

  9
$DIMASO
 70
     1
  9
$DIMSHO
 70
     1
  9
$DIMPOST
  1

  9
$DIMAPOST
  1

  9
$DIMALT
 70
     0
  9
$DIMALTD
 70
     2
  9
$DIMALTF
 40
25.4
  9
$DIMLFAC
 40
2.0
  9
$DIMTOFL
 70
     0
  9
$DIMTVP
 40
0.0
  9
$DIMTIX
 70
     0
  9
$DIMSOXD
 70
     0
  9
$DIMSAH
 70
     0
  9
$DIMBLK1
  1

  9
$DIMBLK2
  1

  9
$DIMSTYLE
  2
STANDARD
  9
$DIMCLRD
 70
     0
  9
$DIMCLRE
 70
     0
  9
$DIMCLRT
 70
     0
  9
$DIMTFAC
 40
1.0
  9
$DIMGAP
 40
0.06
  9
$LUNITS
 70
     2
  9
$LUPREC
 70
     3
  9
$SKETCHINC
 40
0.1
  9
$FILLETRAD
 40
0.5
  9
$AUNITS
 70
     0
  9
$AUPREC
 70
     0
  9
$MENU
  1
.
  9
$ELEVATION
 40
0.0
  9
$PELEVATION
 40
0.0
  9
$THICKNESS
 40
0.0
  9
$LIMCHECK
 70
     0
  9
$CHAMFERA
 40
0.0
  9
$CHAMFERB
 40
0.0
  9
$SKPOLY
 70
     0
  9
$TDCREATE
 40
2457834.34906272
  9
$TDUPDATE
 40
2457834.349064664
  9
$TDINDWG
 40
0.0000000116
  9
$TDUSRTIMER
 40
0.0000000116
  9
$USRTIMER
 70
     1
  9
$ANGBASE
 50
0.0
  9
$ANGDIR
 70
     0
  9
$PDMODE
 70
     0
  9
$PDSIZE
 40
-1.0
  9
$PLINEWID
 40
0.0
  9
$COORDS
 70
     1
  9
$SPLFRAME
 70
     0
  9
$SPLINETYPE
 70
     6
  9
$SPLINESEGS
 70
     8
  9
$ATTDIA
 70
     0
  9
$ATTREQ
 70
     1
  9
$HANDLING
 70
     1
  9
$HANDSEED
  5
735
  9
$SURFTAB1
 70
     6
  9
$SURFTAB2
 70
     6
  9
$SURFTYPE
 70
     6
  9
$SURFU
 70
     6
  9
$SURFV
 70
     6
  9
$UCSNAME
  2

  9
$UCSORG
 10
0.0
 20
0.0
 30
0.0
  9
$UCSXDIR
 10
1.0
 20
0.0
 30
0.0
  9
$UCSYDIR
 10
0.0
 20
1.0
 30
0.0
  9
$PUCSNAME
  2

  9
$PUCSORG
 10
0.0
 20
0.0
 30
0.0
  9
$PUCSXDIR
 10
1.0
 20
0.0
 30
0.0
  9
$PUCSYDIR
 10
0.0
 20
1.0
 30
0.0
  9
$USERI1
 70
     0
  9
$USERI2
 70
     0
  9
$USERI3
 70
     0
  9
$USERI4
 70
     0
  9
$USERI5
 70
     0
  9
$USERR1
 40
0.0
  9
$USERR2
 40
0.0
  9
$USERR3
 40
0.0
  9
$USERR4
 40
0.0
  9
$USERR5
 40
0.0
  9
$WORLDVIEW
 70
     1
  9
$SHADEDGE
 70
     3
  9
$SHADEDIF
 70
    70
  9
$TILEMODE
 70
     1
  9
$MAXACTVP
 70
    64
  9
$PLIMCHECK
 70
     0
  9
$PEXTMIN
 10
1.0000000000E+20
 20
1.0000000000E+20
 30
1.0000000000E+20
  9
$PEXTMAX
 10
-1.0000000000E+20
 20
-1.0000000000E+20
 30
-1.0000000000E+20
  9
$PLIMMIN
 10
0.0
 20
0.0
  9
$PLIMMAX
 10
12.0
 20
9.0
  9
$UNITMODE
 70
     0
  9
$VISRETAIN
 70
     1
  9
$PLINEGEN
 70
     0
  9
$PSLTSCALE
 70
     1
  0
ENDSEC
  0
SECTION
  2
TABLES
  0
TABLE
  2
VPORT
 70
     1
  0
VPORT
  2
*ACTIVE
 70
     0
 10
0.0
 20
0.0
 11
1.0
 21
1.0
 12
5.5
 22
4.25
 13
0.0
 23
0.0
 14
0.5
 24
0.5
 15
0.5
 25
0.5
 16
0.0
 26
0.0
 36
1.0
 17
0.0
 27
0.0
 37
0.0
 40
8.5
 41
1.2941176471
 42
50.0
 43
0.0
 44
0.0
 50
0.0
 51
0.0
 71
     0
 72
  2000
 73
     1
 74
     3
 75
     0
 76
     0
 77
     0
 78
     0
  0
ENDTAB
  0
TABLE
  2
LTYPE
 70
     6
  0
LTYPE
  2
CONTINUOUS
 70
     0
  3
Solid line
 72
    65
 73
     0
 40
0.0
  0
LTYPE
  2
HIDDEN
 70
     0
  3
Hidden __ __ __ __ __ __ __ __ __ __ __ __ __ __
 72
    65
 73
     2
 40
0.075
 49
0.05
 49
-0.025
  0
LTYPE
  2
PHANTOM
 70
     0
  3
Phantom ______  __  __  ______  __  __  ______
 72
    65
 73
     6
 40
0.5
 49
0.25
 49
-0.05
 49
0.05
 49
-0.05
 49
0.05
 49
-0.05
  0
LTYPE
  2
CENTER
 70
     0
  3
Center ____ _ ____ _ ____ _ ____ _ ____ _ ____
 72
    65
 73
     4
 40
0.4
 49
0.25
 49
-0.05
 49
0.05
 49
-0.05
  0
LTYPE
  2
CENTERX2
 70
     0
  3
Center (2x) ________  __  ________  __  _____
 72
    65
 73
     4
 40
0.8
 49
0.5
 49
-0.1
 49
0.1
 49
-0.1
  0
LTYPE
  2
DOT2
 70
     0
  3
Dot (.5x) ........................................
 72
    65
 73
     2
 40
0.025
 49
0.0
 49
-0.025
  0
ENDTAB
  0
TABLE
  2
LAYER
 70
     2
  0
LAYER
  2
0
 70
     0
 62
     7
  6
CONTINUOUS
  0
LAYER
  2
FORMAT
 70
     0
 62
     7
  6
CONTINUOUS
  0
ENDTAB
  0
TABLE
  2
STYLE
 70
     1
  0
STYLE
  2
STANDARD
 70
     0
 40
0.0
 41
1.0
 50
0.0
 71
     0
 42
0.094
  3
txt
  4

  0
ENDTAB
  0
TABLE
  2
VIEW
 70
     0
  0
ENDTAB
  0
TABLE
  2
UCS
 70
     0
  0
ENDTAB
  0
TABLE
  2
APPID
 70
     1
  0
APPID
  2
ACAD
 70
     0
  0
ENDTAB
  0
TABLE
  2
DIMSTYLE
 70
     3
  0
DIMSTYLE
  2
STANDARD
 70
     0
  3

  4

  5

  6

  7

 40
1.0
 41
0.18
 42
0.0625
 43
0.38
 44
0.18
 45
0.0
 46
0.0
 47
0.0
 48
0.0
140
0.18
141
0.09
142
0.0
143
25.4
144
1.0
145
0.0
146
1.0
147
0.09
 71
     0
 72
     0
 73
     1
 74
     1
 75
     0
 76
     0
 77
     0
 78
     0
170
     0
171
     2
172
     0
173
     0
174
     0
175
     0
176
     0
177
     0
178
     0
  0
DIMSTYLE
  2
SLDDIMSTYLE0
 70
     0
  3

  4

  5

  6

  7

 40
1.0
 41
0.094
 42
0.0625
 43
0.38
 44
0.0
 45
0.000000001
 46
0.0
 47
0.0
 48
0.0
140
0.094
141
0.09
142
0.0
143
25.4
144
1.0
145
0.0
146
1.0
147
0.0235
 71
     0
 72
     0
 73
     1
 74
     1
 75
     0
 76
     0
 77
     0
 78
    12
170
     0
171
     2
172
     0
173
     1
174
     0
175
     0
176
     0
177
     0
178
     0
  0
DIMSTYLE
  2
SLDDIMSTYLE1
 70
     0
  3

  4

  5

  6

  7

 40
1.0
 41
0.094
 42
0.0625
 43
0.38
 44
0.0
 45
0.000000001
 46
0.0
 47
0.0
 48
0.0
140
0.094
141
0.09
142
0.0
143
25.4
144
1.0
145
0.0
146
1.0
147
0.0235
 71
     0
 72
     0
 73
     1
 74
     1
 75
     0
 76
     0
 77
     0
 78
     4
170
     0
171
     2
172
     1
173
     1
174
     0
175
     0
176
     0
177
     0
178
     0
  0
ENDTAB
  0
ENDSEC
  0
SECTION
  2
BLOCKS
  0
BLOCK
  8
0
  2
$MODEL_SPACE
 70
     0
 10
0.0
 20
0.0
 30
0.0
  3
$MODEL_SPACE
  1

  0
ENDBLK
  5
21
  8
0
  0
BLOCK
 67
     1
  8
0
  2
$PAPER_SPACE
 70
     0
 10
0.0
 20
0.0
 30
0.0
  3
$PAPER_SPACE
  1

  0
ENDBLK
  5
1D
 67
     1
  8
0
  0
BLOCK
  8
0
  2
SW_NOTE_0
 70
     0
 10
0.0
 20
0.0
 30
0.0
  3
SW_NOTE_0
  1

  0
TEXT
  5
90
  8
0
  6
CONTINUOUS
 62
     0
 10
0.0
 20
0.0735958462
 30
0.0
 40
0.2083333333
  1
Auburn Bearing
 41
0.7
 11
0.0
 21
0.0
 31
0.0
 73
     1
  0
TEXT
  5
91
  8
0
  6
CONTINUOUS
 62
     0
 10
0.3324845058
 20
-0.1225091592
 30
0.0
 40
0.125
  1
& MANUFACTURING
 41
0.7
 11
0.3324845058
 21
-0.1666666669
 31
0.0
 73
     1
  0
TEXT
  5
92
  8
0
  6
CONTINUOUS
 62
     0
 10
0.2038966512
 20
-0.268757631
 30
0.0
 40
0.1041666667
  1
Made in the USA since 1898
 41
0.6326923077
 11
0.2038966512
 21
-0.3055555542
 31
0.0
 73
     1
  0
ENDBLK
  5
8F
  8
0
  0
BLOCK
  8
0
  2
SW_NOTE_1
 70
     0
 10
0.0
 20
0.0
 30
0.0
  3
SW_NOTE_1
  1

  0
TEXT
  5
99
  8
0
  6
CONTINUOUS
 62
     0
 10
0.0
 20
0.0176630031
 30
0.0
 40
0.05
  1
THE INFORMATION CONTAINED IN THIS DRAWING IS THE SOLE PROPERTY OF AUBURN BALL BEARING.  ANY 
 41
0.6391304348
 11
0.0
 21
0.0
 31
0.0
 73
     1
  0
TEXT
  5
9A
  8
0
  6
CONTINUOUS
 62
     0
 10
-0.1618921698
 20
-0.0717070778
 30
0.0
 40
0.05
  1
REPRODUCTION IN WHOLE OR IN PART WITHOUT THE WRITTEN PERMISSION OF AUBURN BALL BEARING IS PROHIBITED.
 41
0.648019802
 11
-0.1618921698
 21
-0.0893700809
 31
0.0
 73
     1
  0
ENDBLK
  5
98
  8
0
  0
BLOCK
  8
0
  2
_D
 70
     0
 10
0.0
 20
0.0
 30
0.0
  3
_D
  1

  0
SOLID
  5
A5
  8
0
  6
CONTINUOUS
 62
     7
 10
7.0949719025
 20
6.8320362867
 30
0.0
 11
7.1889719025
 21
6.8175747482
 31
0.0
 12
7.1889719025
 22
6.8464978252
 32
0.0
 13
7.1889719025
 23
6.8464978252
 33
0.0
  0
SOLID
  5
A6
  8
0
  6
CONTINUOUS
 62
     7
 10
9.4569719025
 20
6.8320362867
 30
0.0
 11
9.3629719025
 21
6.8464978252
 31
0.0
 12
9.3629719025
 22
6.8175747482
 32
0.0
 13
9.3629719025
 23
6.8175747482
 33
0.0
  0
LINE
  5
A7
  8
0
  6
CONTINUOUS
 62
     7
 10
7.0949719025
 20
5.2478945544
 30
0.0
 11
7.0949719025
 21
6.9570362867
 31
0.0
  0
LINE
  5
A8
  8
0
  6
CONTINUOUS
 62
     7
 10
9.4569719025
 20
5.2478945544
 30
0.0
 11
9.4569719025
 21
6.9570362867
 31
0.0
  0
LINE
  5
A9
  8
0
  6
CONTINUOUS
 62
     7
 10
7.0949719025
 20
6.8320362867
 30
0.0
 11
8.0568665008
 21
6.8320362867
 31
0.0
  0
LINE
  5
AA
  8
0
  6
CONTINUOUS
 62
     7
 10
9.4569719025
 20
6.8320362867
 30
0.0
 11
8.5111802092
 21
6.8320362867
 31
0.0
  0
TEXT
  5
AB
  8
0
  6
CONTINUOUS
 62
     7
 10
8.0568665008
 20
6.7899121767
 30
0.0
 40
0.094
  1
%%c
 41
0.7
 11
8.0568665008
 21
6.7567057309
 31
0.0
 73
     1
  0
TEXT
  5
AC
  8
0
  6
CONTINUOUS
 62
     7
 10
8.1986302507
 20
6.791348288
 30
0.0
 40
0.094
  1
2.362
 41
0.7
 11
8.1986302507
 21
6.7581418422
 31
0.0
 73
     1
  0
ENDBLK
  5
A4
  8
0
  0
BLOCK
  8
0
  2
_D_1
 70
     0
 10
0.0
 20
0.0
 30
0.0
  3
_D_1
  1

  0
SOLID
  5
B1
  8
0
  6
CONTINUOUS
 62
     7
 10
7.4885703277
 20
3.5637528221
 30
0.0
 11
7.5825703277
 21
3.5492912837
 31
0.0
 12
7.5825703277
 22
3.5782143606
 32
0.0
 13
7.5825703277
 23
3.5782143606
 33
0.0
  0
SOLID
  5
B2
  8
0
  6
CONTINUOUS
 62
     7
 10
9.0633734773
 20
3.5637528221
 30
0.0
 11
8.9693734773
 21
3.5782143606
 31
0.0
 12
8.9693734773
 22
3.5492912837
 32
0.0
 13
8.9693734773
 23
3.5492912837
 33
0.0
  0
LINE
  5
B3
  8
0
  6
CONTINUOUS
 62
     7
 10
7.4885703277
 20
5.1478945544
 30
0.0
 11
7.4885703277
 21
3.4387528221
 31
0.0
  0
LINE
  5
B4
  8
0
  6
CONTINUOUS
 62
     7
 10
9.0633734773
 20
5.1478945544
 30
0.0
 11
9.0633734773
 21
3.4387528221
 31
0.0
  0
LINE
  5
B5
  8
0
  6
CONTINUOUS
 62
     7
 10
7.4885703277
 20
3.5637528221
 30
0.0
 11
8.0590660701
 21
3.5637528221
 31
0.0
  0
LINE
  5
B6
  8
0
  6
CONTINUOUS
 62
     7
 10
9.0633734773
 20
3.5637528221
 30
0.0
 11
8.5133797785
 21
3.5637528221
 31
0.0
  0
TEXT
  5
B7
  8
0
  6
CONTINUOUS
 62
     7
 10
8.0590660701
 20
3.5216287121
 30
0.0
 40
0.094
  1
%%c
 41
0.7
 11
8.0590660701
 21
3.4884222663
 31
0.0
 73
     1
  0
TEXT
  5
B8
  8
0
  6
CONTINUOUS
 62
     7
 10
8.20082982
 20
3.5230648235
 30
0.0
 40
0.094
  1
1.575
 41
0.7
 11
8.20082982
 21
3.4898583776
 31
0.0
 73
     1
  0
ENDBLK
  5
B0
  8
0
  0
BLOCK
  8
0
  2
_D_2
 70
     0
 10
0.0
 20
0.0
 30
0.0
  3
_D_2
  1

  0
SOLID
  5
13F
  8
0
  6
CONTINUOUS
 62
     7
 10
3.296062997
 20
6.8825585106
 30
0.0
 11
3.390062997
 21
6.8680969721
 31
0.0
 12
3.390062997
 22
6.897020049
 32
0.0
 13
3.390062997
 23
6.897020049
 33
0.0
  0
SOLID
  5
140
  8
0
  6
CONTINUOUS
 62
     7
 10
3.926062997
 20
6.8825585106
 30
0.0
 11
3.832062997
 21
6.897020049
 31
0.0
 12
3.832062997
 22
6.8680969721
 32
0.0
 13
3.832062997
 23
6.8680969721
 33
0.0
  0
LINE
  5
141
  8
0
  6
CONTINUOUS
 62
     7
 10
3.296062997
 20
6.4088945544
 30
0.0
 11
3.296062997
 21
7.0075585106
 31
0.0
  0
LINE
  5
142
  8
0
  6
CONTINUOUS
 62
     7
 10
3.926062997
 20
6.4088945544
 30
0.0
 11
3.926062997
 21
7.0075585106
 31
0.0
  0
LINE
  5
143
  8
0
  6
CONTINUOUS
 62
     7
 10
3.296062997
 20
6.8825585106
 30
0.0
 11
3.4726382745
 21
6.8825585106
 31
0.0
  0
LINE
  5
144
  8
0
  6
CONTINUOUS
 62
     7
 10
3.926062997
 20
6.8825585106
 30
0.0
 11
3.7157327162
 21
6.8825585106
 31
0.0
  0
TEXT
  5
145
  8
0
  6
CONTINUOUS
 62
     7
 10
3.4726382745
 20
6.8411524585
 30
0.586
 40
0.094
  1
.630
 41
0.7
 11
3.4726382745
 21
6.8079460127
 31
0.586
 73
     1
  0
ENDBLK
  5
13E
  8
0
  0
ENDSEC
  0
SECTION
  2
ENTITIES
  0
LINE
  5
75
  8
0
  6
CONTINUOUS
 62
     7
 10
0.2588915831
 20
8.1920731707
 30
0.0
 11
10.629927
 21
8.1920731707
 31
0.0
  0
LINE
  5
76
  8
0
  6
CONTINUOUS
 62
     7
 10
0.2588915831
 20
8.1920731707
 30
0.0
 11
0.2588915831
 21
0.3920731707
 31
0.0
  0
LINE
  5
77
  8
0
  6
CONTINUOUS
 62
     7
 10
10.629927
 20
0.3920731707
 30
0.0
 11
0.2588915831
 21
0.3920731707
 31
0.0
  0
LINE
  5
78
  8
0
  6
CONTINUOUS
 62
     7
 10
10.629927
 20
0.3920731707
 30
0.0
 11
10.629927
 21
8.1920731707
 31
0.0
  0
LINE
  5
79
  8
0
  6
CONTINUOUS
 62
     7
 10
6.895369671
 20
0.6920731707
 30
0.0
 11
6.895369671
 21
0.3920731707
 31
0.0
  0
LINE
  5
7A
  8
0
  6
CONTINUOUS
 62
     7
 10
6.895369671
 20
2.2538646663
 30
0.0
 11
6.895369671
 21
0.6920731707
 31
0.0
  0
LINE
  5
7B
  8
0
  6
CONTINUOUS
 62
     7
 10
6.895369671
 20
0.6920731707
 30
0.0
 11
10.629927
 21
0.6920731707
 31
0.0
  0
LINE
  5
7C
  8
0
  6
CONTINUOUS
 62
     7
 10
6.895369671
 20
1.343501358
 30
0.0
 11
10.629927
 21
1.343501358
 31
0.0
  0
LINE
  5
7D
  8
0
  6
CONTINUOUS
 62
     7
 10
7.4789412454
 20
1.0420731707
 30
0.0
 11
10.629927
 21
1.0420731707
 31
0.0
  0
LINE
  5
7E
  8
0
  6
CONTINUOUS
 62
     7
 10
7.4789412454
 20
1.0420731707
 30
0.0
 11
6.895369671
 21
1.0420731707
 31
0.0
  0
LINE
  5
7F
  8
0
  6
CONTINUOUS
 62
     7
 10
10.629927
 20
2.2538646663
 30
0.0
 11
5.7428859
 21
2.2538646663
 31
0.0
  0
LINE
  5
80
  8
0
  6
CONTINUOUS
 62
     7
 10
6.7188368717
 20
0.6155953096
 30
0.0
 11
6.4188368717
 21
0.6155953096
 31
0.0
  0
LINE
  5
81
  8
0
  6
CONTINUOUS
 62
     7
 10
5.9688368717
 20
0.7405953096
 30
0.0
 11
5.9688368717
 21
0.4905953096
 31
0.0
  0
LINE
  5
82
  8
0
  6
CONTINUOUS
 62
     7
 10
5.9688368717
 20
0.7405953096
 30
0.0
 11
6.2688368717
 21
0.6780953096
 31
0.0
  0
LINE
  5
83
  8
0
  6
CONTINUOUS
 62
     7
 10
6.2688368717
 20
0.6780953096
 30
0.0
 11
6.2688368717
 21
0.5530953096
 31
0.0
  0
LINE
  5
84
  8
0
  6
CONTINUOUS
 62
     7
 10
6.2688368717
 20
0.5530953096
 30
0.0
 11
5.9688368717
 21
0.4905953096
 31
0.0
  0
LINE
  5
85
  8
0
  6
CONTINUOUS
 62
     7
 10
6.5688368717
 20
0.7655953096
 30
0.0
 11
6.5688368717
 21
0.4655953096
 31
0.0
  0
LINE
  5
86
  8
0
  6
CONTINUOUS
 62
     7
 10
6.2938368717
 20
0.6155953096
 30
0.0
 11
5.9438368717
 21
0.6155953096
 31
0.0
  0
LINE
  5
87
  8
0
  6
CONTINUOUS
 62
     7
 10
6.895369671
 20
0.8670731707
 30
0.0
 11
5.7428859
 21
0.8670731707
 31
0.0
  0
LINE
  5
88
  8
0
  6
CONTINUOUS
 62
     7
 10
5.7428859
 20
0.3920731707
 30
0.0
 11
5.7428859
 21
2.2538646663
 31
0.0
  0
CIRCLE
  5
89
  8
0
  6
CONTINUOUS
 62
     7
 10
6.5688368717
 20
0.6155953096
 30
0.0
 40
0.1250000000000005
  0
CIRCLE
  5
8A
  8
0
  6
CONTINUOUS
 62
     7
 10
6.5688368717
 20
0.6155953096
 30
0.0
 40
0.0624999999999998
  0
TEXT
  5
8B
  8
0
  6
CONTINUOUS
 62
     7
 10
9.475305726
 20
0.7778772066
 30
0.0
 40
0.1875
  1
2908-ABB
 41
0.7
 11
9.475305726
 21
0.711640945
 31
0.0
 73
     1
  0
TEXT
  5
8C
  8
0
  6
CONTINUOUS
 62
     7
 10
6.9454407988
 20
0.9373362189
 30
0.0
 40
0.0833333333
  1
ITEM NUMBER
 41
0.7
 11
6.9454407988
 21
0.9078978804
 31
0.0
 73
     1
  0
INSERT
  5
93
  8
0
  6
CONTINUOUS
 62
     7
  2
SW_NOTE_0
 10
7.6846410003
 20
1.7911336193
 30
0.0
  0
TEXT
  5
94
  8
0
  6
CONTINUOUS
 62
     7
 10
7.4080704202
 20
1.1264966581
 30
0.0
 40
0.1041666667
  1
Ball Thrust Bearing 1.575(40) x 2.362(60) x 0.63(16)
 41
0.6528846154
 11
7.4080704202
 21
1.089698735
 31
0.0
 73
     1
  0
TEXT
  5
95
  8
0
  6
CONTINUOUS
 62
     7
 10
6.9183717328
 20
1.2534564236
 30
0.0
 40
0.065
  1
DESCRIPTION
 41
0.7
 11
6.9183717328
 21
1.2304945196
 31
0.0
 73
     1
  0
INSERT
  5
9B
  8
0
  6
CONTINUOUS
 62
     7
  2
SW_NOTE_1
 10
7.1289909583
 20
0.5372783317
 30
0.0
  0
CIRCLE
  5
9C
  8
0
  6
CONTINUOUS
 62
     7
 10
8.2759719025
 20
5.1978945544
 30
0.0
 40
0.7874015748031509
  0
CIRCLE
  5
9D
  8
0
  6
CONTINUOUS
 62
     7
 10
8.2759719025
 20
5.1978945544
 30
0.0
 40
0.8074015748031504
  0
CIRCLE
  5
9E
  8
0
  6
CONTINUOUS
 62
     7
 10
8.2759719025
 20
5.1978945544
 30
0.0
 40
1.161
  0
CIRCLE
  5
9F
  8
0
  6
CONTINUOUS
 62
     7
 10
8.2759719025
 20
5.1978945544
 30
0.0
 40
1.181000000000001
  0
DIMENSION
  5
A0
  8
0
  6
CONTINUOUS
 62
     7
  2
_D
 10
9.4569719025
 20
6.8320362867
 30
0.0
 11
8.284023355
 21
6.8320362867
 31
0.0
 70
   160
  1
%%c<>
  3
SLDDIMSTYLE0
 13
7.0949719025
 23
5.1978945544
 33
0.0
 14
9.4569719025
 24
5.1978945544
 34
0.0
  0
DIMENSION
  5
AD
  8
0
  6
CONTINUOUS
 62
     7
  2
_D_1
 10
9.0633734773
 20
3.5637528221
 30
0.0
 11
8.2862229243
 21
3.5637528221
 31
0.0
 70
   160
  1
%%c<>
  3
SLDDIMSTYLE0
 13
7.4885703277
 23
5.1978945544
 33
0.0
 14
9.0633734773
 24
5.1978945544
 34
0.0
  0
LINE
  5
B9
  8
0
  6
HIDDEN
 62
     7
 10
8.2759719025
 20
6.5210959044
 30
0.0
 11
8.2759719025
 21
3.7311869483
 31
0.0
  0
LINE
  5
BA
  8
0
  6
CONTINUOUS
 62
     7
 10
8.2759719025
 20
6.5210959044
 30
0.0
 11
8.4659719025
 21
6.5210959044
 31
0.0
  0
SOLID
  5
BB
  8
0
  6
CONTINUOUS
 62
     7
 10
8.4659719025
 20
6.5210959044
 30
0.0
 11
8.3409719025
 21
6.5410959044
 31
0.0
 12
8.3409719025
 22
6.5010959044
 32
0.0
 13
8.3409719025
 23
6.5010959044
 33
0.0
  0
LINE
  5
BC
  8
0
  6
CONTINUOUS
 62
     7
 10
8.2759719025
 20
3.7311869483
 30
0.0
 11
8.4659719025
 21
3.7311869483
 31
0.0
  0
SOLID
  5
BD
  8
0
  6
CONTINUOUS
 62
     7
 10
8.4659719025
 20
3.7311869483
 30
0.0
 11
8.3409719025
 21
3.7511869483
 31
0.0
 12
8.3409719025
 22
3.7111869483
 32
0.0
 13
8.3409719025
 23
3.7111869483
 33
0.0
  0
TEXT
  5
BE
  8
0
  6
CONTINUOUS
 62
     7
 10
8.4942493422
 20
6.5016795218
 30
0.0
 40
0.094
  1
A
 41
0.7
 11
8.4942493422
 21
6.5956795218
 31
0.0
 73
     3
  0
TEXT
  5
BF
  8
0
  6
CONTINUOUS
 62
     7
 10
8.4942493422
 20
3.7117705657
 30
0.0
 40
0.094
  1
A
 41
0.7
 11
8.4942493422
 21
3.8057705657
 31
0.0
 73
     3
  0
LINE
  5
C0
  8
0
  6
CONTINUOUS
 62
     7
 10
3.6591494904
 20
4.3620975714
 30
0.0
 11
3.4626591926
 21
4.1656072736
 31
0.0
  0
LINE
  5
C1
  8
0
  6
CONTINUOUS
 62
     7
 10
3.7527648624
 20
4.2789362481
 30
0.0
 11
3.5458205159
 21
4.0719919016
 31
0.0
  0
LINE
  5
C2
  8
0
  6
CONTINUOUS
 62
     7
 10
3.8843215939
 20
4.4104929796
 30
0.0
 11
3.7535183608
 21
4.2796897465
 31
0.0
  0
LINE
  5
C3
  8
0
  6
CONTINUOUS
 62
     7
 10
3.926062997
 20
4.2754576873
 30
0.0
 11
3.716065097
 21
4.0654597873
 31
0.0
  0
LINE
  5
C4
  8
0
  6
CONTINUOUS
 62
     7
 10
3.926062997
 20
4.098680992
 30
0.0
 11
3.8442765593
 21
4.0168945544
 31
0.0
  0
LINE
  5
C5
  8
0
  6
CONTINUOUS
 62
     7
 10
3.7306580558
 20
6.378149785
 30
0.0
 11
3.7168098663
 21
6.3643015956
 31
0.0
  0
LINE
  5
C6
  8
0
  6
CONTINUOUS
 62
     7
 10
3.9080777781
 20
6.3787928121
 30
0.0
 11
3.7602600757
 21
6.2309751096
 31
0.0
  0
LINE
  5
C7
  8
0
  6
CONTINUOUS
 62
     7
 10
3.926062997
 20
6.2200013356
 30
0.0
 11
3.716065097
 21
6.0100034356
 31
0.0
  0
LINE
  5
C8
  8
0
  6
CONTINUOUS
 62
     7
 10
3.926062997
 20
6.0432246403
 30
0.0
 11
3.8681344859
 21
5.9852961292
 31
0.0
  0
LINE
  5
C9
  8
0
  6
CONTINUOUS
 62
     7
 10
3.676305478
 20
6.3237972073
 30
0.0
 11
3.4693611315
 21
6.1168528608
 31
0.0
  0
LINE
  5
CA
  8
0
  6
CONTINUOUS
 62
     7
 10
3.7594668013
 20
6.2301818353
 30
0.0
 11
3.5629765035
 21
6.0336915375
 31
0.0
  0
LINE
  5
CB
  8
0
  6
CONTINUOUS
 62
     7
 10
3.6786789478
 20
4.3816270288
 30
0.0
 11
3.671745686
 21
4.374693767
 31
0.0
  0
LINE
  5
CC
  8
0
  6
CONTINUOUS
 62
     7
 10
3.5503803079
 20
6.0210953418
 30
0.0
 11
3.5434470461
 21
6.0141620801
 31
0.0
  0
LINE
  5
CD
  8
0
  6
CONTINUOUS
 62
     7
 10
3.353991508
 20
4.4104929796
 30
0.0
 11
3.296062997
 21
4.3525644685
 31
0.0
  0
LINE
  5
CE
  8
0
  6
CONTINUOUS
 62
     7
 10
3.506060897
 20
4.3857856732
 30
0.0
 11
3.296062997
 21
4.1757877732
 31
0.0
  0
LINE
  5
CF
  8
0
  6
CONTINUOUS
 62
     7
 10
3.4618659182
 20
4.1648139992
 30
0.0
 11
3.3140482158
 21
4.0169962968
 31
0.0
  0
LINE
  5
D0
  8
0
  6
CONTINUOUS
 62
     7
 10
3.5053161276
 20
4.0314875132
 30
0.0
 11
3.4914679381
 21
4.0176393238
 31
0.0
  0
LINE
  5
D1
  8
0
  6
CONTINUOUS
 62
     7
 10
3.3778494346
 20
6.3788945544
 30
0.0
 11
3.296062997
 21
6.2971081168
 31
0.0
  0
LINE
  5
D2
  8
0
  6
CONTINUOUS
 62
     7
 10
3.506060897
 20
6.3303293215
 30
0.0
 11
3.296062997
 21
6.1203314215
 31
0.0
  0
LINE
  5
D3
  8
0
  6
CONTINUOUS
 62
     7
 10
3.4686076331
 20
6.1160993623
 30
0.0
 11
3.3378044
 21
5.9852961292
 31
0.0
  0
ARC
  5
D4
  8
0
  6
CONTINUOUS
 62
     7
 10
3.611062997
 20
5.1978945544
 30
0.0
 40
0.1559999999999996
 50
47.6939673988
 51
59.6814126167
  0
POLYLINE
  5
D5
  8
0
  6
CONTINUOUS
 62
     7
 66
     1
 10
0.0
 20
0.0
 30
0.0
 70
   128
  0
VERTEX
  5
185
  8
0
  6
CONTINUOUS
 62
     7
 10
3.532312997
 20
5.33255872
 30
0.0
  0
VERTEX
  5
186
  8
0
  6
CONTINUOUS
 62
     7
 10
3.5186742975
 20
5.3235939109
 30
0.0
  0
VERTEX
  5
187
  8
0
  6
CONTINUOUS
 62
     7
 10
3.506060897
 20
5.3132659503
 30
0.0
  0
SEQEND
  5
715
  8
0
  6
CONTINUOUS
 62
     7
  0
POLYLINE
  5
D6
  8
0
  6
CONTINUOUS
 62
     7
 66
     1
 10
0.0
 20
0.0
 30
0.0
 70
   128
  0
VERTEX
  5
188
  8
0
  6
CONTINUOUS
 62
     7
 10
3.506060897
 20
5.0825231585
 30
0.0
  0
VERTEX
  5
189
  8
0
  6
CONTINUOUS
 62
     7
 10
3.5186742975
 20
5.0721951979
 30
0.0
  0
VERTEX
  5
18A
  8
0
  6
CONTINUOUS
 62
     7
 10
3.532312997
 20
5.0632303888
 30
0.0
  0
SEQEND
  5
716
  8
0
  6
CONTINUOUS
 62
     7
  0
ARC
  5
D7
  8
0
  6
CONTINUOUS
 62
     7
 10
3.611062997
 20
5.1978945544
 30
0.0
 40
0.1560000000000004
 50
300.3185873833
 51
312.3060326012
  0
ARC
  5
D8
  8
0
  6
CONTINUOUS
 62
     7
 10
3.611062997
 20
4.213693767
 30
0.0
 40
0.1570000000000004
 50
131.974761098
 51
228.025238902
  0
ARC
  5
D9
  8
0
  6
CONTINUOUS
 62
     7
 10
3.611062997
 20
6.1820953418
 30
0.0
 40
0.1570000000000004
 50
131.974761098
 51
228.025238902
  0
LINE
  5
DA
  8
0
  6
CONTINUOUS
 62
     7
 10
3.506060897
 20
6.2988153444
 30
0.0
 11
3.506060897
 21
6.2974667377
 31
0.0
  0
LINE
  5
DB
  8
0
  6
CONTINUOUS
 62
     7
 10
3.506060897
 20
6.0667239459
 30
0.0
 11
3.506060897
 21
6.0653753393
 31
0.0
  0
LINE
  5
DC
  8
0
  6
CONTINUOUS
 62
     7
 10
3.506060897
 20
4.3304137696
 30
0.0
 11
3.506060897
 21
4.3290651629
 31
0.0
  0
LINE
  5
DD
  8
0
  6
CONTINUOUS
 62
     7
 10
3.506060897
 20
4.0983223711
 30
0.0
 11
3.506060897
 21
4.0969737645
 31
0.0
  0
ARC
  5
DE
  8
0
  6
CONTINUOUS
 62
     7
 10
3.486060897
 20
4.0368945544
 30
0.0
 40
0.0200000000000005
 50
270.0
 51
0.0
  0
ARC
  5
DF
  8
0
  6
CONTINUOUS
 62
     7
 10
3.486060897
 20
6.3588945544
 30
0.0
 40
0.0200000000000005
 50
0.0
 51
90.0
  0
LINE
  5
E0
  8
0
  6
CONTINUOUS
 62
     7
 10
3.316062997
 20
4.0168945544
 30
0.0
 11
3.486060897
 21
4.0168945544
 31
0.0
  0
LINE
  5
E1
  8
0
  6
CONTINUOUS
 62
     7
 10
3.486060897
 20
6.3788945544
 30
0.0
 11
3.316062997
 21
6.3788945544
 31
0.0
  0
ARC
  5
E2
  8
0
  6
CONTINUOUS
 62
     7
 10
3.316062997
 20
4.0368945544
 30
0.0
 40
0.0200000000000005
 50
180.0
 51
270.0
  0
ARC
  5
E3
  8
0
  6
CONTINUOUS
 62
     7
 10
3.316062997
 20
6.3588945544
 30
0.0
 40
0.0200000000000005
 50
90.0
 51
180.0
  0
LINE
  5
E4
  8
0
  6
CONTINUOUS
 62
     7
 10
3.316062997
 20
5.9852961292
 30
0.0
 11
3.316062997
 21
4.4104929796
 31
0.0
  0
ARC
  5
E5
  8
0
  6
CONTINUOUS
 62
     7
 10
3.316062997
 20
4.3904929796
 30
0.0
 40
0.0200000000000005
 50
90.0
 51
180.0
  0
ARC
  5
E6
  8
0
  6
CONTINUOUS
 62
     7
 10
3.316062997
 20
6.0052961292
 30
0.0
 40
0.0199999999999996
 50
180.0
 51
270.0
  0
LINE
  5
E7
  8
0
  6
CONTINUOUS
 62
     7
 10
3.296062997
 20
6.0052961292
 30
0.0
 11
3.296062997
 21
4.3904929796
 31
0.0
  0
LINE
  5
E8
  8
0
  6
CONTINUOUS
 62
     7
 10
3.316062997
 20
4.4104929796
 30
0.0
 11
3.486060897
 21
4.4104929796
 31
0.0
  0
LINE
  5
E9
  8
0
  6
CONTINUOUS
 62
     7
 10
3.486060897
 20
5.9852961292
 30
0.0
 11
3.316062997
 21
5.9852961292
 31
0.0
  0
LINE
  5
EA
  8
0
  6
CONTINUOUS
 62
     7
 10
3.486060897
 20
5.9852961292
 30
0.0
 11
3.486060897
 21
4.4104929796
 31
0.0
  0
LINE
  5
EB
  8
0
  6
CONTINUOUS
 62
     7
 10
3.506060897
 20
6.0052961292
 30
0.0
 11
3.506060897
 21
4.3904929796
 31
0.0
  0
ARC
  5
EC
  8
0
  6
CONTINUOUS
 62
     7
 10
3.486060897
 20
4.3904929796
 30
0.0
 40
0.0200000000000005
 50
0.0
 51
90.0
  0
ARC
  5
ED
  8
0
  6
CONTINUOUS
 62
     7
 10
3.486060897
 20
6.0052961292
 30
0.0
 40
0.02
 50
270.0
 51
0.0
  0
LINE
  5
EE
  8
0
  6
CONTINUOUS
 62
     7
 10
3.506060897
 20
4.3904929796
 30
0.0
 11
3.506060897
 21
4.3304137696
 31
0.0
  0
LINE
  5
EF
  8
0
  6
CONTINUOUS
 62
     7
 10
3.296062997
 20
4.3904929796
 30
0.0
 11
3.296062997
 21
4.0368945544
 31
0.0
  0
LINE
  5
F0
  8
0
  6
CONTINUOUS
 62
     7
 10
3.506060897
 20
4.0969737645
 30
0.0
 11
3.506060897
 21
4.0368945544
 31
0.0
  0
LINE
  5
F1
  8
0
  6
CONTINUOUS
 62
     7
 10
3.506060897
 20
6.0653753393
 30
0.0
 11
3.506060897
 21
6.0052961292
 31
0.0
  0
LINE
  5
F2
  8
0
  6
CONTINUOUS
 62
     7
 10
3.296062997
 20
6.3588945544
 30
0.0
 11
3.296062997
 21
6.0052961292
 31
0.0
  0
LINE
  5
F3
  8
0
  6
CONTINUOUS
 62
     7
 10
3.506060897
 20
6.3588945544
 30
0.0
 11
3.506060897
 21
6.2988153444
 31
0.0
  0
LINE
  5
F4
  8
0
  6
CONTINUOUS
 62
     7
 10
3.552312997
 20
4.0368945544
 30
0.0
 11
3.669812997
 21
4.0368945544
 31
0.0
  0
LINE
  5
F5
  8
0
  6
CONTINUOUS
 62
     7
 10
3.669812997
 20
6.3588945544
 30
0.0
 11
3.552312997
 21
6.3588945544
 31
0.0
  0
LINE
  5
F6
  8
0
  6
CONTINUOUS
 62
     7
 10
3.669812997
 20
4.0368945544
 30
0.0
 11
3.6856122096
 21
4.052693767
 31
0.0
  0
POLYLINE
  5
F7
  8
0
  6
CONTINUOUS
 62
     7
 66
     1
 10
0.0
 20
0.0
 30
0.0
 70
   128
  0
VERTEX
  5
18B
  8
0
  6
CONTINUOUS
 62
     7
 10
3.689812997
 20
4.0575727732
 30
0.0
  0
VERTEX
  5
18C
  8
0
  6
CONTINUOUS
 62
     7
 10
3.6867040743
 20
4.0539636383
 30
0.0
  0
VERTEX
  5
18D
  8
0
  6
CONTINUOUS
 62
     7
 10
3.6856122096
 20
4.052693767
 30
0.0
  0
SEQEND
  5
717
  8
0
  6
CONTINUOUS
 62
     7
  0
ARC
  5
F8
  8
0
  6
CONTINUOUS
 62
     7
 10
6.3748711202
 20
8.654278984
 30
0.0
 40
3.545938989415455
 50
220.67618667
 51
220.7802171484
  0
LINE
  5
F9
  8
0
  6
CONTINUOUS
 62
     7
 10
3.6856122096
 20
6.3430953418
 30
0.0
 11
3.669812997
 21
6.3588945544
 31
0.0
  0
LINE
  5
FA
  8
0
  6
CONTINUOUS
 62
     7
 10
3.669812997
 20
6.0052961292
 30
0.0
 11
3.669812997
 21
4.3904929796
 31
0.0
  0
LINE
  5
FB
  8
0
  6
CONTINUOUS
 62
     7
 10
3.669812997
 20
6.0052961292
 30
0.0
 11
3.6856122096
 21
6.0210953418
 31
0.0
  0
POLYLINE
  5
FC
  8
0
  6
CONTINUOUS
 62
     7
 66
     1
 10
0.0
 20
0.0
 30
0.0
 70
   128
  0
VERTEX
  5
18E
  8
0
  6
CONTINUOUS
 62
     7
 10
3.689812997
 20
6.0246179104
 30
0.0
  0
VERTEX
  5
18F
  8
0
  6
CONTINUOUS
 62
     7
 10
3.6867104718
 20
6.0220145582
 30
0.0
  0
VERTEX
  5
190
  8
0
  6
CONTINUOUS
 62
     7
 10
3.6856122096
 20
6.0210953418
 30
0.0
  0
SEQEND
  5
718
  8
0
  6
CONTINUOUS
 62
     7
  0
LINE
  5
FD
  8
0
  6
CONTINUOUS
 62
     7
 10
3.689812997
 20
6.0246179104
 30
0.0
 11
3.689812997
 21
5.2313887122
 31
0.0
  0
ARC
  5
FE
  8
0
  6
CONTINUOUS
 62
     7
 10
3.8214081609
 20
5.1978945544
 30
0.0
 40
0.135790816215816
 50
165.7200463489
 51
194.2799536511
  0
LINE
  5
FF
  8
0
  6
CONTINUOUS
 62
     7
 10
3.689812997
 20
5.1644003967
 30
0.0
 11
3.689812997
 21
4.3711711984
 31
0.0
  0
ARC
  5
100
  8
0
  6
CONTINUOUS
 62
     7
 10
2.2831505856
 20
2.6979427028
 30
0.0
 40
2.185953507726919
 50
49.9466509202
 51
50.0903456851
  0
LINE
  5
101
  8
0
  6
CONTINUOUS
 62
     7
 10
3.6856122096
 20
4.374693767
 30
0.0
 11
3.669812997
 21
4.3904929796
 31
0.0
  0
LINE
  5
102
  8
0
  6
CONTINUOUS
 62
     7
 10
3.669812997
 20
4.3904929796
 30
0.0
 11
3.552312997
 21
4.3904929796
 31
0.0
  0
LINE
  5
103
  8
0
  6
CONTINUOUS
 62
     7
 10
3.552312997
 20
6.0052961292
 30
0.0
 11
3.552312997
 21
4.3904929796
 31
0.0
  0
LINE
  5
104
  8
0
  6
CONTINUOUS
 62
     7
 10
3.552312997
 20
6.0052961292
 30
0.0
 11
3.669812997
 21
6.0052961292
 31
0.0
  0
LINE
  5
105
  8
0
  6
CONTINUOUS
 62
     7
 10
3.552312997
 20
4.3904929796
 30
0.0
 11
3.5365137844
 21
4.374693767
 31
0.0
  0
POLYLINE
  5
106
  8
0
  6
CONTINUOUS
 62
     7
 66
     1
 10
0.0
 20
0.0
 30
0.0
 70
   128
  0
VERTEX
  5
191
  8
0
  6
CONTINUOUS
 62
     7
 10
3.532312997
 20
4.3711711984
 30
0.0
  0
VERTEX
  5
192
  8
0
  6
CONTINUOUS
 62
     7
 10
3.5354155221
 20
4.3737745507
 30
0.0
  0
VERTEX
  5
193
  8
0
  6
CONTINUOUS
 62
     7
 10
3.5365137844
 20
4.374693767
 30
0.0
  0
SEQEND
  5
719
  8
0
  6
CONTINUOUS
 62
     7
  0
LINE
  5
107
  8
0
  6
CONTINUOUS
 62
     7
 10
3.532312997
 20
5.1644003967
 30
0.0
 11
3.532312997
 21
4.3711711984
 31
0.0
  0
ARC
  5
108
  8
0
  6
CONTINUOUS
 62
     7
 10
3.400717833
 20
5.1978945544
 30
0.0
 40
0.1357908162158147
 50
345.7200463489
 51
14.2799536511
  0
LINE
  5
109
  8
0
  6
CONTINUOUS
 62
     7
 10
3.532312997
 20
6.0246179104
 30
0.0
 11
3.532312997
 21
5.2313887122
 31
0.0
  0
ARC
  5
10A
  8
0
  6
CONTINUOUS
 62
     7
 10
4.9389754309
 20
7.697846433
 30
0.0
 40
2.185953542940994
 50
229.9466509213
 51
230.0903456839
  0
LINE
  5
10B
  8
0
  6
CONTINUOUS
 62
     7
 10
3.5365137844
 20
6.0210953418
 30
0.0
 11
3.552312997
 21
6.0052961292
 31
0.0
  0
LINE
  5
10C
  8
0
  6
CONTINUOUS
 62
     7
 10
3.552312997
 20
6.3588945544
 30
0.0
 11
3.5365137844
 21
6.3430953418
 31
0.0
  0
POLYLINE
  5
10D
  8
0
  6
CONTINUOUS
 62
     7
 66
     1
 10
0.0
 20
0.0
 30
0.0
 70
   128
  0
VERTEX
  5
194
  8
0
  6
CONTINUOUS
 62
     7
 10
3.532312997
 20
6.3382163356
 30
0.0
  0
VERTEX
  5
195
  8
0
  6
CONTINUOUS
 62
     7
 10
3.5354219196
 20
6.3418254705
 30
0.0
  0
VERTEX
  5
196
  8
0
  6
CONTINUOUS
 62
     7
 10
3.5365137844
 20
6.3430953418
 30
0.0
  0
SEQEND
  5
71A
  8
0
  6
CONTINUOUS
 62
     7
  0
ARC
  5
10E
  8
0
  6
CONTINUOUS
 62
     7
 10
0.8472549065
 20
1.741510153
 30
0.0
 40
3.545938946165508
 50
40.6761866694
 51
40.780217149
  0
LINE
  5
10F
  8
0
  6
CONTINUOUS
 62
     7
 10
3.5365137844
 20
4.052693767
 30
0.0
 11
3.552312997
 21
4.0368945544
 31
0.0
  0
LINE
  5
110
  8
0
  6
CONTINUOUS
 62
     7
 10
3.532312997
 20
6.0246179104
 30
0.0
 11
3.532312997
 21
6.0474311762
 31
0.0
  0
LINE
  5
111
  8
0
  6
CONTINUOUS
 62
     7
 10
3.532312997
 20
6.3167595074
 30
0.0
 11
3.532312997
 21
6.3382163356
 31
0.0
  0
LINE
  5
112
  8
0
  6
CONTINUOUS
 62
     7
 10
3.5365137844
 20
6.3430953418
 30
0.0
 11
3.6856122096
 21
6.3430953418
 31
0.0
  0
LINE
  5
113
  8
0
  6
CONTINUOUS
 62
     7
 10
3.689812997
 20
6.3382163356
 30
0.0
 11
3.689812997
 21
6.3167595074
 31
0.0
  0
LINE
  5
114
  8
0
  6
CONTINUOUS
 62
     7
 10
3.689812997
 20
6.0474311762
 30
0.0
 11
3.689812997
 21
6.0246179104
 31
0.0
  0
LINE
  5
115
  8
0
  6
CONTINUOUS
 62
     7
 10
3.6856122096
 20
6.0210953418
 30
0.0
 11
3.5365137844
 21
6.0210953418
 31
0.0
  0
LINE
  5
116
  8
0
  6
CONTINUOUS
 62
     7
 10
3.532312997
 20
4.0575727732
 30
0.0
 11
3.532312997
 21
4.0790296014
 31
0.0
  0
LINE
  5
117
  8
0
  6
CONTINUOUS
 62
     7
 10
3.532312997
 20
4.3483579326
 30
0.0
 11
3.532312997
 21
4.3711711984
 31
0.0
  0
LINE
  5
118
  8
0
  6
CONTINUOUS
 62
     7
 10
3.5365137844
 20
4.374693767
 30
0.0
 11
3.6856122096
 21
4.374693767
 31
0.0
  0
LINE
  5
119
  8
0
  6
CONTINUOUS
 62
     7
 10
3.689812997
 20
4.3711711984
 30
0.0
 11
3.689812997
 21
4.3483579326
 31
0.0
  0
LINE
  5
11A
  8
0
  6
CONTINUOUS
 62
     7
 10
3.689812997
 20
4.0790296014
 30
0.0
 11
3.689812997
 21
4.0575727732
 31
0.0
  0
LINE
  5
11B
  8
0
  6
CONTINUOUS
 62
     7
 10
3.6856122096
 20
4.052693767
 30
0.0
 11
3.5365137844
 21
4.052693767
 31
0.0
  0
CIRCLE
  5
11C
  8
0
  6
CONTINUOUS
 62
     7
 10
3.611062997
 20
6.1820953418
 30
0.0
 40
0.1560000000000001
  0
LINE
  5
11D
  8
0
  6
CONTINUOUS
 62
     7
 10
3.736065097
 20
5.9852961292
 30
0.0
 11
3.736065097
 21
4.4104929796
 31
0.0
  0
ARC
  5
11E
  8
0
  6
CONTINUOUS
 62
     7
 10
3.736065097
 20
4.3904929796
 30
0.0
 40
0.0200000000000005
 50
90.0
 51
180.0
  0
ARC
  5
11F
  8
0
  6
CONTINUOUS
 62
     7
 10
3.736065097
 20
6.0052961292
 30
0.0
 40
0.02
 50
180.0
 51
270.0
  0
LINE
  5
120
  8
0
  6
CONTINUOUS
 62
     7
 10
3.716065097
 20
6.0052961292
 30
0.0
 11
3.716065097
 21
4.3904929796
 31
0.0
  0
LINE
  5
121
  8
0
  6
CONTINUOUS
 62
     7
 10
3.736065097
 20
4.4104929796
 30
0.0
 11
3.906062997
 21
4.4104929796
 31
0.0
  0
LINE
  5
122
  8
0
  6
CONTINUOUS
 62
     7
 10
3.906062997
 20
5.9852961292
 30
0.0
 11
3.736065097
 21
5.9852961292
 31
0.0
  0
LINE
  5
123
  8
0
  6
CONTINUOUS
 62
     7
 10
3.906062997
 20
5.9852961292
 30
0.0
 11
3.906062997
 21
4.4104929796
 31
0.0
  0
ARC
  5
124
  8
0
  6
CONTINUOUS
 62
     7
 10
3.906062997
 20
4.3904929796
 30
0.0
 40
0.0200000000000005
 50
0.0
 51
90.0
  0
LINE
  5
125
  8
0
  6
CONTINUOUS
 62
     7
 10
3.926062997
 20
4.3904929796
 30
0.0
 11
3.926062997
 21
4.0368945544
 31
0.0
  0
ARC
  5
126
  8
0
  6
CONTINUOUS
 62
     7
 10
3.906062997
 20
4.0368945544
 30
0.0
 40
0.0199999999999996
 50
270.0
 51
0.0
  0
LINE
  5
127
  8
0
  6
CONTINUOUS
 62
     7
 10
3.736065097
 20
4.0168945544
 30
0.0
 11
3.906062997
 21
4.0168945544
 31
0.0
  0
ARC
  5
128
  8
0
  6
CONTINUOUS
 62
     7
 10
3.736065097
 20
4.0368945544
 30
0.0
 40
0.0200000000000005
 50
180.0
 51
270.0
  0
LINE
  5
129
  8
0
  6
CONTINUOUS
 62
     7
 10
3.716065097
 20
4.0969737645
 30
0.0
 11
3.716065097
 21
4.0368945544
 31
0.0
  0
ARC
  5
12A
  8
0
  6
CONTINUOUS
 62
     7
 10
3.611062997
 20
4.213693767
 30
0.0
 40
0.1569999999999997
 50
311.974761098
 51
48.025238902
  0
LINE
  5
12B
  8
0
  6
CONTINUOUS
 62
     7
 10
3.716065097
 20
4.3904929796
 30
0.0
 11
3.716065097
 21
4.3304137696
 31
0.0
  0
LINE
  5
12C
  8
0
  6
CONTINUOUS
 62
     7
 10
3.716065097
 20
6.2988153444
 30
0.0
 11
3.716065097
 21
6.2974667377
 31
0.0
  0
LINE
  5
12D
  8
0
  6
CONTINUOUS
 62
     7
 10
3.716065097
 20
6.0667239459
 30
0.0
 11
3.716065097
 21
6.0653753393
 31
0.0
  0
LINE
  5
12E
  8
0
  6
CONTINUOUS
 62
     7
 10
3.716065097
 20
4.3304137696
 30
0.0
 11
3.716065097
 21
4.3290651629
 31
0.0
  0
LINE
  5
12F
  8
0
  6
CONTINUOUS
 62
     7
 10
3.716065097
 20
4.0983223711
 30
0.0
 11
3.716065097
 21
4.0969737645
 31
0.0
  0
ARC
  5
130
  8
0
  6
CONTINUOUS
 62
     7
 10
3.611062997
 20
6.1820953418
 30
0.0
 40
0.1570000000000004
 50
311.974761098
 51
48.025238902
  0
ARC
  5
131
  8
0
  6
CONTINUOUS
 62
     7
 10
3.906062997
 20
6.3588945544
 30
0.0
 40
0.0200000000000005
 50
0.0
 51
90.0
  0
LINE
  5
132
  8
0
  6
CONTINUOUS
 62
     7
 10
3.906062997
 20
6.3788945544
 30
0.0
 11
3.736065097
 21
6.3788945544
 31
0.0
  0
ARC
  5
133
  8
0
  6
CONTINUOUS
 62
     7
 10
3.736065097
 20
6.3588945544
 30
0.0
 40
0.0200000000000005
 50
90.0
 51
180.0
  0
LINE
  5
134
  8
0
  6
CONTINUOUS
 62
     7
 10
3.926062997
 20
6.0052961292
 30
0.0
 11
3.926062997
 21
4.3904929796
 31
0.0
  0
ARC
  5
135
  8
0
  6
CONTINUOUS
 62
     7
 10
3.906062997
 20
6.0052961292
 30
0.0
 40
0.0199999999999996
 50
270.0
 51
0.0
  0
LINE
  5
136
  8
0
  6
CONTINUOUS
 62
     7
 10
3.716065097
 20
6.3588945544
 30
0.0
 11
3.716065097
 21
6.2988153444
 31
0.0
  0
LINE
  5
137
  8
0
  6
CONTINUOUS
 62
     7
 10
3.926062997
 20
6.3588945544
 30
0.0
 11
3.926062997
 21
6.0052961292
 31
0.0
  0
LINE
  5
138
  8
0
  6
CONTINUOUS
 62
     7
 10
3.716065097
 20
6.0653753393
 30
0.0
 11
3.716065097
 21
6.0052961292
 31
0.0
  0
CIRCLE
  5
139
  8
0
  6
CONTINUOUS
 62
     7
 10
3.611062997
 20
4.213693767
 30
0.0
 40
0.1560000000000001
  0
DIMENSION
  5
13A
  8
0
  6
CONTINUOUS
 62
     7
  2
_D_2
 10
3.926062997
 20
6.8825585106
 30
0.0
 11
3.5941854953
 21
6.8825585106
 31
0.0
 70
   160
  1
<>
  3
SLDDIMSTYLE1
 13
3.296062997
 23
6.3588945544
 33
0.0
 14
3.926062997
 24
6.3588945544
 34
0.0
  0
TEXT
  5
146
  8
0
  6
CONTINUOUS
 62
     7
 10
3.2080296492
 20
3.5074022198
 30
0.0
 40
0.094
  1
SECTION A-A
 41
0.7
 11
3.2080296492
 21
3.474195774
 31
0.0
 73
     1
  0
LINE
  5
147
  8
0
  6
CONTINUOUS
 62
     7
 10
4.0418590071
 20
1.78018116
 30
0.0
 11
4.0418590071
 21
1.8038830314
 31
0.0
  0
LINE
  5
148
  8
0
  6
CONTINUOUS
 62
     7
 10
1.7198590071
 20
1.8040569985
 30
0.0
 11
1.7198590071
 21
1.78018116
 31
0.0
  0
LINE
  5
149
  8
0
  6
CONTINUOUS
 62
     7
 10
2.059774639
 20
1.3063332709
 30
0.0
 11
2.0710318981
 21
1.2998324811
 31
0.0
  0
LINE
  5
14A
  8
0
  6
CONTINUOUS
 62
     7
 10
3.6906993146
 20
1.299840103
 30
0.0
 11
3.7019433751
 21
1.3063332709
 31
0.0
  0
POLYLINE
  5
14B
  8
0
  6
CONTINUOUS
 62
     7
 66
     1
 10
0.0
 20
0.0
 30
0.0
 70
   128
  0
VERTEX
  5
197
  8
0
  6
CONTINUOUS
 62
     7
 10
4.0577274824
 20
2.1251094046
 30
0.0
  0
VERTEX
  5
198
  8
0
  6
CONTINUOUS
 62
     7
 10
4.0559128036
 20
2.1385039124
 30
0.0
  0
VERTEX
  5
199
  8
0
  6
CONTINUOUS
 62
     7
 10
4.049892301
 20
2.1674527984
 30
0.0
  0
VERTEX
  5
19A
  8
0
  6
CONTINUOUS
 62
     7
 10
4.0417996737
 20
2.1962254206
 30
0.0
  0
VERTEX
  5
19B
  8
0
  6
CONTINUOUS
 62
     7
 10
4.0316456413
 20
2.2247752315
 30
0.0
  0
VERTEX
  5
19C
  8
0
  6
CONTINUOUS
 62
     7
 10
4.0194436595
 20
2.2530543438
 30
0.0
  0
VERTEX
  5
19D
  8
0
  6
CONTINUOUS
 62
     7
 10
4.0052107211
 20
2.2810133983
 30
0.0
  0
VERTEX
  5
19E
  8
0
  6
CONTINUOUS
 62
     7
 10
3.9889680636
 20
2.3086017734
 30
0.0
  0
VERTEX
  5
19F
  8
0
  6
CONTINUOUS
 62
     7
 10
3.9707416616
 20
2.3357680585
 30
0.0
  0
VERTEX
  5
1A0
  8
0
  6
CONTINUOUS
 62
     7
 10
3.9505624507
 20
2.3624606747
 30
0.0
  0
VERTEX
  5
1A1
  8
0
  6
CONTINUOUS
 62
     7
 10
3.9284662883
 20
2.3886285248
 30
0.0
  0
VERTEX
  5
1A2
  8
0
  6
CONTINUOUS
 62
     7
 10
3.9044937109
 20
2.4142215752
 30
0.0
  0
VERTEX
  5
1A3
  8
0
  6
CONTINUOUS
 62
     7
 10
3.8786895628
 20
2.4391913118
 30
0.0
  0
VERTEX
  5
1A4
  8
0
  6
CONTINUOUS
 62
     7
 10
3.8511025741
 20
2.4634910518
 30
0.0
  0
VERTEX
  5
1A5
  8
0
  6
CONTINUOUS
 62
     7
 10
3.8217849463
 20
2.4870761205
 30
0.0
  0
VERTEX
  5
1A6
  8
0
  6
CONTINUOUS
 62
     7
 10
3.7907919842
 20
2.5099039218
 30
0.0
  0
VERTEX
  5
1A7
  8
0
  6
CONTINUOUS
 62
     7
 10
3.7581817892
 20
2.5319339343
 30
0.0
  0
VERTEX
  5
1A8
  8
0
  6
CONTINUOUS
 62
     7
 10
3.7240150165
 20
2.5531276658
 30
0.0
  0
VERTEX
  5
1A9
  8
0
  6
CONTINUOUS
 62
     7
 10
3.6883551019
 20
2.5734483626
 30
0.0
  0
VERTEX
  5
1AA
  8
0
  6
CONTINUOUS
 62
     7
 10
3.6512676521
 20
2.5928612698
 30
0.0
  0
VERTEX
  5
1AB
  8
0
  6
CONTINUOUS
 62
     7
 10
3.6128198751
 20
2.6113337622
 30
0.0
  0
VERTEX
  5
1AC
  8
0
  6
CONTINUOUS
 62
     7
 10
3.5730809971
 20
2.6288349794
 30
0.0
  0
VERTEX
  5
1AD
  8
0
  6
CONTINUOUS
 62
     7
 10
3.5321221828
 20
2.6453358057
 30
0.0
  0
VERTEX
  5
1AE
  8
0
  6
CONTINUOUS
 62
     7
 10
3.4900164556
 20
2.6608088638
 30
0.0
  0
VERTEX
  5
1AF
  8
0
  6
CONTINUOUS
 62
     7
 10
3.4468386141
 20
2.6752285211
 30
0.0
  0
VERTEX
  5
1B0
  8
0
  6
CONTINUOUS
 62
     7
 10
3.4026651435
 20
2.6885709059
 30
0.0
  0
VERTEX
  5
1B1
  8
0
  6
CONTINUOUS
 62
     7
 10
3.3575741186
 20
2.7008139305
 30
0.0
  0
VERTEX
  5
1B2
  8
0
  6
CONTINUOUS
 62
     7
 10
3.3116451
 20
2.7119373182
 30
0.0
  0
VERTEX
  5
1B3
  8
0
  6
CONTINUOUS
 62
     7
 10
3.2649590221
 20
2.7219226336
 30
0.0
  0
VERTEX
  5
1B4
  8
0
  6
CONTINUOUS
 62
     7
 10
3.2175980741
 20
2.7307533133
 30
0.0
  0
VERTEX
  5
1B5
  8
0
  6
CONTINUOUS
 62
     7
 10
3.1696455745
 20
2.7384146955
 30
0.0
  0
VERTEX
  5
1B6
  8
0
  6
CONTINUOUS
 62
     7
 10
3.1211858389
 20
2.7448940489
 30
0.0
  0
VERTEX
  5
1B7
  8
0
  6
CONTINUOUS
 62
     7
 10
3.0723040441
 20
2.7501805979
 30
0.0
  0
VERTEX
  5
1B8
  8
0
  6
CONTINUOUS
 62
     7
 10
3.0230860864
 20
2.7542655457
 30
0.0
  0
VERTEX
  5
1B9
  8
0
  6
CONTINUOUS
 62
     7
 10
2.9736184375
 20
2.7571420927
 30
0.0
  0
VERTEX
  5
1BA
  8
0
  6
CONTINUOUS
 62
     7
 10
2.9239879965
 20
2.7588054515
 30
0.0
  0
VERTEX
  5
1BB
  8
0
  6
CONTINUOUS
 62
     7
 10
2.8742819406
 20
2.7592528571
 30
0.0
  0
VERTEX
  5
1BC
  8
0
  6
CONTINUOUS
 62
     7
 10
2.8245875741
 20
2.7584835733
 30
0.0
  0
VERTEX
  5
1BD
  8
0
  6
CONTINUOUS
 62
     7
 10
2.7749923604
 20
2.7564989029
 30
0.0
  0
VERTEX
  5
1BE
  8
0
  6
CONTINUOUS
 62
     7
 10
2.7255835059
 20
2.7533021875
 30
0.0
  0
VERTEX
  5
1BF
  8
0
  6
CONTINUOUS
 62
     7
 10
2.6764477772
 20
2.7488987858
 30
0.0
  0
VERTEX
  5
1C0
  8
0
  6
CONTINUOUS
 62
     7
 10
2.6276714589
 20
2.7432960613
 30
0.0
  0
VERTEX
  5
1C1
  8
0
  6
CONTINUOUS
 62
     7
 10
2.5793402044
 20
2.7365033646
 30
0.0
  0
VERTEX
  5
1C2
  8
0
  6
CONTINUOUS
 62
     7
 10
2.53153889
 20
2.7285320109
 30
0.0
  0
VERTEX
  5
1C3
  8
0
  6
CONTINUOUS
 62
     7
 10
2.4843514715
 20
2.7193952533
 30
0.0
  0
VERTEX
  5
1C4
  8
0
  6
CONTINUOUS
 62
     7
 10
2.4378608454
 20
2.7091082524
 30
0.0
  0
VERTEX
  5
1C5
  8
0
  6
CONTINUOUS
 62
     7
 10
2.3921487146
 20
2.697688042
 30
0.0
  0
VERTEX
  5
1C6
  8
0
  6
CONTINUOUS
 62
     7
 10
2.3472954594
 20
2.6851534914
 30
0.0
  0
VERTEX
  5
1C7
  8
0
  6
CONTINUOUS
 62
     7
 10
2.3033800155
 20
2.6715252665
 30
0.0
  0
VERTEX
  5
1C8
  8
0
  6
CONTINUOUS
 62
     7
 10
2.2604797597
 20
2.6568257884
 30
0.0
  0
VERTEX
  5
1C9
  8
0
  6
CONTINUOUS
 62
     7
 10
2.2186704026
 20
2.6410791932
 30
0.0
  0
VERTEX
  5
1CA
  8
0
  6
CONTINUOUS
 62
     7
 10
2.1780258922
 20
2.6243112931
 30
0.0
  0
VERTEX
  5
1CB
  8
0
  6
CONTINUOUS
 62
     7
 10
2.1386183256
 20
2.6065495421
 30
0.0
  0
VERTEX
  5
1CC
  8
0
  6
CONTINUOUS
 62
     7
 10
2.1005178715
 20
2.5878230088
 30
0.0
  0
VERTEX
  5
1CD
  8
0
  6
CONTINUOUS
 62
     7
 10
2.0637927015
 20
2.568162359
 30
0.0
  0
VERTEX
  5
1CE
  8
0
  6
CONTINUOUS
 62
     7
 10
2.0499088468
 20
2.5602783583
 30
0.0
  0
SEQEND
  5
71B
  8
0
  6
CONTINUOUS
 62
     7
  0
POLYLINE
  5
14C
  8
0
  6
CONTINUOUS
 62
     7
 66
     1
 10
0.0
 20
0.0
 30
0.0
 70
   128
  0
VERTEX
  5
1CF
  8
0
  6
CONTINUOUS
 62
     7
 10
2.0499088468
 20
2.5602783583
 30
0.0
  0
VERTEX
  5
1D0
  8
0
  6
CONTINUOUS
 62
     7
 10
2.031433767
 20
2.5493718698
 30
0.0
  0
VERTEX
  5
1D1
  8
0
  6
CONTINUOUS
 62
     7
 10
1.9975286289
 20
2.5280152941
 30
0.0
  0
VERTEX
  5
1D2
  8
0
  6
CONTINUOUS
 62
     7
 10
1.9651825512
 20
2.5058213594
 30
0.0
  0
VERTEX
  5
1D3
  8
0
  6
CONTINUOUS
 62
     7
 10
1.9344589753
 20
2.4828294681
 30
0.0
  0
VERTEX
  5
1D4
  8
0
  6
CONTINUOUS
 62
     7
 10
1.9054157208
 20
2.4590789295
 30
0.0
  0
VERTEX
  5
1D5
  8
0
  6
CONTINUOUS
 62
     7
 10
1.8781079222
 20
2.4346108604
 30
0.0
  0
VERTEX
  5
1D6
  8
0
  6
CONTINUOUS
 62
     7
 10
1.8525880931
 20
2.4094684731
 30
0.0
  0
VERTEX
  5
1D7
  8
0
  6
CONTINUOUS
 62
     7
 10
1.8289058872
 20
2.3836972028
 30
0.0
  0
VERTEX
  5
1D8
  8
0
  6
CONTINUOUS
 62
     7
 10
1.8071077809
 20
2.3573448032
 30
0.0
  0
VERTEX
  5
1D9
  8
0
  6
CONTINUOUS
 62
     7
 10
1.7872366739
 20
2.3304613714
 30
0.0
  0
VERTEX
  5
1DA
  8
0
  6
CONTINUOUS
 62
     7
 10
1.7693314207
 20
2.3030992558
 30
0.0
  0
VERTEX
  5
1DB
  8
0
  6
CONTINUOUS
 62
     7
 10
1.7534263296
 20
2.275312802
 30
0.0
  0
VERTEX
  5
1DC
  8
0
  6
CONTINUOUS
 62
     7
 10
1.7395506934
 20
2.247157906
 30
0.0
  0
VERTEX
  5
1DD
  8
0
  6
CONTINUOUS
 62
     7
 10
1.7277284349
 20
2.2186913731
 30
0.0
  0
VERTEX
  5
1DE
  8
0
  6
CONTINUOUS
 62
     7
 10
1.7179779623
 20
2.1899701276
 30
0.0
  0
VERTEX
  5
1DF
  8
0
  6
CONTINUOUS
 62
     7
 10
1.7103123072
 20
2.1610503691
 30
0.0
  0
VERTEX
  5
1E0
  8
0
  6
CONTINUOUS
 62
     7
 10
1.7047395719
 20
2.1319868066
 30
0.0
  0
VERTEX
  5
1E1
  8
0
  6
CONTINUOUS
 62
     7
 10
1.7041738946
 20
2.1272421336
 30
0.0
  0
SEQEND
  5
71C
  8
0
  6
CONTINUOUS
 62
     7
  0
LINE
  5
14D
  8
0
  6
CONTINUOUS
 62
     7
 10
4.0618590071
 20
1.9302222489
 30
0.0
 11
4.0618590071
 21
2.0690324722
 31
0.0
  0
LINE
  5
14E
  8
0
  6
CONTINUOUS
 62
     7
 10
1.6998590071
 20
2.0690324722
 30
0.0
 11
1.6998590071
 21
1.9302222489
 31
0.0
  0
POLYLINE
  5
14F
  8
0
  6
CONTINUOUS
 62
     7
 66
     1
 10
0.0
 20
0.0
 30
0.0
 70
   128
  0
VERTEX
  5
1E2
  8
0
  6
CONTINUOUS
 62
     7
 10
1.7041650586
 20
1.8720283406
 30
0.0
  0
VERTEX
  5
1E3
  8
0
  6
CONTINUOUS
 62
     7
 10
1.7083029716
 20
1.8474822773
 30
0.0
  0
VERTEX
  5
1E4
  8
0
  6
CONTINUOUS
 62
     7
 10
1.7152730501
 20
1.8186083584
 30
0.0
  0
VERTEX
  5
1E5
  8
0
  6
CONTINUOUS
 62
     7
 10
1.7243106363
 20
1.7899318642
 30
0.0
  0
VERTEX
  5
1E6
  8
0
  6
CONTINUOUS
 62
     7
 10
1.7354038573
 20
1.7614999161
 30
0.0
  0
VERTEX
  5
1E7
  8
0
  6
CONTINUOUS
 62
     7
 10
1.7485377358
 20
1.7333610805
 30
0.0
  0
VERTEX
  5
1E8
  8
0
  6
CONTINUOUS
 62
     7
 10
1.7636934131
 20
1.7055653386
 30
0.0
  0
VERTEX
  5
1E9
  8
0
  6
CONTINUOUS
 62
     7
 10
1.7808475291
 20
1.6781637436
 30
0.0
  0
VERTEX
  5
1EA
  8
0
  6
CONTINUOUS
 62
     7
 10
1.7999718497
 20
1.6512078647
 30
0.0
  0
VERTEX
  5
1EB
  8
0
  6
CONTINUOUS
 62
     7
 10
1.8210331677
 20
1.6247491386
 30
0.0
  0
VERTEX
  5
1EC
  8
0
  6
CONTINUOUS
 62
     7
 10
1.8439934445
 20
1.5988382411
 30
0.0
  0
VERTEX
  5
1ED
  8
0
  6
CONTINUOUS
 62
     7
 10
1.8688101211
 20
1.5735245585
 30
0.0
  0
VERTEX
  5
1EE
  8
0
  6
CONTINUOUS
 62
     7
 10
1.8954365217
 20
1.5488557967
 30
0.0
  0
VERTEX
  5
1EF
  8
0
  6
CONTINUOUS
 62
     7
 10
1.9238222782
 20
1.5248777342
 30
0.0
  0
VERTEX
  5
1F0
  8
0
  6
CONTINUOUS
 62
     7
 10
1.9539137265
 20
1.5016340977
 30
0.0
  0
VERTEX
  5
1F1
  8
0
  6
CONTINUOUS
 62
     7
 10
1.9856542477
 20
1.4791665304
 30
0.0
  0
VERTEX
  5
1F2
  8
0
  6
CONTINUOUS
 62
     7
 10
2.0189845451
 20
1.4575146174
 30
0.0
  0
VERTEX
  5
1F3
  8
0
  6
CONTINUOUS
 62
     7
 10
2.0538428601
 20
1.4367159434
 30
0.0
  0
VERTEX
  5
1F4
  8
0
  6
CONTINUOUS
 62
     7
 10
2.0901643537
 20
1.416806571
 30
0.0
  0
VERTEX
  5
1F5
  8
0
  6
CONTINUOUS
 62
     7
 10
2.1278828777
 20
1.3978201415
 30
0.0
  0
VERTEX
  5
1F6
  8
0
  6
CONTINUOUS
 62
     7
 10
2.1669302904
 20
1.3797884689
 30
0.0
  0
VERTEX
  5
1F7
  8
0
  6
CONTINUOUS
 62
     7
 10
2.2072364684
 20
1.3627416132
 30
0.0
  0
VERTEX
  5
1F8
  8
0
  6
CONTINUOUS
 62
     7
 10
2.2487293863
 20
1.3467078947
 30
0.0
  0
VERTEX
  5
1F9
  8
0
  6
CONTINUOUS
 62
     7
 10
2.2913351976
 20
1.3317138935
 30
0.0
  0
VERTEX
  5
1FA
  8
0
  6
CONTINUOUS
 62
     7
 10
2.3349783201
 20
1.3177844388
 30
0.0
  0
VERTEX
  5
1FB
  8
0
  6
CONTINUOUS
 62
     7
 10
2.3795815289
 20
1.3049425888
 30
0.0
  0
VERTEX
  5
1FC
  8
0
  6
CONTINUOUS
 62
     7
 10
2.4250660556
 20
1.2932096061
 30
0.0
  0
VERTEX
  5
1FD
  8
0
  6
CONTINUOUS
 62
     7
 10
2.4713516965
 20
1.2826049284
 30
0.0
  0
VERTEX
  5
1FE
  8
0
  6
CONTINUOUS
 62
     7
 10
2.5183569276
 20
1.273146138
 30
0.0
  0
VERTEX
  5
1FF
  8
0
  6
CONTINUOUS
 62
     7
 10
2.5659990271
 20
1.2648489317
 30
0.0
  0
VERTEX
  5
200
  8
0
  6
CONTINUOUS
 62
     7
 10
2.6141942034
 20
1.2577270911
 30
0.0
  0
VERTEX
  5
201
  8
0
  6
CONTINUOUS
 62
     7
 10
2.6628577294
 20
1.2517924553
 30
0.0
  0
VERTEX
  5
202
  8
0
  6
CONTINUOUS
 62
     7
 10
2.7119040812
 20
1.247054897
 30
0.0
  0
VERTEX
  5
203
  8
0
  6
CONTINUOUS
 62
     7
 10
2.7612470812
 20
1.2435223008
 30
0.0
  0
VERTEX
  5
204
  8
0
  6
CONTINUOUS
 62
     7
 10
2.8108000435
 20
1.2412005471
 30
0.0
  0
VERTEX
  5
205
  8
0
  6
CONTINUOUS
 62
     7
 10
2.8604759231
 20
1.2400934985
 30
0.0
  0
VERTEX
  5
206
  8
0
  6
CONTINUOUS
 62
     7
 10
2.9101874658
 20
1.240202992
 30
0.0
  0
VERTEX
  5
207
  8
0
  6
CONTINUOUS
 62
     7
 10
2.9598473336
 20
1.2415288338
 30
0.0
  0
VERTEX
  5
208
  8
0
  6
CONTINUOUS
 62
     7
 10
3.0093680451
 20
1.2440687837
 30
0.0
  0
VERTEX
  5
209
  8
0
  6
CONTINUOUS
 62
     7
 10
3.0586626348
 20
1.2478185757
 30
0.0
  0
VERTEX
  5
20A
  8
0
  6
CONTINUOUS
 62
     7
 10
3.1076445381
 20
1.2527719316
 30
0.0
  0
VERTEX
  5
20B
  8
0
  6
CONTINUOUS
 62
     7
 10
3.1562277409
 20
1.2589205759
 30
0.0
  0
VERTEX
  5
20C
  8
0
  6
CONTINUOUS
 62
     7
 10
3.2043269275
 20
1.2662542559
 30
0.0
  0
VERTEX
  5
20D
  8
0
  6
CONTINUOUS
 62
     7
 10
3.2518576256
 20
1.2747607659
 30
0.0
  0
VERTEX
  5
20E
  8
0
  6
CONTINUOUS
 62
     7
 10
3.2987363469
 20
1.2844259756
 30
0.0
  0
VERTEX
  5
20F
  8
0
  6
CONTINUOUS
 62
     7
 10
3.3448807251
 20
1.2952338626
 30
0.0
  0
VERTEX
  5
210
  8
0
  6
CONTINUOUS
 62
     7
 10
3.390209647
 20
1.3071665483
 30
0.0
  0
VERTEX
  5
211
  8
0
  6
CONTINUOUS
 62
     7
 10
3.4346433786
 20
1.320204336
 30
0.0
  0
VERTEX
  5
212
  8
0
  6
CONTINUOUS
 62
     7
 10
3.4781036841
 20
1.3343257515
 30
0.0
  0
VERTEX
  5
213
  8
0
  6
CONTINUOUS
 62
     7
 10
3.5205139366
 20
1.3495075837
 30
0.0
  0
VERTEX
  5
214
  8
0
  6
CONTINUOUS
 62
     7
 10
3.5617992207
 20
1.3657249249
 30
0.0
  0
VERTEX
  5
215
  8
0
  6
CONTINUOUS
 62
     7
 10
3.6018864252
 20
1.3829512073
 30
0.0
  0
VERTEX
  5
216
  8
0
  6
CONTINUOUS
 62
     7
 10
3.6407043266
 20
1.4011582353
 30
0.0
  0
VERTEX
  5
217
  8
0
  6
CONTINUOUS
 62
     7
 10
3.6781836623
 20
1.4203162078
 30
0.0
  0
VERTEX
  5
218
  8
0
  6
CONTINUOUS
 62
     7
 10
3.7142571953
 20
1.4403937297
 30
0.0
  0
VERTEX
  5
219
  8
0
  6
CONTINUOUS
 62
     7
 10
3.7488597715
 20
1.4613578062
 30
0.0
  0
VERTEX
  5
21A
  8
0
  6
CONTINUOUS
 62
     7
 10
3.7819283747
 20
1.4831738161
 30
0.0
  0
VERTEX
  5
21B
  8
0
  6
CONTINUOUS
 62
     7
 10
3.8134019676
 20
1.5058052991
 30
0.0
  0
VERTEX
  5
21C
  8
0
  6
CONTINUOUS
 62
     7
 10
3.8432212993
 20
1.529213586
 30
0.0
  0
VERTEX
  5
21D
  8
0
  6
CONTINUOUS
 62
     7
 10
3.8713300967
 20
1.5533584746
 30
0.0
  0
VERTEX
  5
21E
  8
0
  6
CONTINUOUS
 62
     7
 10
3.8976746212
 20
1.5781977282
 30
0.0
  0
VERTEX
  5
21F
  8
0
  6
CONTINUOUS
 62
     7
 10
3.9222038758
 20
1.6036869436
 30
0.0
  0
VERTEX
  5
220
  8
0
  6
CONTINUOUS
 62
     7
 10
3.9448698851
 20
1.6297794367
 30
0.0
  0
VERTEX
  5
221
  8
0
  6
CONTINUOUS
 62
     7
 10
3.9656280578
 20
1.6564261796
 30
0.0
  0
VERTEX
  5
222
  8
0
  6
CONTINUOUS
 62
     7
 10
3.9844376266
 20
1.6835758338
 30
0.0
  0
VERTEX
  5
223
  8
0
  6
CONTINUOUS
 62
     7
 10
4.0012621405
 20
1.7111749242
 30
0.0
  0
VERTEX
  5
224
  8
0
  6
CONTINUOUS
 62
     7
 10
4.0160699578
 20
1.739168196
 30
0.0
  0
VERTEX
  5
225
  8
0
  6
CONTINUOUS
 62
     7
 10
4.0288346654
 20
1.7674991696
 30
0.0
  0
VERTEX
  5
226
  8
0
  6
CONTINUOUS
 62
     7
 10
4.0395353297
 20
1.7961108709
 30
0.0
  0
VERTEX
  5
227
  8
0
  6
CONTINUOUS
 62
     7
 10
4.0481564953
 20
1.8249466653
 30
0.0
  0
VERTEX
  5
228
  8
0
  6
CONTINUOUS
 62
     7
 10
4.0546878782
 20
1.8539510777
 30
0.0
  0
VERTEX
  5
229
  8
0
  6
CONTINUOUS
 62
     7
 10
4.0580357407
 20
1.8759281247
 30
0.0
  0
SEQEND
  5
71D
  8
0
  6
CONTINUOUS
 62
     7
  0
POLYLINE
  5
150
  8
0
  6
CONTINUOUS
 62
     7
 66
     1
 10
0.0
 20
0.0
 30
0.0
 70
   128
  0
VERTEX
  5
22A
  8
0
  6
CONTINUOUS
 62
     7
 10
3.6661183197
 20
2.0373904249
 30
0.0
  0
VERTEX
  5
22B
  8
0
  6
CONTINUOUS
 62
     7
 10
3.6658054175
 20
2.034084591
 30
0.0
  0
VERTEX
  5
22C
  8
0
  6
CONTINUOUS
 62
     7
 10
3.6615554498
 20
2.0113475754
 30
0.0
  0
VERTEX
  5
22D
  8
0
  6
CONTINUOUS
 62
     7
 10
3.6552314204
 20
1.9887661642
 30
0.0
  0
VERTEX
  5
22E
  8
0
  6
CONTINUOUS
 62
     7
 10
3.6468594208
 20
1.9664093742
 30
0.0
  0
VERTEX
  5
22F
  8
0
  6
CONTINUOUS
 62
     7
 10
3.6364718271
 20
1.9443387182
 30
0.0
  0
VERTEX
  5
230
  8
0
  6
CONTINUOUS
 62
     7
 10
3.6241041924
 20
1.9226089574
 30
0.0
  0
VERTEX
  5
231
  8
0
  6
CONTINUOUS
 62
     7
 10
3.6097935675
 20
1.9012702805
 30
0.0
  0
VERTEX
  5
232
  8
0
  6
CONTINUOUS
 62
     7
 10
3.5935782272
 20
1.8803706521
 30
0.0
  0
VERTEX
  5
233
  8
0
  6
CONTINUOUS
 62
     7
 10
3.5754982989
 20
1.8599575773
 30
0.0
  0
VERTEX
  5
234
  8
0
  6
CONTINUOUS
 62
     7
 10
3.5555967436
 20
1.8400790675
 30
0.0
  0
VERTEX
  5
235
  8
0
  6
CONTINUOUS
 62
     7
 10
3.5339203077
 20
1.8207839204
 30
0.0
  0
VERTEX
  5
236
  8
0
  6
CONTINUOUS
 62
     7
 10
3.5105202557
 20
1.8021215351
 30
0.0
  0
VERTEX
  5
237
  8
0
  6
CONTINUOUS
 62
     7
 10
3.4854528276
 20
1.7841414721
 30
0.0
  0
VERTEX
  5
238
  8
0
  6
CONTINUOUS
 62
     7
 10
3.4587794442
 20
1.7668929137
 30
0.0
  0
VERTEX
  5
239
  8
0
  6
CONTINUOUS
 62
     7
 10
3.4305672098
 20
1.7504243987
 30
0.0
  0
VERTEX
  5
23A
  8
0
  6
CONTINUOUS
 62
     7
 10
3.4008886558
 20
1.7347831355
 30
0.0
  0
VERTEX
  5
23B
  8
0
  6
CONTINUOUS
 62
     7
 10
3.3698199286
 20
1.7200137959
 30
0.0
  0
VERTEX
  5
23C
  8
0
  6
CONTINUOUS
 62
     7
 10
3.3374416948
 20
1.7061589533
 30
0.0
  0
VERTEX
  5
23D
  8
0
  6
CONTINUOUS
 62
     7
 10
3.3038388232
 20
1.6932587822
 30
0.0
  0
VERTEX
  5
23E
  8
0
  6
CONTINUOUS
 62
     7
 10
3.2691000458
 20
1.681350818
 30
0.0
  0
VERTEX
  5
23F
  8
0
  6
CONTINUOUS
 62
     7
 10
3.2333176117
 20
1.6704697662
 30
0.0
  0
VERTEX
  5
240
  8
0
  6
CONTINUOUS
 62
     7
 10
3.1965869422
 20
1.6606473527
 30
0.0
  0
VERTEX
  5
241
  8
0
  6
CONTINUOUS
 62
     7
 10
3.1590062904
 20
1.6519122063
 30
0.0
  0
VERTEX
  5
242
  8
0
  6
CONTINUOUS
 62
     7
 10
3.120676408
 20
1.6442897662
 30
0.0
  0
VERTEX
  5
243
  8
0
  6
CONTINUOUS
 62
     7
 10
3.0817002182
 20
1.6378022104
 30
0.0
  0
VERTEX
  5
244
  8
0
  6
CONTINUOUS
 62
     7
 10
3.0421824961
 20
1.6324683983
 30
0.0
  0
VERTEX
  5
245
  8
0
  6
CONTINUOUS
 62
     7
 10
3.0022295541
 20
1.6283038277
 30
0.0
  0
VERTEX
  5
246
  8
0
  6
CONTINUOUS
 62
     7
 10
2.9619489325
 20
1.6253206006
 30
0.0
  0
VERTEX
  5
247
  8
0
  6
CONTINUOUS
 62
     7
 10
2.9214490934
 20
1.6235273984
 30
0.0
  0
VERTEX
  5
248
  8
0
  6
CONTINUOUS
 62
     7
 10
2.8808391188
 20
1.6229294645
 30
0.0
  0
VERTEX
  5
249
  8
0
  6
CONTINUOUS
 62
     7
 10
2.8402284094
 20
1.6235285933
 30
0.0
  0
VERTEX
  5
24A
  8
0
  6
CONTINUOUS
 62
     7
 10
2.7997266426
 20
1.6253231107
 30
0.0
  0
VERTEX
  5
24B
  8
0
  6
CONTINUOUS
 62
     7
 10
2.7594432109
 20
1.6283078598
 30
0.0
  0
VERTEX
  5
24C
  8
0
  6
CONTINUOUS
 62
     7
 10
2.7194866664
 20
1.6324742382
 30
0.0
  0
VERTEX
  5
24D
  8
0
  6
CONTINUOUS
 62
     7
 10
2.67996468
 20
1.6378102112
 30
0.0
  0
VERTEX
  5
24E
  8
0
  6
CONTINUOUS
 62
     7
 10
2.640983743
 20
1.6443003293
 30
0.0
  0
VERTEX
  5
24F
  8
0
  6
CONTINUOUS
 62
     7
 10
2.6026488663
 20
1.6519257533
 30
0.0
  0
VERTEX
  5
250
  8
0
  6
CONTINUOUS
 62
     7
 10
2.5650632771
 20
1.6606642857
 30
0.0
  0
VERTEX
  5
251
  8
0
  6
CONTINUOUS
 62
     7
 10
2.5283281112
 20
1.6704904097
 30
0.0
  0
VERTEX
  5
252
  8
0
  6
CONTINUOUS
 62
     7
 10
2.4925421008
 20
1.6813753388
 30
0.0
  0
VERTEX
  5
253
  8
0
  6
CONTINUOUS
 62
     7
 10
2.4578012542
 20
1.6932870782
 30
0.0
  0
VERTEX
  5
254
  8
0
  6
CONTINUOUS
 62
     7
 10
2.4241985285
 20
1.7061905026
 30
0.0
  0
VERTEX
  5
255
  8
0
  6
CONTINUOUS
 62
     7
 10
2.3918234915
 20
1.7200474549
 30
0.0
  0
VERTEX
  5
256
  8
0
  6
CONTINUOUS
 62
     7
 10
2.3607619752
 20
1.7348168736
 30
0.0
  0
VERTEX
  5
257
  8
0
  6
CONTINUOUS
 62
     7
 10
2.331095718
 20
1.7504549575
 30
0.0
  0
VERTEX
  5
258
  8
0
  6
CONTINUOUS
 62
     7
 10
2.302902003
 20
1.7669153801
 30
0.0
  0
VERTEX
  5
259
  8
0
  6
CONTINUOUS
 62
     7
 10
2.2762532963
 20
1.7841495684
 30
0.0
  0
VERTEX
  5
25A
  8
0
  6
CONTINUOUS
 62
     7
 10
2.2512169019
 20
1.8021070622
 30
0.0
  0
VERTEX
  5
25B
  8
0
  6
CONTINUOUS
 62
     7
 10
2.2278556804
 20
1.8207351073
 30
0.0
  0
VERTEX
  5
25C
  8
0
  6
CONTINUOUS
 62
     7
 10
2.206226357
 20
1.839980084
 30
0.0
  0
VERTEX
  5
25D
  8
0
  6
CONTINUOUS
 62
     7
 10
2.1863792862
 20
1.8597883865
 30
0.0
  0
VERTEX
  5
25E
  8
0
  6
CONTINUOUS
 62
     7
 10
2.1683589082
 20
1.880106922
 30
0.0
  0
VERTEX
  5
25F
  8
0
  6
CONTINUOUS
 62
     7
 10
2.1522040118
 20
1.9008839846
 30
0.0
  0
VERTEX
  5
260
  8
0
  6
CONTINUOUS
 62
     7
 10
2.1379483271
 20
1.9220700983
 30
0.0
  0
VERTEX
  5
261
  8
0
  6
CONTINUOUS
 62
     7
 10
2.1256214972
 20
1.9436186462
 30
0.0
  0
VERTEX
  5
262
  8
0
  6
CONTINUOUS
 62
     7
 10
2.1152504018
 20
1.9654860085
 30
0.0
  0
VERTEX
  5
263
  8
0
  6
CONTINUOUS
 62
     7
 10
2.1068606459
 20
1.9876308705
 30
0.0
  0
VERTEX
  5
264
  8
0
  6
CONTINUOUS
 62
     7
 10
2.1004778067
 20
2.0100124022
 30
0.0
  0
VERTEX
  5
265
  8
0
  6
CONTINUOUS
 62
     7
 10
2.0961278056
 20
2.0325872836
 30
0.0
  0
VERTEX
  5
266
  8
0
  6
CONTINUOUS
 62
     7
 10
2.0959622296
 20
2.0342284619
 30
0.0
  0
SEQEND
  5
71E
  8
0
  6
CONTINUOUS
 62
     7
  0
POLYLINE
  5
151
  8
0
  6
CONTINUOUS
 62
     7
 66
     1
 10
0.0
 20
0.0
 30
0.0
 70
   128
  0
VERTEX
  5
267
  8
0
  6
CONTINUOUS
 62
     7
 10
2.1034297567
 20
1.9996613406
 30
0.0
  0
VERTEX
  5
268
  8
0
  6
CONTINUOUS
 62
     7
 10
2.1055216464
 20
2.0074804512
 30
0.0
  0
VERTEX
  5
269
  8
0
  6
CONTINUOUS
 62
     7
 10
2.1136215575
 20
2.0298710073
 30
0.0
  0
VERTEX
  5
26A
  8
0
  6
CONTINUOUS
 62
     7
 10
2.1237416314
 20
2.0519832269
 30
0.0
  0
VERTEX
  5
26B
  8
0
  6
CONTINUOUS
 62
     7
 10
2.1358466081
 20
2.0737615553
 30
0.0
  0
VERTEX
  5
26C
  8
0
  6
CONTINUOUS
 62
     7
 10
2.1498995947
 20
2.0951553351
 30
0.0
  0
VERTEX
  5
26D
  8
0
  6
CONTINUOUS
 62
     7
 10
2.1658625027
 20
2.1161164231
 30
0.0
  0
VERTEX
  5
26E
  8
0
  6
CONTINUOUS
 62
     7
 10
2.1836955065
 20
2.1365973262
 30
0.0
  0
VERTEX
  5
26F
  8
0
  6
CONTINUOUS
 62
     7
 10
2.2033560824
 20
2.1565501299
 30
0.0
  0
VERTEX
  5
270
  8
0
  6
CONTINUOUS
 62
     7
 10
2.2247980383
 20
2.1759261385
 30
0.0
  0
VERTEX
  5
271
  8
0
  6
CONTINUOUS
 62
     7
 10
2.2479707467
 20
2.1946760117
 30
0.0
  0
VERTEX
  5
272
  8
0
  6
CONTINUOUS
 62
     7
 10
2.2728186497
 20
2.2127501803
 30
0.0
  0
VERTEX
  5
273
  8
0
  6
CONTINUOUS
 62
     7
 10
2.2992810234
 20
2.2300993794
 30
0.0
  0
VERTEX
  5
274
  8
0
  6
CONTINUOUS
 62
     7
 10
2.3199390657
 20
2.2424858692
 30
0.0
  0
VERTEX
  5
275
  8
0
  6
CONTINUOUS
 62
     7
 10
2.335039301
 20
2.2509725287
 30
0.0
  0
VERTEX
  5
276
  8
0
  6
CONTINUOUS
 62
     7
 10
2.3649046049
 20
2.2664977675
 30
0.0
  0
VERTEX
  5
277
  8
0
  6
CONTINUOUS
 62
     7
 10
2.3961531854
 20
2.2811472499
 30
0.0
  0
VERTEX
  5
278
  8
0
  6
CONTINUOUS
 62
     7
 10
2.4287001622
 20
2.2948767196
 30
0.0
  0
VERTEX
  5
279
  8
0
  6
CONTINUOUS
 62
     7
 10
2.462460129
 20
2.3076463416
 30
0.0
  0
VERTEX
  5
27A
  8
0
  6
CONTINUOUS
 62
     7
 10
2.4973438637
 20
2.3194189488
 30
0.0
  0
VERTEX
  5
27B
  8
0
  6
CONTINUOUS
 62
     7
 10
2.533258673
 20
2.3301602264
 30
0.0
  0
VERTEX
  5
27C
  8
0
  6
CONTINUOUS
 62
     7
 10
2.5701087374
 20
2.3398388561
 30
0.0
  0
VERTEX
  5
27D
  8
0
  6
CONTINUOUS
 62
     7
 10
2.6077954506
 20
2.3484266311
 30
0.0
  0
VERTEX
  5
27E
  8
0
  6
CONTINUOUS
 62
     7
 10
2.6462177518
 20
2.355898544
 30
0.0
  0
VERTEX
  5
27F
  8
0
  6
CONTINUOUS
 62
     7
 10
2.6852724518
 20
2.3622328579
 30
0.0
  0
VERTEX
  5
280
  8
0
  6
CONTINUOUS
 62
     7
 10
2.7248545518
 20
2.3674111604
 30
0.0
  0
VERTEX
  5
281
  8
0
  6
CONTINUOUS
 62
     7
 10
2.7648575575
 20
2.371418406
 30
0.0
  0
VERTEX
  5
282
  8
0
  6
CONTINUOUS
 62
     7
 10
2.8051737877
 20
2.3742429489
 30
0.0
  0
VERTEX
  5
283
  8
0
  6
CONTINUOUS
 62
     7
 10
2.8456946797
 20
2.3758765664
 30
0.0
  0
VERTEX
  5
284
  8
0
  6
CONTINUOUS
 62
     7
 10
2.8863110919
 20
2.3763144758
 30
0.0
  0
VERTEX
  5
285
  8
0
  6
CONTINUOUS
 62
     7
 10
2.9269136034
 20
2.3755553441
 30
0.0
  0
VERTEX
  5
286
  8
0
  6
CONTINUOUS
 62
     7
 10
2.9673924884
 20
2.3736013128
 30
0.0
  0
VERTEX
  5
287
  8
0
  6
CONTINUOUS
 62
     7
 10
3.0076384842
 20
2.3704580007
 30
0.0
  0
VERTEX
  5
288
  8
0
  6
CONTINUOUS
 62
     7
 10
3.0475431391
 20
2.3661344699
 30
0.0
  0
VERTEX
  5
289
  8
0
  6
CONTINUOUS
 62
     7
 10
3.0869989225
 20
2.360643213
 30
0.0
  0
VERTEX
  5
28A
  8
0
  6
CONTINUOUS
 62
     7
 10
3.1258995238
 20
2.3540001341
 30
0.0
  0
VERTEX
  5
28B
  8
0
  6
CONTINUOUS
 62
     7
 10
3.1641401529
 20
2.3462245235
 30
0.0
  0
VERTEX
  5
28C
  8
0
  6
CONTINUOUS
 62
     7
 10
3.2016178442
 20
2.3373390249
 30
0.0
  0
VERTEX
  5
28D
  8
0
  6
CONTINUOUS
 62
     7
 10
3.238231765
 20
2.3273695955
 30
0.0
  0
VERTEX
  5
28E
  8
0
  6
CONTINUOUS
 62
     7
 10
3.2738835288
 20
2.3163454546
 30
0.0
  0
VERTEX
  5
28F
  8
0
  6
CONTINUOUS
 62
     7
 10
3.308477516
 20
2.3042990204
 30
0.0
  0
VERTEX
  5
290
  8
0
  6
CONTINUOUS
 62
     7
 10
3.3419212029
 20
2.29126583
 30
0.0
  0
VERTEX
  5
291
  8
0
  6
CONTINUOUS
 62
     7
 10
3.3741255007
 20
2.2772844366
 30
0.0
  0
VERTEX
  5
292
  8
0
  6
CONTINUOUS
 62
     7
 10
3.4050051042
 20
2.2623962788
 30
0.0
  0
VERTEX
  5
293
  8
0
  6
CONTINUOUS
 62
     7
 10
3.4344788493
 20
2.246645509
 30
0.0
  0
VERTEX
  5
294
  8
0
  6
CONTINUOUS
 62
     7
 10
3.4624700766
 20
2.2300787717
 30
0.0
  0
VERTEX
  5
295
  8
0
  6
CONTINUOUS
 62
     7
 10
3.4889069903
 20
2.2127449152
 30
0.0
  0
VERTEX
  5
296
  8
0
  6
CONTINUOUS
 62
     7
 10
3.5137230014
 20
2.1946946196
 30
0.0
  0
VERTEX
  5
297
  8
0
  6
CONTINUOUS
 62
     7
 10
3.5368557871
 20
2.1759809848
 30
0.0
  0
VERTEX
  5
298
  8
0
  6
CONTINUOUS
 62
     7
 10
3.558249597
 20
2.1566575856
 30
0.0
  0
VERTEX
  5
299
  8
0
  6
CONTINUOUS
 62
     7
 10
3.5778548726
 20
2.136778008
 30
0.0
  0
VERTEX
  5
29A
  8
0
  6
CONTINUOUS
 62
     7
 10
3.5956279511
 20
2.1163952104
 30
0.0
  0
VERTEX
  5
29B
  8
0
  6
CONTINUOUS
 62
     7
 10
3.6115307622
 20
2.0955606471
 30
0.0
  0
VERTEX
  5
29C
  8
0
  6
CONTINUOUS
 62
     7
 10
3.6255301874
 20
2.0743234407
 30
0.0
  0
VERTEX
  5
29D
  8
0
  6
CONTINUOUS
 62
     7
 10
3.6375970359
 20
2.0527298009
 30
0.0
  0
VERTEX
  5
29E
  8
0
  6
CONTINUOUS
 62
     7
 10
3.6477046845
 20
2.0308229768
 30
0.0
  0
VERTEX
  5
29F
  8
0
  6
CONTINUOUS
 62
     7
 10
3.6558275924
 20
2.0086440862
 30
0.0
  0
VERTEX
  5
2A0
  8
0
  6
CONTINUOUS
 62
     7
 10
3.658280161
 20
1.9996523983
 30
0.0
  0
SEQEND
  5
71F
  8
0
  6
CONTINUOUS
 62
     7
  0
ARC
  5
152
  8
0
  6
CONTINUOUS
 62
     7
 10
3.7809821715
 20
1.7526889569
 30
0.0
 40
0.2783101540312551
 50
6.0787209946
 51
15.7274604938
  0
ARC
  5
153
  8
0
  6
CONTINUOUS
 62
     7
 10
1.9691772523
 20
1.7539176929
 30
0.0
 40
0.266738553154696
 50
163.8441534259
 51
173.4611006589
  0
LINE
  5
154
  8
0
  6
CONTINUOUS
 62
     7
 10
4.0618590071
 20
1.5872733932
 30
0.0
 11
4.0618590071
 21
1.7260836164
 31
0.0
  0
LINE
  5
155
  8
0
  6
CONTINUOUS
 62
     7
 10
1.6998590071
 20
1.7260836164
 30
0.0
 11
1.6998590071
 21
1.5872733932
 31
0.0
  0
POLYLINE
  5
156
  8
0
  6
CONTINUOUS
 62
     7
 66
     1
 10
0.0
 20
0.0
 30
0.0
 70
   128
  0
VERTEX
  5
2A1
  8
0
  6
CONTINUOUS
 62
     7
 10
1.7041650586
 20
1.5290794848
 30
0.0
  0
VERTEX
  5
2A2
  8
0
  6
CONTINUOUS
 62
     7
 10
1.7083029716
 20
1.5045334216
 30
0.0
  0
VERTEX
  5
2A3
  8
0
  6
CONTINUOUS
 62
     7
 10
1.7152730501
 20
1.4756595026
 30
0.0
  0
VERTEX
  5
2A4
  8
0
  6
CONTINUOUS
 62
     7
 10
1.7243106363
 20
1.4469830085
 30
0.0
  0
VERTEX
  5
2A5
  8
0
  6
CONTINUOUS
 62
     7
 10
1.7354038573
 20
1.4185510604
 30
0.0
  0
VERTEX
  5
2A6
  8
0
  6
CONTINUOUS
 62
     7
 10
1.7485377358
 20
1.3904122248
 30
0.0
  0
VERTEX
  5
2A7
  8
0
  6
CONTINUOUS
 62
     7
 10
1.7636934131
 20
1.3626164829
 30
0.0
  0
VERTEX
  5
2A8
  8
0
  6
CONTINUOUS
 62
     7
 10
1.7808475291
 20
1.3352148879
 30
0.0
  0
VERTEX
  5
2A9
  8
0
  6
CONTINUOUS
 62
     7
 10
1.7999718497
 20
1.308259009
 30
0.0
  0
VERTEX
  5
2AA
  8
0
  6
CONTINUOUS
 62
     7
 10
1.8210331677
 20
1.2818002828
 30
0.0
  0
VERTEX
  5
2AB
  8
0
  6
CONTINUOUS
 62
     7
 10
1.8439934445
 20
1.2558893854
 30
0.0
  0
VERTEX
  5
2AC
  8
0
  6
CONTINUOUS
 62
     7
 10
1.8688101211
 20
1.2305757028
 30
0.0
  0
VERTEX
  5
2AD
  8
0
  6
CONTINUOUS
 62
     7
 10
1.8954365217
 20
1.205906941
 30
0.0
  0
VERTEX
  5
2AE
  8
0
  6
CONTINUOUS
 62
     7
 10
1.9238222782
 20
1.1819288784
 30
0.0
  0
VERTEX
  5
2AF
  8
0
  6
CONTINUOUS
 62
     7
 10
1.9539137265
 20
1.158685242
 30
0.0
  0
VERTEX
  5
2B0
  8
0
  6
CONTINUOUS
 62
     7
 10
1.9856542477
 20
1.1362176746
 30
0.0
  0
VERTEX
  5
2B1
  8
0
  6
CONTINUOUS
 62
     7
 10
2.0189845451
 20
1.1145657616
 30
0.0
  0
VERTEX
  5
2B2
  8
0
  6
CONTINUOUS
 62
     7
 10
2.0538428601
 20
1.0937670877
 30
0.0
  0
VERTEX
  5
2B3
  8
0
  6
CONTINUOUS
 62
     7
 10
2.0901643537
 20
1.0738577152
 30
0.0
  0
VERTEX
  5
2B4
  8
0
  6
CONTINUOUS
 62
     7
 10
2.1278828777
 20
1.0548712858
 30
0.0
  0
VERTEX
  5
2B5
  8
0
  6
CONTINUOUS
 62
     7
 10
2.1669302904
 20
1.0368396131
 30
0.0
  0
VERTEX
  5
2B6
  8
0
  6
CONTINUOUS
 62
     7
 10
2.2072364684
 20
1.0197927575
 30
0.0
  0
VERTEX
  5
2B7
  8
0
  6
CONTINUOUS
 62
     7
 10
2.2487293863
 20
1.0037590389
 30
0.0
  0
VERTEX
  5
2B8
  8
0
  6
CONTINUOUS
 62
     7
 10
2.2913351976
 20
0.9887650378
 30
0.0
  0
VERTEX
  5
2B9
  8
0
  6
CONTINUOUS
 62
     7
 10
2.3349783201
 20
0.974835583
 30
0.0
  0
VERTEX
  5
2BA
  8
0
  6
CONTINUOUS
 62
     7
 10
2.3795815289
 20
0.9619937331
 30
0.0
  0
VERTEX
  5
2BB
  8
0
  6
CONTINUOUS
 62
     7
 10
2.4250660556
 20
0.9502607504
 30
0.0
  0
VERTEX
  5
2BC
  8
0
  6
CONTINUOUS
 62
     7
 10
2.4713516965
 20
0.9396560727
 30
0.0
  0
VERTEX
  5
2BD
  8
0
  6
CONTINUOUS
 62
     7
 10
2.5183569276
 20
0.9301972823
 30
0.0
  0
VERTEX
  5
2BE
  8
0
  6
CONTINUOUS
 62
     7
 10
2.5659990271
 20
0.921900076
 30
0.0
  0
VERTEX
  5
2BF
  8
0
  6
CONTINUOUS
 62
     7
 10
2.6141942034
 20
0.9147782354
 30
0.0
  0
VERTEX
  5
2C0
  8
0
  6
CONTINUOUS
 62
     7
 10
2.6628577294
 20
0.9088435996
 30
0.0
  0
VERTEX
  5
2C1
  8
0
  6
CONTINUOUS
 62
     7
 10
2.7119040812
 20
0.9041060412
 30
0.0
  0
VERTEX
  5
2C2
  8
0
  6
CONTINUOUS
 62
     7
 10
2.7612470812
 20
0.9005734451
 30
0.0
  0
VERTEX
  5
2C3
  8
0
  6
CONTINUOUS
 62
     7
 10
2.8108000435
 20
0.8982516913
 30
0.0
  0
VERTEX
  5
2C4
  8
0
  6
CONTINUOUS
 62
     7
 10
2.8604759231
 20
0.8971446428
 30
0.0
  0
VERTEX
  5
2C5
  8
0
  6
CONTINUOUS
 62
     7
 10
2.9101874658
 20
0.8972541363
 30
0.0
  0
VERTEX
  5
2C6
  8
0
  6
CONTINUOUS
 62
     7
 10
2.9598473336
 20
0.8985799781
 30
0.0
  0
VERTEX
  5
2C7
  8
0
  6
CONTINUOUS
 62
     7
 10
3.0093680451
 20
0.9011199279
 30
0.0
  0
VERTEX
  5
2C8
  8
0
  6
CONTINUOUS
 62
     7
 10
3.0586626348
 20
0.90486972
 30
0.0
  0
VERTEX
  5
2C9
  8
0
  6
CONTINUOUS
 62
     7
 10
3.1076445381
 20
0.9098230759
 30
0.0
  0
VERTEX
  5
2CA
  8
0
  6
CONTINUOUS
 62
     7
 10
3.1562277409
 20
0.9159717202
 30
0.0
  0
VERTEX
  5
2CB
  8
0
  6
CONTINUOUS
 62
     7
 10
3.2043269275
 20
0.9233054002
 30
0.0
  0
VERTEX
  5
2CC
  8
0
  6
CONTINUOUS
 62
     7
 10
3.2518576256
 20
0.9318119102
 30
0.0
  0
VERTEX
  5
2CD
  8
0
  6
CONTINUOUS
 62
     7
 10
3.2987363469
 20
0.9414771198
 30
0.0
  0
VERTEX
  5
2CE
  8
0
  6
CONTINUOUS
 62
     7
 10
3.3448807251
 20
0.9522850069
 30
0.0
  0
VERTEX
  5
2CF
  8
0
  6
CONTINUOUS
 62
     7
 10
3.390209647
 20
0.9642176926
 30
0.0
  0
VERTEX
  5
2D0
  8
0
  6
CONTINUOUS
 62
     7
 10
3.4346433786
 20
0.9772554803
 30
0.0
  0
VERTEX
  5
2D1
  8
0
  6
CONTINUOUS
 62
     7
 10
3.4781036841
 20
0.9913768958
 30
0.0
  0
VERTEX
  5
2D2
  8
0
  6
CONTINUOUS
 62
     7
 10
3.5205139366
 20
1.006558728
 30
0.0
  0
VERTEX
  5
2D3
  8
0
  6
CONTINUOUS
 62
     7
 10
3.5617992207
 20
1.0227760692
 30
0.0
  0
VERTEX
  5
2D4
  8
0
  6
CONTINUOUS
 62
     7
 10
3.6018864252
 20
1.0400023516
 30
0.0
  0
VERTEX
  5
2D5
  8
0
  6
CONTINUOUS
 62
     7
 10
3.6407043266
 20
1.0582093796
 30
0.0
  0
VERTEX
  5
2D6
  8
0
  6
CONTINUOUS
 62
     7
 10
3.6781836623
 20
1.0773673521
 30
0.0
  0
VERTEX
  5
2D7
  8
0
  6
CONTINUOUS
 62
     7
 10
3.7142571953
 20
1.097444874
 30
0.0
  0
VERTEX
  5
2D8
  8
0
  6
CONTINUOUS
 62
     7
 10
3.7488597715
 20
1.1184089505
 30
0.0
  0
VERTEX
  5
2D9
  8
0
  6
CONTINUOUS
 62
     7
 10
3.7819283747
 20
1.1402249604
 30
0.0
  0
VERTEX
  5
2DA
  8
0
  6
CONTINUOUS
 62
     7
 10
3.8134019676
 20
1.1628564434
 30
0.0
  0
VERTEX
  5
2DB
  8
0
  6
CONTINUOUS
 62
     7
 10
3.8432212993
 20
1.1862647303
 30
0.0
  0
VERTEX
  5
2DC
  8
0
  6
CONTINUOUS
 62
     7
 10
3.8713300967
 20
1.2104096189
 30
0.0
  0
VERTEX
  5
2DD
  8
0
  6
CONTINUOUS
 62
     7
 10
3.8976746212
 20
1.2352488725
 30
0.0
  0
VERTEX
  5
2DE
  8
0
  6
CONTINUOUS
 62
     7
 10
3.9222038758
 20
1.2607380879
 30
0.0
  0
VERTEX
  5
2DF
  8
0
  6
CONTINUOUS
 62
     7
 10
3.9448698851
 20
1.2868305809
 30
0.0
  0
VERTEX
  5
2E0
  8
0
  6
CONTINUOUS
 62
     7
 10
3.9656280578
 20
1.3134773239
 30
0.0
  0
VERTEX
  5
2E1
  8
0
  6
CONTINUOUS
 62
     7
 10
3.9844376266
 20
1.3406269781
 30
0.0
  0
VERTEX
  5
2E2
  8
0
  6
CONTINUOUS
 62
     7
 10
4.0012621405
 20
1.3682260684
 30
0.0
  0
VERTEX
  5
2E3
  8
0
  6
CONTINUOUS
 62
     7
 10
4.0160699578
 20
1.3962193403
 30
0.0
  0
VERTEX
  5
2E4
  8
0
  6
CONTINUOUS
 62
     7
 10
4.0288346654
 20
1.4245503139
 30
0.0
  0
VERTEX
  5
2E5
  8
0
  6
CONTINUOUS
 62
     7
 10
4.0395353297
 20
1.4531620151
 30
0.0
  0
VERTEX
  5
2E6
  8
0
  6
CONTINUOUS
 62
     7
 10
4.0481564953
 20
1.4819978096
 30
0.0
  0
VERTEX
  5
2E7
  8
0
  6
CONTINUOUS
 62
     7
 10
4.0546878782
 20
1.511002222
 30
0.0
  0
VERTEX
  5
2E8
  8
0
  6
CONTINUOUS
 62
     7
 10
4.0580357407
 20
1.532979269
 30
0.0
  0
SEQEND
  5
720
  8
0
  6
CONTINUOUS
 62
     7
  0
POLYLINE
  5
157
  8
0
  6
CONTINUOUS
 62
     7
 66
     1
 10
0.0
 20
0.0
 30
0.0
 70
   128
  0
VERTEX
  5
2E9
  8
0
  6
CONTINUOUS
 62
     7
 10
2.2194888316
 20
1.8281796218
 30
0.0
  0
VERTEX
  5
2EA
  8
0
  6
CONTINUOUS
 62
     7
 10
2.2247980383
 20
1.8329772828
 30
0.0
  0
VERTEX
  5
2EB
  8
0
  6
CONTINUOUS
 62
     7
 10
2.2479707467
 20
1.851727156
 30
0.0
  0
VERTEX
  5
2EC
  8
0
  6
CONTINUOUS
 62
     7
 10
2.2728186497
 20
1.8698013246
 30
0.0
  0
VERTEX
  5
2ED
  8
0
  6
CONTINUOUS
 62
     7
 10
2.2992810234
 20
1.8871505236
 30
0.0
  0
VERTEX
  5
2EE
  8
0
  6
CONTINUOUS
 62
     7
 10
2.3199390657
 20
1.8995370135
 30
0.0
  0
VERTEX
  5
2EF
  8
0
  6
CONTINUOUS
 62
     7
 10
2.335039301
 20
1.9080236729
 30
0.0
  0
VERTEX
  5
2F0
  8
0
  6
CONTINUOUS
 62
     7
 10
2.3649046049
 20
1.9235489117
 30
0.0
  0
VERTEX
  5
2F1
  8
0
  6
CONTINUOUS
 62
     7
 10
2.3961531854
 20
1.9381983941
 30
0.0
  0
VERTEX
  5
2F2
  8
0
  6
CONTINUOUS
 62
     7
 10
2.4287001622
 20
1.9519278638
 30
0.0
  0
VERTEX
  5
2F3
  8
0
  6
CONTINUOUS
 62
     7
 10
2.462460129
 20
1.9646974858
 30
0.0
  0
VERTEX
  5
2F4
  8
0
  6
CONTINUOUS
 62
     7
 10
2.4973438637
 20
1.9764700931
 30
0.0
  0
VERTEX
  5
2F5
  8
0
  6
CONTINUOUS
 62
     7
 10
2.533258673
 20
1.9872113706
 30
0.0
  0
VERTEX
  5
2F6
  8
0
  6
CONTINUOUS
 62
     7
 10
2.5701087374
 20
1.9968900004
 30
0.0
  0
VERTEX
  5
2F7
  8
0
  6
CONTINUOUS
 62
     7
 10
2.6077954506
 20
2.0054777753
 30
0.0
  0
VERTEX
  5
2F8
  8
0
  6
CONTINUOUS
 62
     7
 10
2.6462177518
 20
2.0129496883
 30
0.0
  0
VERTEX
  5
2F9
  8
0
  6
CONTINUOUS
 62
     7
 10
2.6852724518
 20
2.0192840022
 30
0.0
  0
VERTEX
  5
2FA
  8
0
  6
CONTINUOUS
 62
     7
 10
2.7248545518
 20
2.0244623047
 30
0.0
  0
VERTEX
  5
2FB
  8
0
  6
CONTINUOUS
 62
     7
 10
2.7648575575
 20
2.0284695503
 30
0.0
  0
VERTEX
  5
2FC
  8
0
  6
CONTINUOUS
 62
     7
 10
2.8051737877
 20
2.0312940932
 30
0.0
  0
VERTEX
  5
2FD
  8
0
  6
CONTINUOUS
 62
     7
 10
2.8456946797
 20
2.0329277107
 30
0.0
  0
VERTEX
  5
2FE
  8
0
  6
CONTINUOUS
 62
     7
 10
2.8863110919
 20
2.03336562
 30
0.0
  0
VERTEX
  5
2FF
  8
0
  6
CONTINUOUS
 62
     7
 10
2.9269136034
 20
2.0326064884
 30
0.0
  0
VERTEX
  5
300
  8
0
  6
CONTINUOUS
 62
     7
 10
2.9673924884
 20
2.0306524571
 30
0.0
  0
VERTEX
  5
301
  8
0
  6
CONTINUOUS
 62
     7
 10
3.0076384842
 20
2.027509145
 30
0.0
  0
VERTEX
  5
302
  8
0
  6
CONTINUOUS
 62
     7
 10
3.0475431391
 20
2.0231856142
 30
0.0
  0
VERTEX
  5
303
  8
0
  6
CONTINUOUS
 62
     7
 10
3.0869989225
 20
2.0176943573
 30
0.0
  0
VERTEX
  5
304
  8
0
  6
CONTINUOUS
 62
     7
 10
3.1258995238
 20
2.0110512784
 30
0.0
  0
VERTEX
  5
305
  8
0
  6
CONTINUOUS
 62
     7
 10
3.1641401529
 20
2.0032756677
 30
0.0
  0
VERTEX
  5
306
  8
0
  6
CONTINUOUS
 62
     7
 10
3.2016178442
 20
1.9943901692
 30
0.0
  0
VERTEX
  5
307
  8
0
  6
CONTINUOUS
 62
     7
 10
3.238231765
 20
1.9844207398
 30
0.0
  0
VERTEX
  5
308
  8
0
  6
CONTINUOUS
 62
     7
 10
3.2738835288
 20
1.9733965989
 30
0.0
  0
VERTEX
  5
309
  8
0
  6
CONTINUOUS
 62
     7
 10
3.308477516
 20
1.9613501647
 30
0.0
  0
VERTEX
  5
30A
  8
0
  6
CONTINUOUS
 62
     7
 10
3.3419212029
 20
1.9483169742
 30
0.0
  0
VERTEX
  5
30B
  8
0
  6
CONTINUOUS
 62
     7
 10
3.3741255007
 20
1.9343355809
 30
0.0
  0
VERTEX
  5
30C
  8
0
  6
CONTINUOUS
 62
     7
 10
3.4050051042
 20
1.9194474231
 30
0.0
  0
VERTEX
  5
30D
  8
0
  6
CONTINUOUS
 62
     7
 10
3.4344788493
 20
1.9036966533
 30
0.0
  0
VERTEX
  5
30E
  8
0
  6
CONTINUOUS
 62
     7
 10
3.4624700766
 20
1.887129916
 30
0.0
  0
VERTEX
  5
30F
  8
0
  6
CONTINUOUS
 62
     7
 10
3.4889069903
 20
1.8697960595
 30
0.0
  0
VERTEX
  5
310
  8
0
  6
CONTINUOUS
 62
     7
 10
3.5137230014
 20
1.8517457639
 30
0.0
  0
VERTEX
  5
311
  8
0
  6
CONTINUOUS
 62
     7
 10
3.5368557871
 20
1.8330321291
 30
0.0
  0
VERTEX
  5
312
  8
0
  6
CONTINUOUS
 62
     7
 10
3.5422284775
 20
1.828179387
 30
0.0
  0
SEQEND
  5
721
  8
0
  6
CONTINUOUS
 62
     7
  0
ARC
  5
158
  8
0
  6
CONTINUOUS
 62
     7
 10
2.11159228
 20
1.4899066691
 30
0.0
 40
0.0795313731037366
 50
220.3313112695
 51
263.3220722955
  0
ARC
  5
159
  8
0
  6
CONTINUOUS
 62
     7
 10
2.8795529018
 20
3.0077232221
 30
0.0
 40
1.777053261027855
 50
245.060703536
 51
296.0291504285
  0
ARC
  5
15A
  8
0
  6
CONTINUOUS
 62
     7
 10
3.6500797017
 20
1.489852418
 30
0.0
 40
0.0794828601513135
 50
276.715433056
 51
319.6453109957
  0
POLYLINE
  5
15B
  8
0
  6
CONTINUOUS
 62
     7
 66
     1
 10
0.0
 20
0.0
 30
0.0
 70
   128
  0
VERTEX
  5
313
  8
0
  6
CONTINUOUS
 62
     7
 10
4.0180168038
 20
1.7409935689
 30
0.0
  0
VERTEX
  5
314
  8
0
  6
CONTINUOUS
 62
     7
 10
4.0066685402
 20
1.7123601824
 30
0.0
  0
VERTEX
  5
315
  8
0
  6
CONTINUOUS
 62
     7
 10
3.9928077052
 20
1.6833667108
 30
0.0
  0
VERTEX
  5
316
  8
0
  6
CONTINUOUS
 62
     7
 10
3.9767075536
 20
1.6547614282
 30
0.0
  0
VERTEX
  5
317
  8
0
  6
CONTINUOUS
 62
     7
 10
3.9584005087
 20
1.6266019418
 30
0.0
  0
VERTEX
  5
318
  8
0
  6
CONTINUOUS
 62
     7
 10
3.9379234387
 20
1.5989449611
 30
0.0
  0
VERTEX
  5
319
  8
0
  6
CONTINUOUS
 62
     7
 10
3.9153175817
 20
1.5718461834
 30
0.0
  0
VERTEX
  5
31A
  8
0
  6
CONTINUOUS
 62
     7
 10
3.8906284627
 20
1.5453601822
 30
0.0
  0
VERTEX
  5
31B
  8
0
  6
CONTINUOUS
 62
     7
 10
3.8639058024
 20
1.5195402967
 30
0.0
  0
VERTEX
  5
31C
  8
0
  6
CONTINUOUS
 62
     7
 10
3.8352034167
 20
1.4944385248
 30
0.0
  0
VERTEX
  5
31D
  8
0
  6
CONTINUOUS
 62
     7
 10
3.8045791083
 20
1.4701054181
 30
0.0
  0
VERTEX
  5
31E
  8
0
  6
CONTINUOUS
 62
     7
 10
3.7720945506
 20
1.4465899801
 30
0.0
  0
VERTEX
  5
31F
  8
0
  6
CONTINUOUS
 62
     7
 10
3.7378151632
 20
1.4239395679
 30
0.0
  0
VERTEX
  5
320
  8
0
  6
CONTINUOUS
 62
     7
 10
3.70180998
 20
1.4021997964
 30
0.0
  0
VERTEX
  5
321
  8
0
  6
CONTINUOUS
 62
     7
 10
3.6641515109
 20
1.3814144467
 30
0.0
  0
VERTEX
  5
322
  8
0
  6
CONTINUOUS
 62
     7
 10
3.6249155949
 20
1.3616253775
 30
0.0
  0
VERTEX
  5
323
  8
0
  6
CONTINUOUS
 62
     7
 10
3.584181248
 20
1.3428724415
 30
0.0
  0
VERTEX
  5
324
  8
0
  6
CONTINUOUS
 62
     7
 10
3.5420305036
 20
1.3251934046
 30
0.0
  0
VERTEX
  5
325
  8
0
  6
CONTINUOUS
 62
     7
 10
3.4985482479
 20
1.30862387
 30
0.0
  0
VERTEX
  5
326
  8
0
  6
CONTINUOUS
 62
     7
 10
3.4538220483
 20
1.2931972066
 30
0.0
  0
VERTEX
  5
327
  8
0
  6
CONTINUOUS
 62
     7
 10
3.4079419773
 20
1.2789444816
 30
0.0
  0
VERTEX
  5
328
  8
0
  6
CONTINUOUS
 62
     7
 10
3.3610004313
 20
1.2658943981
 30
0.0
  0
VERTEX
  5
329
  8
0
  6
CONTINUOUS
 62
     7
 10
3.3130919445
 20
1.2540732372
 30
0.0
  0
VERTEX
  5
32A
  8
0
  6
CONTINUOUS
 62
     7
 10
3.264312998
 20
1.2435048052
 30
0.0
  0
VERTEX
  5
32B
  8
0
  6
CONTINUOUS
 62
     7
 10
3.2147618262
 20
1.2342103854
 30
0.0
  0
VERTEX
  5
32C
  8
0
  6
CONTINUOUS
 62
     7
 10
3.1645382186
 20
1.2262086957
 30
0.0
  0
VERTEX
  5
32D
  8
0
  6
CONTINUOUS
 62
     7
 10
3.1137433188
 20
1.2195158504
 30
0.0
  0
VERTEX
  5
32E
  8
0
  6
CONTINUOUS
 62
     7
 10
3.062479421
 20
1.2141453278
 30
0.0
  0
VERTEX
  5
32F
  8
0
  6
CONTINUOUS
 62
     7
 10
3.0108497638
 20
1.2101079437
 30
0.0
  0
VERTEX
  5
330
  8
0
  6
CONTINUOUS
 62
     7
 10
2.9589583226
 20
1.2074118287
 30
0.0
  0
VERTEX
  5
331
  8
0
  6
CONTINUOUS
 62
     7
 10
2.9069095997
 20
1.2060624124
 30
0.0
  0
VERTEX
  5
332
  8
0
  6
CONTINUOUS
 62
     7
 10
2.8548084144
 20
1.2060624124
 30
0.0
  0
VERTEX
  5
333
  8
0
  6
CONTINUOUS
 62
     7
 10
2.8027596916
 20
1.2074118287
 30
0.0
  0
VERTEX
  5
334
  8
0
  6
CONTINUOUS
 62
     7
 10
2.7508682503
 20
1.2101079437
 30
0.0
  0
VERTEX
  5
335
  8
0
  6
CONTINUOUS
 62
     7
 10
2.6992385932
 20
1.2141453278
 30
0.0
  0
VERTEX
  5
336
  8
0
  6
CONTINUOUS
 62
     7
 10
2.6479746954
 20
1.2195158504
 30
0.0
  0
VERTEX
  5
337
  8
0
  6
CONTINUOUS
 62
     7
 10
2.5971797956
 20
1.2262086957
 30
0.0
  0
VERTEX
  5
338
  8
0
  6
CONTINUOUS
 62
     7
 10
2.5469561879
 20
1.2342103854
 30
0.0
  0
VERTEX
  5
339
  8
0
  6
CONTINUOUS
 62
     7
 10
2.4974050161
 20
1.2435048052
 30
0.0
  0
VERTEX
  5
33A
  8
0
  6
CONTINUOUS
 62
     7
 10
2.4486260697
 20
1.2540732372
 30
0.0
  0
VERTEX
  5
33B
  8
0
  6
CONTINUOUS
 62
     7
 10
2.4007175828
 20
1.2658943981
 30
0.0
  0
VERTEX
  5
33C
  8
0
  6
CONTINUOUS
 62
     7
 10
2.3537760369
 20
1.2789444816
 30
0.0
  0
VERTEX
  5
33D
  8
0
  6
CONTINUOUS
 62
     7
 10
2.3078959659
 20
1.2931972066
 30
0.0
  0
VERTEX
  5
33E
  8
0
  6
CONTINUOUS
 62
     7
 10
2.2631697662
 20
1.30862387
 30
0.0
  0
VERTEX
  5
33F
  8
0
  6
CONTINUOUS
 62
     7
 10
2.2196875105
 20
1.3251934046
 30
0.0
  0
VERTEX
  5
340
  8
0
  6
CONTINUOUS
 62
     7
 10
2.1775367662
 20
1.3428724415
 30
0.0
  0
VERTEX
  5
341
  8
0
  6
CONTINUOUS
 62
     7
 10
2.1368024192
 20
1.3616253775
 30
0.0
  0
VERTEX
  5
342
  8
0
  6
CONTINUOUS
 62
     7
 10
2.0975665033
 20
1.3814144467
 30
0.0
  0
VERTEX
  5
343
  8
0
  6
CONTINUOUS
 62
     7
 10
2.0599080341
 20
1.4021997964
 30
0.0
  0
VERTEX
  5
344
  8
0
  6
CONTINUOUS
 62
     7
 10
2.023902851
 20
1.4239395679
 30
0.0
  0
VERTEX
  5
345
  8
0
  6
CONTINUOUS
 62
     7
 10
1.9896234635
 20
1.4465899801
 30
0.0
  0
VERTEX
  5
346
  8
0
  6
CONTINUOUS
 62
     7
 10
1.9571389058
 20
1.4701054181
 30
0.0
  0
VERTEX
  5
347
  8
0
  6
CONTINUOUS
 62
     7
 10
1.9265145975
 20
1.4944385248
 30
0.0
  0
VERTEX
  5
348
  8
0
  6
CONTINUOUS
 62
     7
 10
1.8978122118
 20
1.5195402967
 30
0.0
  0
VERTEX
  5
349
  8
0
  6
CONTINUOUS
 62
     7
 10
1.8710895515
 20
1.5453601822
 30
0.0
  0
VERTEX
  5
34A
  8
0
  6
CONTINUOUS
 62
     7
 10
1.8464004325
 20
1.5718461834
 30
0.0
  0
VERTEX
  5
34B
  8
0
  6
CONTINUOUS
 62
     7
 10
1.8237945754
 20
1.5989449611
 30
0.0
  0
VERTEX
  5
34C
  8
0
  6
CONTINUOUS
 62
     7
 10
1.8033175054
 20
1.6266019418
 30
0.0
  0
VERTEX
  5
34D
  8
0
  6
CONTINUOUS
 62
     7
 10
1.7850104606
 20
1.6547614282
 30
0.0
  0
VERTEX
  5
34E
  8
0
  6
CONTINUOUS
 62
     7
 10
1.7689103089
 20
1.6833667108
 30
0.0
  0
VERTEX
  5
34F
  8
0
  6
CONTINUOUS
 62
     7
 10
1.7550494739
 20
1.7123601824
 30
0.0
  0
VERTEX
  5
350
  8
0
  6
CONTINUOUS
 62
     7
 10
1.7434558695
 20
1.7416834539
 30
0.0
  0
VERTEX
  5
351
  8
0
  6
CONTINUOUS
 62
     7
 10
1.7426686996
 20
1.7439222598
 30
0.0
  0
SEQEND
  5
722
  8
0
  6
CONTINUOUS
 62
     7
  0
POLYLINE
  5
15C
  8
0
  6
CONTINUOUS
 62
     7
 66
     1
 10
0.0
 20
0.0
 30
0.0
 70
   128
  0
VERTEX
  5
352
  8
0
  6
CONTINUOUS
 62
     7
 10
4.0418590071
 20
1.78018116
 30
0.0
  0
VERTEX
  5
353
  8
0
  6
CONTINUOUS
 62
     7
 10
4.0415667078
 20
1.7651424729
 30
0.0
  0
VERTEX
  5
354
  8
0
  6
CONTINUOUS
 62
     7
 10
4.039229197
 20
1.7350953848
 30
0.0
  0
VERTEX
  5
355
  8
0
  6
CONTINUOUS
 62
     7
 10
4.0345588828
 20
1.7051390934
 30
0.0
  0
VERTEX
  5
356
  8
0
  6
CONTINUOUS
 62
     7
 10
4.0275651705
 20
1.6753339267
 30
0.0
  0
VERTEX
  5
357
  8
0
  6
CONTINUOUS
 62
     7
 10
4.0182621446
 20
1.6457399085
 30
0.0
  0
VERTEX
  5
358
  8
0
  6
CONTINUOUS
 62
     7
 10
4.0066685402
 20
1.616416637
 30
0.0
  0
VERTEX
  5
359
  8
0
  6
CONTINUOUS
 62
     7
 10
3.9928077052
 20
1.5874231654
 30
0.0
  0
VERTEX
  5
35A
  8
0
  6
CONTINUOUS
 62
     7
 10
3.9767075536
 20
1.5588178829
 30
0.0
  0
VERTEX
  5
35B
  8
0
  6
CONTINUOUS
 62
     7
 10
3.9584005087
 20
1.5306583964
 30
0.0
  0
VERTEX
  5
35C
  8
0
  6
CONTINUOUS
 62
     7
 10
3.9379234387
 20
1.5030014157
 30
0.0
  0
VERTEX
  5
35D
  8
0
  6
CONTINUOUS
 62
     7
 10
3.9153175817
 20
1.475902638
 30
0.0
  0
VERTEX
  5
35E
  8
0
  6
CONTINUOUS
 62
     7
 10
3.8906284627
 20
1.4494166368
 30
0.0
  0
VERTEX
  5
35F
  8
0
  6
CONTINUOUS
 62
     7
 10
3.8639058024
 20
1.4235967513
 30
0.0
  0
VERTEX
  5
360
  8
0
  6
CONTINUOUS
 62
     7
 10
3.8352034167
 20
1.3984949794
 30
0.0
  0
VERTEX
  5
361
  8
0
  6
CONTINUOUS
 62
     7
 10
3.8045791083
 20
1.3741618727
 30
0.0
  0
VERTEX
  5
362
  8
0
  6
CONTINUOUS
 62
     7
 10
3.7720945506
 20
1.3506464347
 30
0.0
  0
VERTEX
  5
363
  8
0
  6
CONTINUOUS
 62
     7
 10
3.7378151632
 20
1.3279960225
 30
0.0
  0
VERTEX
  5
364
  8
0
  6
CONTINUOUS
 62
     7
 10
3.70180998
 20
1.3062562511
 30
0.0
  0
VERTEX
  5
365
  8
0
  6
CONTINUOUS
 62
     7
 10
3.6641515109
 20
1.2854709013
 30
0.0
  0
VERTEX
  5
366
  8
0
  6
CONTINUOUS
 62
     7
 10
3.6249155949
 20
1.2656818321
 30
0.0
  0
VERTEX
  5
367
  8
0
  6
CONTINUOUS
 62
     7
 10
3.584181248
 20
1.2469288961
 30
0.0
  0
VERTEX
  5
368
  8
0
  6
CONTINUOUS
 62
     7
 10
3.5420305036
 20
1.2292498592
 30
0.0
  0
VERTEX
  5
369
  8
0
  6
CONTINUOUS
 62
     7
 10
3.4985482479
 20
1.2126803246
 30
0.0
  0
VERTEX
  5
36A
  8
0
  6
CONTINUOUS
 62
     7
 10
3.4538220483
 20
1.1972536612
 30
0.0
  0
VERTEX
  5
36B
  8
0
  6
CONTINUOUS
 62
     7
 10
3.4079419773
 20
1.1830009362
 30
0.0
  0
VERTEX
  5
36C
  8
0
  6
CONTINUOUS
 62
     7
 10
3.3610004313
 20
1.1699508527
 30
0.0
  0
VERTEX
  5
36D
  8
0
  6
CONTINUOUS
 62
     7
 10
3.3130919445
 20
1.1581296918
 30
0.0
  0
VERTEX
  5
36E
  8
0
  6
CONTINUOUS
 62
     7
 10
3.264312998
 20
1.1475612598
 30
0.0
  0
VERTEX
  5
36F
  8
0
  6
CONTINUOUS
 62
     7
 10
3.2147618262
 20
1.13826684
 30
0.0
  0
VERTEX
  5
370
  8
0
  6
CONTINUOUS
 62
     7
 10
3.1645382186
 20
1.1302651503
 30
0.0
  0
VERTEX
  5
371
  8
0
  6
CONTINUOUS
 62
     7
 10
3.1137433188
 20
1.123572305
 30
0.0
  0
VERTEX
  5
372
  8
0
  6
CONTINUOUS
 62
     7
 10
3.062479421
 20
1.1182017824
 30
0.0
  0
VERTEX
  5
373
  8
0
  6
CONTINUOUS
 62
     7
 10
3.0108497638
 20
1.1141643983
 30
0.0
  0
VERTEX
  5
374
  8
0
  6
CONTINUOUS
 62
     7
 10
2.9589583226
 20
1.1114682833
 30
0.0
  0
VERTEX
  5
375
  8
0
  6
CONTINUOUS
 62
     7
 10
2.9069095997
 20
1.110118867
 30
0.0
  0
VERTEX
  5
376
  8
0
  6
CONTINUOUS
 62
     7
 10
2.8548084144
 20
1.110118867
 30
0.0
  0
VERTEX
  5
377
  8
0
  6
CONTINUOUS
 62
     7
 10
2.8027596916
 20
1.1114682833
 30
0.0
  0
VERTEX
  5
378
  8
0
  6
CONTINUOUS
 62
     7
 10
2.7508682503
 20
1.1141643983
 30
0.0
  0
VERTEX
  5
379
  8
0
  6
CONTINUOUS
 62
     7
 10
2.6992385932
 20
1.1182017824
 30
0.0
  0
VERTEX
  5
37A
  8
0
  6
CONTINUOUS
 62
     7
 10
2.6479746954
 20
1.123572305
 30
0.0
  0
VERTEX
  5
37B
  8
0
  6
CONTINUOUS
 62
     7
 10
2.5971797956
 20
1.1302651503
 30
0.0
  0
VERTEX
  5
37C
  8
0
  6
CONTINUOUS
 62
     7
 10
2.5469561879
 20
1.13826684
 30
0.0
  0
VERTEX
  5
37D
  8
0
  6
CONTINUOUS
 62
     7
 10
2.4974050161
 20
1.1475612598
 30
0.0
  0
VERTEX
  5
37E
  8
0
  6
CONTINUOUS
 62
     7
 10
2.4486260697
 20
1.1581296918
 30
0.0
  0
VERTEX
  5
37F
  8
0
  6
CONTINUOUS
 62
     7
 10
2.4007175828
 20
1.1699508527
 30
0.0
  0
VERTEX
  5
380
  8
0
  6
CONTINUOUS
 62
     7
 10
2.3537760369
 20
1.1830009362
 30
0.0
  0
VERTEX
  5
381
  8
0
  6
CONTINUOUS
 62
     7
 10
2.3078959659
 20
1.1972536612
 30
0.0
  0
VERTEX
  5
382
  8
0
  6
CONTINUOUS
 62
     7
 10
2.2631697662
 20
1.2126803246
 30
0.0
  0
VERTEX
  5
383
  8
0
  6
CONTINUOUS
 62
     7
 10
2.2196875105
 20
1.2292498592
 30
0.0
  0
VERTEX
  5
384
  8
0
  6
CONTINUOUS
 62
     7
 10
2.1775367662
 20
1.2469288961
 30
0.0
  0
VERTEX
  5
385
  8
0
  6
CONTINUOUS
 62
     7
 10
2.1368024192
 20
1.2656818321
 30
0.0
  0
VERTEX
  5
386
  8
0
  6
CONTINUOUS
 62
     7
 10
2.0975665033
 20
1.2854709013
 30
0.0
  0
VERTEX
  5
387
  8
0
  6
CONTINUOUS
 62
     7
 10
2.0599080341
 20
1.3062562511
 30
0.0
  0
VERTEX
  5
388
  8
0
  6
CONTINUOUS
 62
     7
 10
2.023902851
 20
1.3279960225
 30
0.0
  0
VERTEX
  5
389
  8
0
  6
CONTINUOUS
 62
     7
 10
1.9896234635
 20
1.3506464347
 30
0.0
  0
VERTEX
  5
38A
  8
0
  6
CONTINUOUS
 62
     7
 10
1.9571389058
 20
1.3741618727
 30
0.0
  0
VERTEX
  5
38B
  8
0
  6
CONTINUOUS
 62
     7
 10
1.9265145975
 20
1.3984949794
 30
0.0
  0
VERTEX
  5
38C
  8
0
  6
CONTINUOUS
 62
     7
 10
1.8978122118
 20
1.4235967513
 30
0.0
  0
VERTEX
  5
38D
  8
0
  6
CONTINUOUS
 62
     7
 10
1.8710895515
 20
1.4494166368
 30
0.0
  0
VERTEX
  5
38E
  8
0
  6
CONTINUOUS
 62
     7
 10
1.8464004325
 20
1.475902638
 30
0.0
  0
VERTEX
  5
38F
  8
0
  6
CONTINUOUS
 62
     7
 10
1.8237945754
 20
1.5030014157
 30
0.0
  0
VERTEX
  5
390
  8
0
  6
CONTINUOUS
 62
     7
 10
1.8033175054
 20
1.5306583964
 30
0.0
  0
VERTEX
  5
391
  8
0
  6
CONTINUOUS
 62
     7
 10
1.7850104606
 20
1.5588178829
 30
0.0
  0
VERTEX
  5
392
  8
0
  6
CONTINUOUS
 62
     7
 10
1.7689103089
 20
1.5874231654
 30
0.0
  0
VERTEX
  5
393
  8
0
  6
CONTINUOUS
 62
     7
 10
1.7550494739
 20
1.616416637
 30
0.0
  0
VERTEX
  5
394
  8
0
  6
CONTINUOUS
 62
     7
 10
1.7434558695
 20
1.6457399085
 30
0.0
  0
VERTEX
  5
395
  8
0
  6
CONTINUOUS
 62
     7
 10
1.7341528436
 20
1.6753339267
 30
0.0
  0
VERTEX
  5
396
  8
0
  6
CONTINUOUS
 62
     7
 10
1.7271591314
 20
1.7051390934
 30
0.0
  0
VERTEX
  5
397
  8
0
  6
CONTINUOUS
 62
     7
 10
1.7224888171
 20
1.7350953848
 30
0.0
  0
VERTEX
  5
398
  8
0
  6
CONTINUOUS
 62
     7
 10
1.7201513063
 20
1.7651424729
 30
0.0
  0
VERTEX
  5
399
  8
0
  6
CONTINUOUS
 62
     7
 10
1.7198590071
 20
1.78018116
 30
0.0
  0
SEQEND
  5
723
  8
0
  6
CONTINUOUS
 62
     7
  0
POLYLINE
  5
15D
  8
0
  6
CONTINUOUS
 62
     7
 66
     1
 10
0.0
 20
0.0
 30
0.0
 70
   128
  0
VERTEX
  5
39A
  8
0
  6
CONTINUOUS
 62
     7
 10
3.6593742884
 20
1.282309697
 30
0.0
  0
VERTEX
  5
39B
  8
0
  6
CONTINUOUS
 62
     7
 10
3.6762044362
 20
1.2916045594
 30
0.0
  0
VERTEX
  5
39C
  8
0
  6
CONTINUOUS
 62
     7
 10
3.6906940428
 20
1.2998493268
 30
0.0
  0
SEQEND
  5
724
  8
0
  6
CONTINUOUS
 62
     7
  0
ARC
  5
15E
  8
0
  6
CONTINUOUS
 62
     7
 10
2.8808590071
 20
2.8719315283
 30
0.0
 40
1.770023618397033
 50
243.9067562172
 51
296.0932437828
  0
ARC
  5
15F
  8
0
  6
CONTINUOUS
 62
     7
 10
2.64185917
 20
2.2823004055
 30
0.0
 40
1.136247478101335
 50
239.8428286809
 51
241.652230641
  0
POLYLINE
  5
160
  8
0
  6
CONTINUOUS
 62
     7
 66
     1
 10
0.0
 20
0.0
 30
0.0
 70
   128
  0
VERTEX
  5
39D
  8
0
  6
CONTINUOUS
 62
     7
 10
2.3099398784
 20
2.2057093029
 30
0.0
  0
VERTEX
  5
39E
  8
0
  6
CONTINUOUS
 62
     7
 10
2.3414079469
 20
2.2229251545
 30
0.0
  0
VERTEX
  5
39F
  8
0
  6
CONTINUOUS
 62
     7
 10
2.3744313924
 20
2.2391410906
 30
0.0
  0
VERTEX
  5
3A0
  8
0
  6
CONTINUOUS
 62
     7
 10
2.4089149999
 20
2.2543103564
 30
0.0
  0
VERTEX
  5
3A1
  8
0
  6
CONTINUOUS
 62
     7
 10
2.4447593441
 20
2.2683892151
 30
0.0
  0
VERTEX
  5
3A2
  8
0
  6
CONTINUOUS
 62
     7
 10
2.4818610765
 20
2.2813370737
 30
0.0
  0
VERTEX
  5
3A3
  8
0
  6
CONTINUOUS
 62
     7
 10
2.5201132232
 20
2.2931166002
 30
0.0
  0
VERTEX
  5
3A4
  8
0
  6
CONTINUOUS
 62
     7
 10
2.5594054934
 20
2.303693831
 30
0.0
  0
VERTEX
  5
3A5
  8
0
  6
CONTINUOUS
 62
     7
 10
2.5996245974
 20
2.3130382694
 30
0.0
  0
VERTEX
  5
3A6
  8
0
  6
CONTINUOUS
 62
     7
 10
2.6406545729
 20
2.3211229729
 30
0.0
  0
VERTEX
  5
3A7
  8
0
  6
CONTINUOUS
 62
     7
 10
2.68237712
 20
2.3279246312
 30
0.0
  0
VERTEX
  5
3A8
  8
0
  6
CONTINUOUS
 62
     7
 10
2.7246719417
 20
2.3334236333
 30
0.0
  0
VERTEX
  5
3A9
  8
0
  6
CONTINUOUS
 62
     7
 10
2.7674170912
 20
2.3376041242
 30
0.0
  0
VERTEX
  5
3AA
  8
0
  6
CONTINUOUS
 62
     7
 10
2.8104893231
 20
2.3404540505
 30
0.0
  0
VERTEX
  5
3AB
  8
0
  6
CONTINUOUS
 62
     7
 10
2.8537644491
 20
2.3419651952
 30
0.0
  0
VERTEX
  5
3AC
  8
0
  6
CONTINUOUS
 62
     7
 10
2.8971176956
 20
2.342133201
 30
0.0
  0
VERTEX
  5
3AD
  8
0
  6
CONTINUOUS
 62
     7
 10
2.9404240641
 20
2.3409575838
 30
0.0
  0
VERTEX
  5
3AE
  8
0
  6
CONTINUOUS
 62
     7
 10
2.9835586912
 20
2.338441733
 30
0.0
  0
VERTEX
  5
3AF
  8
0
  6
CONTINUOUS
 62
     7
 10
3.0263972085
 20
2.3345929026
 30
0.0
  0
VERTEX
  5
3B0
  8
0
  6
CONTINUOUS
 62
     7
 10
3.0688161014
 20
2.3294221896
 30
0.0
  0
VERTEX
  5
3B1
  8
0
  6
CONTINUOUS
 62
     7
 10
3.1106930655
 20
2.3229445027
 30
0.0
  0
VERTEX
  5
3B2
  8
0
  6
CONTINUOUS
 62
     7
 10
3.1519073584
 20
2.3151785186
 30
0.0
  0
VERTEX
  5
3B3
  8
0
  6
CONTINUOUS
 62
     7
 10
3.1923401487
 20
2.3061466287
 30
0.0
  0
VERTEX
  5
3B4
  8
0
  6
CONTINUOUS
 62
     7
 10
3.2318748583
 20
2.2958748743
 30
0.0
  0
VERTEX
  5
3B5
  8
0
  6
CONTINUOUS
 62
     7
 10
3.2703974984
 20
2.2843928715
 30
0.0
  0
VERTEX
  5
3B6
  8
0
  6
CONTINUOUS
 62
     7
 10
3.3077969981
 20
2.2717337259
 30
0.0
  0
VERTEX
  5
3B7
  8
0
  6
CONTINUOUS
 62
     7
 10
3.3439655251
 20
2.2579339371
 30
0.0
  0
VERTEX
  5
3B8
  8
0
  6
CONTINUOUS
 62
     7
 10
3.378798796
 20
2.2430332934
 30
0.0
  0
VERTEX
  5
3B9
  8
0
  6
CONTINUOUS
 62
     7
 10
3.4121963777
 20
2.2270747573
 30
0.0
  0
VERTEX
  5
3BA
  8
0
  6
CONTINUOUS
 62
     7
 10
3.4440619762
 20
2.2101043413
 30
0.0
  0
VERTEX
  5
3BB
  8
0
  6
CONTINUOUS
 62
     7
 10
3.4743037147
 20
2.1921709756
 30
0.0
  0
VERTEX
  5
3BC
  8
0
  6
CONTINUOUS
 62
     7
 10
3.5028343986
 20
2.1733263666
 30
0.0
  0
VERTEX
  5
3BD
  8
0
  6
CONTINUOUS
 62
     7
 10
3.5295717663
 20
2.1536248484
 30
0.0
  0
VERTEX
  5
3BE
  8
0
  6
CONTINUOUS
 62
     7
 10
3.5544387272
 20
2.1331232253
 30
0.0
  0
VERTEX
  5
3BF
  8
0
  6
CONTINUOUS
 62
     7
 10
3.5773635835
 20
2.1118806091
 30
0.0
  0
VERTEX
  5
3C0
  8
0
  6
CONTINUOUS
 62
     7
 10
3.5982802367
 20
2.0899582475
 30
0.0
  0
VERTEX
  5
3C1
  8
0
  6
CONTINUOUS
 62
     7
 10
3.6171283788
 20
2.0674193484
 30
0.0
  0
VERTEX
  5
3C2
  8
0
  6
CONTINUOUS
 62
     7
 10
3.6338536657
 20
2.0443288974
 30
0.0
  0
VERTEX
  5
3C3
  8
0
  6
CONTINUOUS
 62
     7
 10
3.6484078741
 20
2.0207534702
 30
0.0
  0
VERTEX
  5
3C4
  8
0
  6
CONTINUOUS
 62
     7
 10
3.6595200952
 20
1.9993782855
 30
0.0
  0
SEQEND
  5
725
  8
0
  6
CONTINUOUS
 62
     7
  0
ARC
  5
161
  8
0
  6
CONTINUOUS
 62
     7
 10
2.5406009844
 20
1.7654644826
 30
0.0
 40
0.4970111142106299
 50
117.6517631039
 51
151.6443954859
  0
ARC
  5
162
  8
0
  6
CONTINUOUS
 62
     7
 10
3.4935666467
 20
2.2794232693
 30
0.0
 40
0.0625266673858958
 50
218.2003540157
 51
257.8950471656
  0
ARC
  5
163
  8
0
  6
CONTINUOUS
 62
     7
 10
2.2678160752
 20
2.2797650609
 30
0.0
 40
0.063005324042109
 50
282.1639774424
 51
322.0591623337
  0
ARC
  5
164
  8
0
  6
CONTINUOUS
 62
     7
 10
2.8810456107
 20
1.0775669035
 30
0.0
 40
1.294543686724134
 50
65.1571854576
 51
115.0631912574
  0
POLYLINE
  5
165
  8
0
  6
CONTINUOUS
 62
     7
 66
     1
 10
0.0
 20
0.0
 30
0.0
 70
   128
  0
VERTEX
  5
3C5
  8
0
  6
CONTINUOUS
 62
     7
 10
2.3099398784
 20
2.1097657575
 30
0.0
  0
VERTEX
  5
3C6
  8
0
  6
CONTINUOUS
 62
     7
 10
2.3414079469
 20
2.1269816091
 30
0.0
  0
VERTEX
  5
3C7
  8
0
  6
CONTINUOUS
 62
     7
 10
2.3744313924
 20
2.1431975452
 30
0.0
  0
VERTEX
  5
3C8
  8
0
  6
CONTINUOUS
 62
     7
 10
2.4089149999
 20
2.158366811
 30
0.0
  0
VERTEX
  5
3C9
  8
0
  6
CONTINUOUS
 62
     7
 10
2.4447593441
 20
2.1724456697
 30
0.0
  0
VERTEX
  5
3CA
  8
0
  6
CONTINUOUS
 62
     7
 10
2.4818610765
 20
2.1853935283
 30
0.0
  0
VERTEX
  5
3CB
  8
0
  6
CONTINUOUS
 62
     7
 10
2.5201132232
 20
2.1971730548
 30
0.0
  0
VERTEX
  5
3CC
  8
0
  6
CONTINUOUS
 62
     7
 10
2.5594054934
 20
2.2077502856
 30
0.0
  0
VERTEX
  5
3CD
  8
0
  6
CONTINUOUS
 62
     7
 10
2.5996245974
 20
2.217094724
 30
0.0
  0
VERTEX
  5
3CE
  8
0
  6
CONTINUOUS
 62
     7
 10
2.6406545729
 20
2.2251794275
 30
0.0
  0
VERTEX
  5
3CF
  8
0
  6
CONTINUOUS
 62
     7
 10
2.68237712
 20
2.2319810858
 30
0.0
  0
VERTEX
  5
3D0
  8
0
  6
CONTINUOUS
 62
     7
 10
2.7246719417
 20
2.2374800879
 30
0.0
  0
VERTEX
  5
3D1
  8
0
  6
CONTINUOUS
 62
     7
 10
2.7674170912
 20
2.2416605788
 30
0.0
  0
VERTEX
  5
3D2
  8
0
  6
CONTINUOUS
 62
     7
 10
2.8104893231
 20
2.2445105052
 30
0.0
  0
VERTEX
  5
3D3
  8
0
  6
CONTINUOUS
 62
     7
 10
2.8537644491
 20
2.2460216498
 30
0.0
  0
VERTEX
  5
3D4
  8
0
  6
CONTINUOUS
 62
     7
 10
2.8971176956
 20
2.2461896556
 30
0.0
  0
VERTEX
  5
3D5
  8
0
  6
CONTINUOUS
 62
     7
 10
2.9404240641
 20
2.2450140384
 30
0.0
  0
VERTEX
  5
3D6
  8
0
  6
CONTINUOUS
 62
     7
 10
2.9835586912
 20
2.2424981876
 30
0.0
  0
VERTEX
  5
3D7
  8
0
  6
CONTINUOUS
 62
     7
 10
3.0263972085
 20
2.2386493572
 30
0.0
  0
VERTEX
  5
3D8
  8
0
  6
CONTINUOUS
 62
     7
 10
3.0688161014
 20
2.2334786442
 30
0.0
  0
VERTEX
  5
3D9
  8
0
  6
CONTINUOUS
 62
     7
 10
3.1106930655
 20
2.2270009573
 30
0.0
  0
VERTEX
  5
3DA
  8
0
  6
CONTINUOUS
 62
     7
 10
3.1519073584
 20
2.2192349732
 30
0.0
  0
VERTEX
  5
3DB
  8
0
  6
CONTINUOUS
 62
     7
 10
3.1923401487
 20
2.2102030834
 30
0.0
  0
VERTEX
  5
3DC
  8
0
  6
CONTINUOUS
 62
     7
 10
3.2318748583
 20
2.1999313289
 30
0.0
  0
VERTEX
  5
3DD
  8
0
  6
CONTINUOUS
 62
     7
 10
3.2703974984
 20
2.1884493261
 30
0.0
  0
VERTEX
  5
3DE
  8
0
  6
CONTINUOUS
 62
     7
 10
3.3077969981
 20
2.1757901805
 30
0.0
  0
VERTEX
  5
3DF
  8
0
  6
CONTINUOUS
 62
     7
 10
3.3439655251
 20
2.1619903917
 30
0.0
  0
VERTEX
  5
3E0
  8
0
  6
CONTINUOUS
 62
     7
 10
3.378798796
 20
2.147089748
 30
0.0
  0
VERTEX
  5
3E1
  8
0
  6
CONTINUOUS
 62
     7
 10
3.4121963777
 20
2.1311312119
 30
0.0
  0
VERTEX
  5
3E2
  8
0
  6
CONTINUOUS
 62
     7
 10
3.4440619762
 20
2.1141607959
 30
0.0
  0
VERTEX
  5
3E3
  8
0
  6
CONTINUOUS
 62
     7
 10
3.4743037147
 20
2.0962274302
 30
0.0
  0
VERTEX
  5
3E4
  8
0
  6
CONTINUOUS
 62
     7
 10
3.5028343986
 20
2.0773828212
 30
0.0
  0
VERTEX
  5
3E5
  8
0
  6
CONTINUOUS
 62
     7
 10
3.5295717663
 20
2.057681303
 30
0.0
  0
VERTEX
  5
3E6
  8
0
  6
CONTINUOUS
 62
     7
 10
3.5544387272
 20
2.0371796799
 30
0.0
  0
VERTEX
  5
3E7
  8
0
  6
CONTINUOUS
 62
     7
 10
3.5773635835
 20
2.0159370637
 30
0.0
  0
VERTEX
  5
3E8
  8
0
  6
CONTINUOUS
 62
     7
 10
3.5982802367
 20
1.9940147021
 30
0.0
  0
VERTEX
  5
3E9
  8
0
  6
CONTINUOUS
 62
     7
 10
3.6171283788
 20
1.971475803
 30
0.0
  0
VERTEX
  5
3EA
  8
0
  6
CONTINUOUS
 62
     7
 10
3.6338536657
 20
1.948385352
 30
0.0
  0
VERTEX
  5
3EB
  8
0
  6
CONTINUOUS
 62
     7
 10
3.6369669508
 20
1.9436648005
 30
0.0
  0
SEQEND
  5
726
  8
0
  6
CONTINUOUS
 62
     7
  0
ARC
  5
166
  8
0
  6
CONTINUOUS
 62
     7
 10
2.5659962825
 20
1.6380044608
 30
0.0
 40
0.5367714626885295
 50
118.4916436641
 51
145.2952982692
  0
POLYLINE
  5
167
  8
0
  6
CONTINUOUS
 62
     7
 66
     1
 10
0.0
 20
0.0
 30
0.0
 70
   128
  0
VERTEX
  5
3EC
  8
0
  6
CONTINUOUS
 62
     7
 10
3.4417567522
 20
2.1149946218
 30
0.0
  0
VERTEX
  5
3ED
  8
0
  6
CONTINUOUS
 62
     7
 10
3.4520139808
 20
2.1094959028
 30
0.0
  0
VERTEX
  5
3EE
  8
0
  6
CONTINUOUS
 62
     7
 10
3.4631075581
 20
2.1032091228
 30
0.0
  0
SEQEND
  5
727
  8
0
  6
CONTINUOUS
 62
     7
  0
ARC
  5
168
  8
0
  6
CONTINUOUS
 62
     7
 10
2.8808590071
 20
0.9566274803
 30
0.0
 40
1.28702009118592
 50
64.1630782176
 51
115.8369217824
  0
POLYLINE
  5
169
  8
0
  6
CONTINUOUS
 62
     7
 66
     1
 10
0.0
 20
0.0
 30
0.0
 70
   128
  0
VERTEX
  5
3EF
  8
0
  6
CONTINUOUS
 62
     7
 10
2.3071502992
 20
2.1080482522
 30
0.0
  0
VERTEX
  5
3F0
  8
0
  6
CONTINUOUS
 62
     7
 10
2.3105986141
 20
2.1099885034
 30
0.0
  0
VERTEX
  5
3F1
  8
0
  6
CONTINUOUS
 62
     7
 10
2.319961262
 20
2.1149946218
 30
0.0
  0
SEQEND
  5
728
  8
0
  6
CONTINUOUS
 62
     7
  0
POLYLINE
  5
16A
  8
0
  6
CONTINUOUS
 62
     7
 66
     1
 10
0.0
 20
0.0
 30
0.0
 70
   128
  0
VERTEX
  5
3F2
  8
0
  6
CONTINUOUS
 62
     7
 10
2.0599080341
 20
2.5592881973
 30
0.0
  0
VERTEX
  5
3F3
  8
0
  6
CONTINUOUS
 62
     7
 10
2.0975665033
 20
2.5800735471
 30
0.0
  0
VERTEX
  5
3F4
  8
0
  6
CONTINUOUS
 62
     7
 10
2.1368024192
 20
2.5998626163
 30
0.0
  0
VERTEX
  5
3F5
  8
0
  6
CONTINUOUS
 62
     7
 10
2.1775367662
 20
2.6186155523
 30
0.0
  0
VERTEX
  5
3F6
  8
0
  6
CONTINUOUS
 62
     7
 10
2.2196875105
 20
2.6362945892
 30
0.0
  0
VERTEX
  5
3F7
  8
0
  6
CONTINUOUS
 62
     7
 10
2.2631697662
 20
2.6528641237
 30
0.0
  0
VERTEX
  5
3F8
  8
0
  6
CONTINUOUS
 62
     7
 10
2.3078959659
 20
2.6682907872
 30
0.0
  0
VERTEX
  5
3F9
  8
0
  6
CONTINUOUS
 62
     7
 10
2.3537760369
 20
2.6825435122
 30
0.0
  0
VERTEX
  5
3FA
  8
0
  6
CONTINUOUS
 62
     7
 10
2.4007175828
 20
2.6955935957
 30
0.0
  0
VERTEX
  5
3FB
  8
0
  6
CONTINUOUS
 62
     7
 10
2.4486260697
 20
2.7074147566
 30
0.0
  0
VERTEX
  5
3FC
  8
0
  6
CONTINUOUS
 62
     7
 10
2.4974050161
 20
2.7179831886
 30
0.0
  0
VERTEX
  5
3FD
  8
0
  6
CONTINUOUS
 62
     7
 10
2.5469561879
 20
2.7272776083
 30
0.0
  0
VERTEX
  5
3FE
  8
0
  6
CONTINUOUS
 62
     7
 10
2.5971797956
 20
2.735279298
 30
0.0
  0
VERTEX
  5
3FF
  8
0
  6
CONTINUOUS
 62
     7
 10
2.6479746954
 20
2.7419721434
 30
0.0
  0
VERTEX
  5
400
  8
0
  6
CONTINUOUS
 62
     7
 10
2.6992385932
 20
2.7473426659
 30
0.0
  0
VERTEX
  5
401
  8
0
  6
CONTINUOUS
 62
     7
 10
2.7508682503
 20
2.7513800501
 30
0.0
  0
VERTEX
  5
402
  8
0
  6
CONTINUOUS
 62
     7
 10
2.8027596916
 20
2.7540761651
 30
0.0
  0
VERTEX
  5
403
  8
0
  6
CONTINUOUS
 62
     7
 10
2.8548084144
 20
2.7554255814
 30
0.0
  0
VERTEX
  5
404
  8
0
  6
CONTINUOUS
 62
     7
 10
2.9069095997
 20
2.7554255814
 30
0.0
  0
VERTEX
  5
405
  8
0
  6
CONTINUOUS
 62
     7
 10
2.9589583226
 20
2.7540761651
 30
0.0
  0
VERTEX
  5
406
  8
0
  6
CONTINUOUS
 62
     7
 10
3.0108497638
 20
2.7513800501
 30
0.0
  0
VERTEX
  5
407
  8
0
  6
CONTINUOUS
 62
     7
 10
3.062479421
 20
2.7473426659
 30
0.0
  0
VERTEX
  5
408
  8
0
  6
CONTINUOUS
 62
     7
 10
3.1137433188
 20
2.7419721434
 30
0.0
  0
VERTEX
  5
409
  8
0
  6
CONTINUOUS
 62
     7
 10
3.1645382186
 20
2.735279298
 30
0.0
  0
VERTEX
  5
40A
  8
0
  6
CONTINUOUS
 62
     7
 10
3.2147618262
 20
2.7272776083
 30
0.0
  0
VERTEX
  5
40B
  8
0
  6
CONTINUOUS
 62
     7
 10
3.264312998
 20
2.7179831886
 30
0.0
  0
VERTEX
  5
40C
  8
0
  6
CONTINUOUS
 62
     7
 10
3.3130919445
 20
2.7074147566
 30
0.0
  0
VERTEX
  5
40D
  8
0
  6
CONTINUOUS
 62
     7
 10
3.3610004313
 20
2.6955935957
 30
0.0
  0
VERTEX
  5
40E
  8
0
  6
CONTINUOUS
 62
     7
 10
3.4079419773
 20
2.6825435122
 30
0.0
  0
VERTEX
  5
40F
  8
0
  6
CONTINUOUS
 62
     7
 10
3.4538220483
 20
2.6682907872
 30
0.0
  0
VERTEX
  5
410
  8
0
  6
CONTINUOUS
 62
     7
 10
3.4985482479
 20
2.6528641237
 30
0.0
  0
VERTEX
  5
411
  8
0
  6
CONTINUOUS
 62
     7
 10
3.5420305036
 20
2.6362945892
 30
0.0
  0
VERTEX
  5
412
  8
0
  6
CONTINUOUS
 62
     7
 10
3.584181248
 20
2.6186155523
 30
0.0
  0
VERTEX
  5
413
  8
0
  6
CONTINUOUS
 62
     7
 10
3.6249155949
 20
2.5998626163
 30
0.0
  0
VERTEX
  5
414
  8
0
  6
CONTINUOUS
 62
     7
 10
3.6641515109
 20
2.5800735471
 30
0.0
  0
VERTEX
  5
415
  8
0
  6
CONTINUOUS
 62
     7
 10
3.70180998
 20
2.5592881973
 30
0.0
  0
VERTEX
  5
416
  8
0
  6
CONTINUOUS
 62
     7
 10
3.7378151632
 20
2.5375484258
 30
0.0
  0
VERTEX
  5
417
  8
0
  6
CONTINUOUS
 62
     7
 10
3.7720945506
 20
2.5148980137
 30
0.0
  0
VERTEX
  5
418
  8
0
  6
CONTINUOUS
 62
     7
 10
3.8045791083
 20
2.4913825757
 30
0.0
  0
VERTEX
  5
419
  8
0
  6
CONTINUOUS
 62
     7
 10
3.8352034167
 20
2.467049469
 30
0.0
  0
VERTEX
  5
41A
  8
0
  6
CONTINUOUS
 62
     7
 10
3.8639058024
 20
2.441947697
 30
0.0
  0
VERTEX
  5
41B
  8
0
  6
CONTINUOUS
 62
     7
 10
3.8906284627
 20
2.4161278116
 30
0.0
  0
VERTEX
  5
41C
  8
0
  6
CONTINUOUS
 62
     7
 10
3.9153175817
 20
2.3896418104
 30
0.0
  0
VERTEX
  5
41D
  8
0
  6
CONTINUOUS
 62
     7
 10
3.9379234387
 20
2.3625430327
 30
0.0
  0
VERTEX
  5
41E
  8
0
  6
CONTINUOUS
 62
     7
 10
3.9584005087
 20
2.3348860519
 30
0.0
  0
VERTEX
  5
41F
  8
0
  6
CONTINUOUS
 62
     7
 10
3.9767075536
 20
2.3067265655
 30
0.0
  0
VERTEX
  5
420
  8
0
  6
CONTINUOUS
 62
     7
 10
3.9928077052
 20
2.2781212829
 30
0.0
  0
VERTEX
  5
421
  8
0
  6
CONTINUOUS
 62
     7
 10
4.0066685402
 20
2.2491278114
 30
0.0
  0
VERTEX
  5
422
  8
0
  6
CONTINUOUS
 62
     7
 10
4.0182621446
 20
2.2198045399
 30
0.0
  0
VERTEX
  5
423
  8
0
  6
CONTINUOUS
 62
     7
 10
4.0275651705
 20
2.1902105216
 30
0.0
  0
VERTEX
  5
424
  8
0
  6
CONTINUOUS
 62
     7
 10
4.0345588828
 20
2.160405355
 30
0.0
  0
VERTEX
  5
425
  8
0
  6
CONTINUOUS
 62
     7
 10
4.039229197
 20
2.1304490636
 30
0.0
  0
VERTEX
  5
426
  8
0
  6
CONTINUOUS
 62
     7
 10
4.0415667078
 20
2.1004019754
 30
0.0
  0
VERTEX
  5
427
  8
0
  6
CONTINUOUS
 62
     7
 10
4.0415667078
 20
2.0703246014
 30
0.0
  0
VERTEX
  5
428
  8
0
  6
CONTINUOUS
 62
     7
 10
4.039229197
 20
2.0402775132
 30
0.0
  0
VERTEX
  5
429
  8
0
  6
CONTINUOUS
 62
     7
 10
4.0345588828
 20
2.0103212218
 30
0.0
  0
VERTEX
  5
42A
  8
0
  6
CONTINUOUS
 62
     7
 10
4.0275651705
 20
1.9805160552
 30
0.0
  0
VERTEX
  5
42B
  8
0
  6
CONTINUOUS
 62
     7
 10
4.0182621446
 20
1.9509220369
 30
0.0
  0
VERTEX
  5
42C
  8
0
  6
CONTINUOUS
 62
     7
 10
4.0066685402
 20
1.9215987654
 30
0.0
  0
VERTEX
  5
42D
  8
0
  6
CONTINUOUS
 62
     7
 10
3.9928077052
 20
1.8926052939
 30
0.0
  0
VERTEX
  5
42E
  8
0
  6
CONTINUOUS
 62
     7
 10
3.9767075536
 20
1.8640000113
 30
0.0
  0
VERTEX
  5
42F
  8
0
  6
CONTINUOUS
 62
     7
 10
3.9584005087
 20
1.8358405249
 30
0.0
  0
VERTEX
  5
430
  8
0
  6
CONTINUOUS
 62
     7
 10
3.9379234387
 20
1.8081835441
 30
0.0
  0
VERTEX
  5
431
  8
0
  6
CONTINUOUS
 62
     7
 10
3.9153175817
 20
1.7810847665
 30
0.0
  0
VERTEX
  5
432
  8
0
  6
CONTINUOUS
 62
     7
 10
3.8906284627
 20
1.7545987653
 30
0.0
  0
VERTEX
  5
433
  8
0
  6
CONTINUOUS
 62
     7
 10
3.8639058024
 20
1.7287788798
 30
0.0
  0
VERTEX
  5
434
  8
0
  6
CONTINUOUS
 62
     7
 10
3.8352034167
 20
1.7036771079
 30
0.0
  0
VERTEX
  5
435
  8
0
  6
CONTINUOUS
 62
     7
 10
3.8045791083
 20
1.6793440011
 30
0.0
  0
VERTEX
  5
436
  8
0
  6
CONTINUOUS
 62
     7
 10
3.7720945506
 20
1.6558285632
 30
0.0
  0
VERTEX
  5
437
  8
0
  6
CONTINUOUS
 62
     7
 10
3.7378151632
 20
1.633178151
 30
0.0
  0
VERTEX
  5
438
  8
0
  6
CONTINUOUS
 62
     7
 10
3.70180998
 20
1.6114383795
 30
0.0
  0
VERTEX
  5
439
  8
0
  6
CONTINUOUS
 62
     7
 10
3.6641515109
 20
1.5906530297
 30
0.0
  0
VERTEX
  5
43A
  8
0
  6
CONTINUOUS
 62
     7
 10
3.6249155949
 20
1.5708639605
 30
0.0
  0
VERTEX
  5
43B
  8
0
  6
CONTINUOUS
 62
     7
 10
3.584181248
 20
1.5521110245
 30
0.0
  0
VERTEX
  5
43C
  8
0
  6
CONTINUOUS
 62
     7
 10
3.5420305036
 20
1.5344319876
 30
0.0
  0
VERTEX
  5
43D
  8
0
  6
CONTINUOUS
 62
     7
 10
3.4985482479
 20
1.5178624531
 30
0.0
  0
VERTEX
  5
43E
  8
0
  6
CONTINUOUS
 62
     7
 10
3.4538220483
 20
1.5024357897
 30
0.0
  0
VERTEX
  5
43F
  8
0
  6
CONTINUOUS
 62
     7
 10
3.4079419773
 20
1.4881830646
 30
0.0
  0
VERTEX
  5
440
  8
0
  6
CONTINUOUS
 62
     7
 10
3.3610004313
 20
1.4751329811
 30
0.0
  0
VERTEX
  5
441
  8
0
  6
CONTINUOUS
 62
     7
 10
3.3130919445
 20
1.4633118202
 30
0.0
  0
VERTEX
  5
442
  8
0
  6
CONTINUOUS
 62
     7
 10
3.264312998
 20
1.4527433882
 30
0.0
  0
VERTEX
  5
443
  8
0
  6
CONTINUOUS
 62
     7
 10
3.2147618262
 20
1.4434489685
 30
0.0
  0
VERTEX
  5
444
  8
0
  6
CONTINUOUS
 62
     7
 10
3.1645382186
 20
1.4354472788
 30
0.0
  0
VERTEX
  5
445
  8
0
  6
CONTINUOUS
 62
     7
 10
3.1137433188
 20
1.4287544334
 30
0.0
  0
VERTEX
  5
446
  8
0
  6
CONTINUOUS
 62
     7
 10
3.062479421
 20
1.4233839109
 30
0.0
  0
VERTEX
  5
447
  8
0
  6
CONTINUOUS
 62
     7
 10
3.0108497638
 20
1.4193465267
 30
0.0
  0
VERTEX
  5
448
  8
0
  6
CONTINUOUS
 62
     7
 10
2.9589583226
 20
1.4166504117
 30
0.0
  0
VERTEX
  5
449
  8
0
  6
CONTINUOUS
 62
     7
 10
2.9069095997
 20
1.4153009954
 30
0.0
  0
VERTEX
  5
44A
  8
0
  6
CONTINUOUS
 62
     7
 10
2.8548084144
 20
1.4153009954
 30
0.0
  0
VERTEX
  5
44B
  8
0
  6
CONTINUOUS
 62
     7
 10
2.8027596916
 20
1.4166504117
 30
0.0
  0
VERTEX
  5
44C
  8
0
  6
CONTINUOUS
 62
     7
 10
2.7508682503
 20
1.4193465267
 30
0.0
  0
VERTEX
  5
44D
  8
0
  6
CONTINUOUS
 62
     7
 10
2.6992385932
 20
1.4233839109
 30
0.0
  0
VERTEX
  5
44E
  8
0
  6
CONTINUOUS
 62
     7
 10
2.6479746954
 20
1.4287544334
 30
0.0
  0
VERTEX
  5
44F
  8
0
  6
CONTINUOUS
 62
     7
 10
2.5971797956
 20
1.4354472788
 30
0.0
  0
VERTEX
  5
450
  8
0
  6
CONTINUOUS
 62
     7
 10
2.5469561879
 20
1.4434489685
 30
0.0
  0
VERTEX
  5
451
  8
0
  6
CONTINUOUS
 62
     7
 10
2.4974050161
 20
1.4527433882
 30
0.0
  0
VERTEX
  5
452
  8
0
  6
CONTINUOUS
 62
     7
 10
2.4486260697
 20
1.4633118202
 30
0.0
  0
VERTEX
  5
453
  8
0
  6
CONTINUOUS
 62
     7
 10
2.4007175828
 20
1.4751329811
 30
0.0
  0
VERTEX
  5
454
  8
0
  6
CONTINUOUS
 62
     7
 10
2.3537760369
 20
1.4881830646
 30
0.0
  0
VERTEX
  5
455
  8
0
  6
CONTINUOUS
 62
     7
 10
2.3078959659
 20
1.5024357897
 30
0.0
  0
VERTEX
  5
456
  8
0
  6
CONTINUOUS
 62
     7
 10
2.2631697662
 20
1.5178624531
 30
0.0
  0
VERTEX
  5
457
  8
0
  6
CONTINUOUS
 62
     7
 10
2.2196875105
 20
1.5344319876
 30
0.0
  0
VERTEX
  5
458
  8
0
  6
CONTINUOUS
 62
     7
 10
2.1775367662
 20
1.5521110245
 30
0.0
  0
VERTEX
  5
459
  8
0
  6
CONTINUOUS
 62
     7
 10
2.1368024192
 20
1.5708639605
 30
0.0
  0
VERTEX
  5
45A
  8
0
  6
CONTINUOUS
 62
     7
 10
2.0975665033
 20
1.5906530297
 30
0.0
  0
VERTEX
  5
45B
  8
0
  6
CONTINUOUS
 62
     7
 10
2.0599080341
 20
1.6114383795
 30
0.0
  0
VERTEX
  5
45C
  8
0
  6
CONTINUOUS
 62
     7
 10
2.023902851
 20
1.633178151
 30
0.0
  0
VERTEX
  5
45D
  8
0
  6
CONTINUOUS
 62
     7
 10
1.9896234635
 20
1.6558285632
 30
0.0
  0
VERTEX
  5
45E
  8
0
  6
CONTINUOUS
 62
     7
 10
1.9571389058
 20
1.6793440011
 30
0.0
  0
VERTEX
  5
45F
  8
0
  6
CONTINUOUS
 62
     7
 10
1.9265145975
 20
1.7036771079
 30
0.0
  0
VERTEX
  5
460
  8
0
  6
CONTINUOUS
 62
     7
 10
1.8978122118
 20
1.7287788798
 30
0.0
  0
VERTEX
  5
461
  8
0
  6
CONTINUOUS
 62
     7
 10
1.8710895515
 20
1.7545987653
 30
0.0
  0
VERTEX
  5
462
  8
0
  6
CONTINUOUS
 62
     7
 10
1.8464004325
 20
1.7810847665
 30
0.0
  0
VERTEX
  5
463
  8
0
  6
CONTINUOUS
 62
     7
 10
1.8237945754
 20
1.8081835441
 30
0.0
  0
VERTEX
  5
464
  8
0
  6
CONTINUOUS
 62
     7
 10
1.8033175054
 20
1.8358405249
 30
0.0
  0
VERTEX
  5
465
  8
0
  6
CONTINUOUS
 62
     7
 10
1.7850104606
 20
1.8640000113
 30
0.0
  0
VERTEX
  5
466
  8
0
  6
CONTINUOUS
 62
     7
 10
1.7689103089
 20
1.8926052939
 30
0.0
  0
VERTEX
  5
467
  8
0
  6
CONTINUOUS
 62
     7
 10
1.7550494739
 20
1.9215987654
 30
0.0
  0
VERTEX
  5
468
  8
0
  6
CONTINUOUS
 62
     7
 10
1.7434558695
 20
1.9509220369
 30
0.0
  0
VERTEX
  5
469
  8
0
  6
CONTINUOUS
 62
     7
 10
1.7341528436
 20
1.9805160552
 30
0.0
  0
VERTEX
  5
46A
  8
0
  6
CONTINUOUS
 62
     7
 10
1.7271591314
 20
2.0103212218
 30
0.0
  0
VERTEX
  5
46B
  8
0
  6
CONTINUOUS
 62
     7
 10
1.7224888171
 20
2.0402775132
 30
0.0
  0
VERTEX
  5
46C
  8
0
  6
CONTINUOUS
 62
     7
 10
1.7201513063
 20
2.0703246014
 30
0.0
  0
VERTEX
  5
46D
  8
0
  6
CONTINUOUS
 62
     7
 10
1.7201513063
 20
2.1004019754
 30
0.0
  0
VERTEX
  5
46E
  8
0
  6
CONTINUOUS
 62
     7
 10
1.7224888171
 20
2.1304490636
 30
0.0
  0
VERTEX
  5
46F
  8
0
  6
CONTINUOUS
 62
     7
 10
1.7271591314
 20
2.160405355
 30
0.0
  0
VERTEX
  5
470
  8
0
  6
CONTINUOUS
 62
     7
 10
1.7341528436
 20
2.1902105216
 30
0.0
  0
VERTEX
  5
471
  8
0
  6
CONTINUOUS
 62
     7
 10
1.7434558695
 20
2.2198045399
 30
0.0
  0
VERTEX
  5
472
  8
0
  6
CONTINUOUS
 62
     7
 10
1.7550494739
 20
2.2491278114
 30
0.0
  0
VERTEX
  5
473
  8
0
  6
CONTINUOUS
 62
     7
 10
1.7689103089
 20
2.2781212829
 30
0.0
  0
VERTEX
  5
474
  8
0
  6
CONTINUOUS
 62
     7
 10
1.7850104606
 20
2.3067265655
 30
0.0
  0
VERTEX
  5
475
  8
0
  6
CONTINUOUS
 62
     7
 10
1.8033175054
 20
2.3348860519
 30
0.0
  0
VERTEX
  5
476
  8
0
  6
CONTINUOUS
 62
     7
 10
1.8237945754
 20
2.3625430327
 30
0.0
  0
VERTEX
  5
477
  8
0
  6
CONTINUOUS
 62
     7
 10
1.8464004325
 20
2.3896418104
 30
0.0
  0
VERTEX
  5
478
  8
0
  6
CONTINUOUS
 62
     7
 10
1.8710895515
 20
2.4161278116
 30
0.0
  0
VERTEX
  5
479
  8
0
  6
CONTINUOUS
 62
     7
 10
1.8978122118
 20
2.441947697
 30
0.0
  0
VERTEX
  5
47A
  8
0
  6
CONTINUOUS
 62
     7
 10
1.9265145975
 20
2.467049469
 30
0.0
  0
VERTEX
  5
47B
  8
0
  6
CONTINUOUS
 62
     7
 10
1.9571389058
 20
2.4913825757
 30
0.0
  0
VERTEX
  5
47C
  8
0
  6
CONTINUOUS
 62
     7
 10
1.9896234635
 20
2.5148980137
 30
0.0
  0
VERTEX
  5
47D
  8
0
  6
CONTINUOUS
 62
     7
 10
2.023902851
 20
2.5375484258
 30
0.0
  0
VERTEX
  5
47E
  8
0
  6
CONTINUOUS
 62
     7
 10
2.0599080341
 20
2.5592881973
 30
0.0
  0
SEQEND
  5
729
  8
0
  6
CONTINUOUS
 62
     7
  0
ARC
  5
16B
  8
0
  6
CONTINUOUS
 62
     7
 10
3.6668030563
 20
2.069034557
 30
0.0
 40
0.3950535275351397
 50
352.3569844104
 51
7.8956766015
  0
ARC
  5
16C
  8
0
  6
CONTINUOUS
 62
     7
 10
2.0954270159
 20
2.0690324847
 30
0.0
 40
0.3955614670230287
 50
171.813820943
 51
188.1841366932
  0
ARC
  5
16D
  8
0
  6
CONTINUOUS
 62
     7
 10
3.666434474
 20
1.9302671924
 30
0.0
 40
0.3954245356409901
 50
352.3579325776
 51
359.9934878222
  0
ARC
  5
16E
  8
0
  6
CONTINUOUS
 62
     7
 10
2.095815389
 20
1.930296046
 30
0.0
 40
0.3959563887532704
 50
180.0106786046
 51
188.1867046205
  0
POLYLINE
  5
16F
  8
0
  6
CONTINUOUS
 62
     7
 66
     1
 10
0.0
 20
0.0
 30
0.0
 70
   128
  0
VERTEX
  5
47F
  8
0
  6
CONTINUOUS
 62
     7
 10
2.3099398784
 20
2.414947886
 30
0.0
  0
VERTEX
  5
480
  8
0
  6
CONTINUOUS
 62
     7
 10
2.3414079469
 20
2.4321637375
 30
0.0
  0
VERTEX
  5
481
  8
0
  6
CONTINUOUS
 62
     7
 10
2.3744313924
 20
2.4483796736
 30
0.0
  0
VERTEX
  5
482
  8
0
  6
CONTINUOUS
 62
     7
 10
2.4089149999
 20
2.4635489395
 30
0.0
  0
VERTEX
  5
483
  8
0
  6
CONTINUOUS
 62
     7
 10
2.4447593441
 20
2.4776277982
 30
0.0
  0
VERTEX
  5
484
  8
0
  6
CONTINUOUS
 62
     7
 10
2.4818610765
 20
2.4905756568
 30
0.0
  0
VERTEX
  5
485
  8
0
  6
CONTINUOUS
 62
     7
 10
2.5201132232
 20
2.5023551832
 30
0.0
  0
VERTEX
  5
486
  8
0
  6
CONTINUOUS
 62
     7
 10
2.5594054934
 20
2.5129324141
 30
0.0
  0
VERTEX
  5
487
  8
0
  6
CONTINUOUS
 62
     7
 10
2.5996245974
 20
2.5222768525
 30
0.0
  0
VERTEX
  5
488
  8
0
  6
CONTINUOUS
 62
     7
 10
2.6406545729
 20
2.5303615559
 30
0.0
  0
VERTEX
  5
489
  8
0
  6
CONTINUOUS
 62
     7
 10
2.68237712
 20
2.5371632142
 30
0.0
  0
VERTEX
  5
48A
  8
0
  6
CONTINUOUS
 62
     7
 10
2.7246719417
 20
2.5426622163
 30
0.0
  0
VERTEX
  5
48B
  8
0
  6
CONTINUOUS
 62
     7
 10
2.7674170912
 20
2.5468427073
 30
0.0
  0
VERTEX
  5
48C
  8
0
  6
CONTINUOUS
 62
     7
 10
2.8104893231
 20
2.5496926336
 30
0.0
  0
VERTEX
  5
48D
  8
0
  6
CONTINUOUS
 62
     7
 10
2.8537644491
 20
2.5512037782
 30
0.0
  0
VERTEX
  5
48E
  8
0
  6
CONTINUOUS
 62
     7
 10
2.8971176956
 20
2.5513717841
 30
0.0
  0
VERTEX
  5
48F
  8
0
  6
CONTINUOUS
 62
     7
 10
2.9404240641
 20
2.5501961668
 30
0.0
  0
VERTEX
  5
490
  8
0
  6
CONTINUOUS
 62
     7
 10
2.9835586912
 20
2.5476803161
 30
0.0
  0
VERTEX
  5
491
  8
0
  6
CONTINUOUS
 62
     7
 10
3.0263972085
 20
2.5438314856
 30
0.0
  0
VERTEX
  5
492
  8
0
  6
CONTINUOUS
 62
     7
 10
3.0688161014
 20
2.5386607727
 30
0.0
  0
VERTEX
  5
493
  8
0
  6
CONTINUOUS
 62
     7
 10
3.1106930655
 20
2.5321830857
 30
0.0
  0
VERTEX
  5
494
  8
0
  6
CONTINUOUS
 62
     7
 10
3.1519073584
 20
2.5244171017
 30
0.0
  0
VERTEX
  5
495
  8
0
  6
CONTINUOUS
 62
     7
 10
3.1923401487
 20
2.5153852118
 30
0.0
  0
VERTEX
  5
496
  8
0
  6
CONTINUOUS
 62
     7
 10
3.2318748583
 20
2.5051134574
 30
0.0
  0
VERTEX
  5
497
  8
0
  6
CONTINUOUS
 62
     7
 10
3.2703974984
 20
2.4936314546
 30
0.0
  0
VERTEX
  5
498
  8
0
  6
CONTINUOUS
 62
     7
 10
3.3077969981
 20
2.480972309
 30
0.0
  0
VERTEX
  5
499
  8
0
  6
CONTINUOUS
 62
     7
 10
3.3439655251
 20
2.4671725201
 30
0.0
  0
VERTEX
  5
49A
  8
0
  6
CONTINUOUS
 62
     7
 10
3.378798796
 20
2.4522718764
 30
0.0
  0
VERTEX
  5
49B
  8
0
  6
CONTINUOUS
 62
     7
 10
3.4121963777
 20
2.4363133403
 30
0.0
  0
VERTEX
  5
49C
  8
0
  6
CONTINUOUS
 62
     7
 10
3.4440619762
 20
2.4193429243
 30
0.0
  0
VERTEX
  5
49D
  8
0
  6
CONTINUOUS
 62
     7
 10
3.4743037147
 20
2.4014095586
 30
0.0
  0
VERTEX
  5
49E
  8
0
  6
CONTINUOUS
 62
     7
 10
3.5028343986
 20
2.3825649497
 30
0.0
  0
VERTEX
  5
49F
  8
0
  6
CONTINUOUS
 62
     7
 10
3.5295717663
 20
2.3628634314
 30
0.0
  0
VERTEX
  5
4A0
  8
0
  6
CONTINUOUS
 62
     7
 10
3.5544387272
 20
2.3423618084
 30
0.0
  0
VERTEX
  5
4A1
  8
0
  6
CONTINUOUS
 62
     7
 10
3.5773635835
 20
2.3211191921
 30
0.0
  0
VERTEX
  5
4A2
  8
0
  6
CONTINUOUS
 62
     7
 10
3.5982802367
 20
2.2991968305
 30
0.0
  0
VERTEX
  5
4A3
  8
0
  6
CONTINUOUS
 62
     7
 10
3.6171283788
 20
2.2766579315
 30
0.0
  0
VERTEX
  5
4A4
  8
0
  6
CONTINUOUS
 62
     7
 10
3.6338536657
 20
2.2535674805
 30
0.0
  0
VERTEX
  5
4A5
  8
0
  6
CONTINUOUS
 62
     7
 10
3.6484078741
 20
2.2299920532
 30
0.0
  0
VERTEX
  5
4A6
  8
0
  6
CONTINUOUS
 62
     7
 10
3.6607490404
 20
2.2059996238
 30
0.0
  0
VERTEX
  5
4A7
  8
0
  6
CONTINUOUS
 62
     7
 10
3.6708415818
 20
2.1816593686
 30
0.0
  0
VERTEX
  5
4A8
  8
0
  6
CONTINUOUS
 62
     7
 10
3.678656399
 20
2.1570414669
 30
0.0
  0
VERTEX
  5
4A9
  8
0
  6
CONTINUOUS
 62
     7
 10
3.6841709597
 20
2.1322168984
 30
0.0
  0
VERTEX
  5
4AA
  8
0
  6
CONTINUOUS
 62
     7
 10
3.6873693642
 20
2.1072572389
 30
0.0
  0
VERTEX
  5
4AB
  8
0
  6
CONTINUOUS
 62
     7
 10
3.6882423905
 20
2.0822344534
 30
0.0
  0
VERTEX
  5
4AC
  8
0
  6
CONTINUOUS
 62
     7
 10
3.6867875215
 20
2.0572206891
 30
0.0
  0
VERTEX
  5
4AD
  8
0
  6
CONTINUOUS
 62
     7
 10
3.683008952
 20
2.0322880673
 30
0.0
  0
VERTEX
  5
4AE
  8
0
  6
CONTINUOUS
 62
     7
 10
3.6769175765
 20
2.0075084751
 30
0.0
  0
VERTEX
  5
4AF
  8
0
  6
CONTINUOUS
 62
     7
 10
3.6685309581
 20
1.9829533584
 30
0.0
  0
VERTEX
  5
4B0
  8
0
  6
CONTINUOUS
 62
     7
 10
3.6578732775
 20
1.9586935161
 30
0.0
  0
VERTEX
  5
4B1
  8
0
  6
CONTINUOUS
 62
     7
 10
3.6449752637
 20
1.9347988955
 30
0.0
  0
VERTEX
  5
4B2
  8
0
  6
CONTINUOUS
 62
     7
 10
3.6298741048
 20
1.9113383911
 30
0.0
  0
VERTEX
  5
4B3
  8
0
  6
CONTINUOUS
 62
     7
 10
3.6126133416
 20
1.8883796454
 30
0.0
  0
VERTEX
  5
4B4
  8
0
  6
CONTINUOUS
 62
     7
 10
3.5932427412
 20
1.8659888546
 30
0.0
  0
VERTEX
  5
4B5
  8
0
  6
CONTINUOUS
 62
     7
 10
3.571818154
 20
1.8442305771
 30
0.0
  0
VERTEX
  5
4B6
  8
0
  6
CONTINUOUS
 62
     7
 10
3.5484013528
 20
1.8231675477
 30
0.0
  0
VERTEX
  5
4B7
  8
0
  6
CONTINUOUS
 62
     7
 10
3.5230598542
 20
1.8028604964
 30
0.0
  0
VERTEX
  5
4B8
  8
0
  6
CONTINUOUS
 62
     7
 10
3.4958667242
 20
1.7833679738
 30
0.0
  0
VERTEX
  5
4B9
  8
0
  6
CONTINUOUS
 62
     7
 10
3.4669003679
 20
1.7647461819
 30
0.0
  0
VERTEX
  5
4BA
  8
0
  6
CONTINUOUS
 62
     7
 10
3.4362443026
 20
1.747048812
 30
0.0
  0
VERTEX
  5
4BB
  8
0
  6
CONTINUOUS
 62
     7
 10
3.4039869176
 20
1.7303268904
 30
0.0
  0
VERTEX
  5
4BC
  8
0
  6
CONTINUOUS
 62
     7
 10
3.3702212196
 20
1.7146286307
 30
0.0
  0
VERTEX
  5
4BD
  8
0
  6
CONTINUOUS
 62
     7
 10
3.3350445635
 20
1.6999992949
 30
0.0
  0
VERTEX
  5
4BE
  8
0
  6
CONTINUOUS
 62
     7
 10
3.298558373
 20
1.6864810633
 30
0.0
  0
VERTEX
  5
4BF
  8
0
  6
CONTINUOUS
 62
     7
 10
3.260867847
 20
1.6741129124
 30
0.0
  0
VERTEX
  5
4C0
  8
0
  6
CONTINUOUS
 62
     7
 10
3.2220816571
 20
1.6629305028
 30
0.0
  0
VERTEX
  5
4C1
  8
0
  6
CONTINUOUS
 62
     7
 10
3.1823116341
 20
1.6529660763
 30
0.0
  0
VERTEX
  5
4C2
  8
0
  6
CONTINUOUS
 62
     7
 10
3.1416724451
 20
1.6442483629
 30
0.0
  0
VERTEX
  5
4C3
  8
0
  6
CONTINUOUS
 62
     7
 10
3.1002812634
 20
1.636802498
 30
0.0
  0
VERTEX
  5
4C4
  8
0
  6
CONTINUOUS
 62
     7
 10
3.0582574305
 20
1.63064995
 30
0.0
  0
VERTEX
  5
4C5
  8
0
  6
CONTINUOUS
 62
     7
 10
3.0157221121
 20
1.6258084582
 30
0.0
  0
VERTEX
  5
4C6
  8
0
  6
CONTINUOUS
 62
     7
 10
2.9727979484
 20
1.622291982
 30
0.0
  0
VERTEX
  5
4C7
  8
0
  6
CONTINUOUS
 62
     7
 10
2.929608701
 20
1.6201106602
 30
0.0
  0
VERTEX
  5
4C8
  8
0
  6
CONTINUOUS
 62
     7
 10
2.8862788956
 20
1.6192707822
 30
0.0
  0
VERTEX
  5
4C9
  8
0
  6
CONTINUOUS
 62
     7
 10
2.8429334632
 20
1.6197747696
 30
0.0
  0
VERTEX
  5
4CA
  8
0
  6
CONTINUOUS
 62
     7
 10
2.79969738
 20
1.6216211692
 30
0.0
  0
VERTEX
  5
4CB
  8
0
  6
CONTINUOUS
 62
     7
 10
2.7566953067
 20
1.6248046573
 30
0.0
  0
VERTEX
  5
4CC
  8
0
  6
CONTINUOUS
 62
     7
 10
2.7140512296
 20
1.6293160553
 30
0.0
  0
VERTEX
  5
4CD
  8
0
  6
CONTINUOUS
 62
     7
 10
2.6718881025
 20
1.6351423554
 30
0.0
  0
VERTEX
  5
4CE
  8
0
  6
CONTINUOUS
 62
     7
 10
2.6303274926
 20
1.6422667591
 30
0.0
  0
VERTEX
  5
4CF
  8
0
  6
CONTINUOUS
 62
     7
 10
2.5894892298
 20
1.6506687247
 30
0.0
  0
VERTEX
  5
4D0
  8
0
  6
CONTINUOUS
 62
     7
 10
2.5494910616
 20
1.6603240273
 30
0.0
  0
VERTEX
  5
4D1
  8
0
  6
CONTINUOUS
 62
     7
 10
2.510448313
 20
1.6712048282
 30
0.0
  0
VERTEX
  5
4D2
  8
0
  6
CONTINUOUS
 62
     7
 10
2.4724735543
 20
1.683279755
 30
0.0
  0
VERTEX
  5
4D3
  8
0
  6
CONTINUOUS
 62
     7
 10
2.4356762765
 20
1.6965139928
 30
0.0
  0
VERTEX
  5
4D4
  8
0
  6
CONTINUOUS
 62
     7
 10
2.4001625758
 20
1.7108693838
 30
0.0
  0
VERTEX
  5
4D5
  8
0
  6
CONTINUOUS
 62
     7
 10
2.3660348474
 20
1.7263045377
 30
0.0
  0
VERTEX
  5
4D6
  8
0
  6
CONTINUOUS
 62
     7
 10
2.3333914903
 20
1.7427749509
 30
0.0
  0
VERTEX
  5
4D7
  8
0
  6
CONTINUOUS
 62
     7
 10
2.3023266238
 20
1.7602331349
 30
0.0
  0
VERTEX
  5
4D8
  8
0
  6
CONTINUOUS
 62
     7
 10
2.2729298159
 20
1.7786287534
 30
0.0
  0
VERTEX
  5
4D9
  8
0
  6
CONTINUOUS
 62
     7
 10
2.2452858252
 20
1.7979087669
 30
0.0
  0
VERTEX
  5
4DA
  8
0
  6
CONTINUOUS
 62
     7
 10
2.2194743565
 20
1.8180175862
 30
0.0
  0
VERTEX
  5
4DB
  8
0
  6
CONTINUOUS
 62
     7
 10
2.195569831
 20
1.8388972324
 30
0.0
  0
VERTEX
  5
4DC
  8
0
  6
CONTINUOUS
 62
     7
 10
2.1736411716
 20
1.860487504
 30
0.0
  0
VERTEX
  5
4DD
  8
0
  6
CONTINUOUS
 62
     7
 10
2.1537516043
 20
1.8827261507
 30
0.0
  0
VERTEX
  5
4DE
  8
0
  6
CONTINUOUS
 62
     7
 10
2.1359584759
 20
1.9055490528
 30
0.0
  0
VERTEX
  5
4DF
  8
0
  6
CONTINUOUS
 62
     7
 10
2.1203130885
 20
1.9288904058
 30
0.0
  0
VERTEX
  5
4E0
  8
0
  6
CONTINUOUS
 62
     7
 10
2.1068605519
 20
1.9526829107
 30
0.0
  0
VERTEX
  5
4E1
  8
0
  6
CONTINUOUS
 62
     7
 10
2.0956396532
 20
1.9768579674
 30
0.0
  0
VERTEX
  5
4E2
  8
0
  6
CONTINUOUS
 62
     7
 10
2.0866827452
 20
2.0013458731
 30
0.0
  0
VERTEX
  5
4E3
  8
0
  6
CONTINUOUS
 62
     7
 10
2.0800156529
 20
2.0260760227
 30
0.0
  0
VERTEX
  5
4E4
  8
0
  6
CONTINUOUS
 62
     7
 10
2.0756575994
 20
2.0509771129
 30
0.0
  0
VERTEX
  5
4E5
  8
0
  6
CONTINUOUS
 62
     7
 10
2.0736211499
 20
2.0759773473
 30
0.0
  0
VERTEX
  5
4E6
  8
0
  6
CONTINUOUS
 62
     7
 10
2.0739121762
 20
2.1010046438
 30
0.0
  0
VERTEX
  5
4E7
  8
0
  6
CONTINUOUS
 62
     7
 10
2.076529839
 20
2.1259868423
 30
0.0
  0
VERTEX
  5
4E8
  8
0
  6
CONTINUOUS
 62
     7
 10
2.0814665911
 20
2.1508519125
 30
0.0
  0
VERTEX
  5
4E9
  8
0
  6
CONTINUOUS
 62
     7
 10
2.0887081984
 20
2.175528162
 30
0.0
  0
VERTEX
  5
4EA
  8
0
  6
CONTINUOUS
 62
     7
 10
2.0982337816
 20
2.1999444429
 30
0.0
  0
VERTEX
  5
4EB
  8
0
  6
CONTINUOUS
 62
     7
 10
2.110015876
 20
2.2240303567
 30
0.0
  0
VERTEX
  5
4EC
  8
0
  6
CONTINUOUS
 62
     7
 10
2.1240205106
 20
2.2477164574
 30
0.0
  0
VERTEX
  5
4ED
  8
0
  6
CONTINUOUS
 62
     7
 10
2.1402073065
 20
2.2709344518
 30
0.0
  0
VERTEX
  5
4EE
  8
0
  6
CONTINUOUS
 62
     7
 10
2.158529593
 20
2.2936173966
 30
0.0
  0
VERTEX
  5
4EF
  8
0
  6
CONTINUOUS
 62
     7
 10
2.1789345422
 20
2.3156998909
 30
0.0
  0
VERTEX
  5
4F0
  8
0
  6
CONTINUOUS
 62
     7
 10
2.2013633214
 20
2.3371182651
 30
0.0
  0
VERTEX
  5
4F1
  8
0
  6
CONTINUOUS
 62
     7
 10
2.2257512625
 20
2.3578107646
 30
0.0
  0
VERTEX
  5
4F2
  8
0
  6
CONTINUOUS
 62
     7
 10
2.2520280488
 20
2.3777177274
 30
0.0
  0
VERTEX
  5
4F3
  8
0
  6
CONTINUOUS
 62
     7
 10
2.2801179176
 20
2.3967817567
 30
0.0
  0
VERTEX
  5
4F4
  8
0
  6
CONTINUOUS
 62
     7
 10
2.3099398784
 20
2.414947886
 30
0.0
  0
SEQEND
  5
72A
  8
0
  6
CONTINUOUS
 62
     7
  0
ARC
  5
170
  8
0
  6
CONTINUOUS
 62
     7
 10
3.4047752687
 20
2.0690363539
 30
0.0
 40
0.263482839485805
 50
352.7333916134
 51
8.1303309417
  0
ARC
  5
171
  8
0
  6
CONTINUOUS
 62
     7
 10
2.3567598718
 20
2.069028087
 30
0.0
 40
0.2633014621151186
 50
172.7590281521
 51
187.9992895008
  0
ARC
  5
172
  8
0
  6
CONTINUOUS
 62
     7
 10
3.6668030563
 20
1.7260857013
 30
0.0
 40
0.3950535275350461
 50
352.3569844104
 51
7.8956766015
  0
ARC
  5
173
  8
0
  6
CONTINUOUS
 62
     7
 10
2.0954270159
 20
1.726083629
 30
0.0
 40
0.3955614670229949
 50
171.813820943
 51
188.1841366932
  0
ARC
  5
174
  8
0
  6
CONTINUOUS
 62
     7
 10
3.666434474
 20
1.5873183367
 30
0.0
 40
0.3954245356410185
 50
352.3579325776
 51
359.9934878222
  0
ARC
  5
175
  8
0
  6
CONTINUOUS
 62
     7
 10
2.095815389
 20
1.5873471902
 30
0.0
 40
0.3959563887531826
 50
180.0106786046
 51
188.1867046205
  0
POLYLINE
  5
176
  8
0
  6
CONTINUOUS
 62
     8
 66
     1
 10
0.0
 20
0.0
 30
0.0
 70
   128
  0
VERTEX
  5
4F5
  8
0
  6
CONTINUOUS
 62
     8
 10
4.0583469155
 20
2.0164922318
 30
0.0
  0
VERTEX
  5
4F6
  8
0
  6
CONTINUOUS
 62
     8
 10
4.0565680439
 20
2.0045691527
 30
0.0
  0
VERTEX
  5
4F7
  8
0
  6
CONTINUOUS
 62
     8
 10
4.0504265514
 20
1.9743982006
 30
0.0
  0
VERTEX
  5
4F8
  8
0
  6
CONTINUOUS
 62
     8
 10
4.0419629908
 20
1.9444151361
 30
0.0
  0
VERTEX
  5
4F9
  8
0
  6
CONTINUOUS
 62
     8
 10
4.0311941658
 20
1.9146794878
 30
0.0
  0
VERTEX
  5
4FA
  8
0
  6
CONTINUOUS
 62
     8
 10
4.0181414567
 20
1.8852502931
 30
0.0
  0
VERTEX
  5
4FB
  8
0
  6
CONTINUOUS
 62
     8
 10
4.0028307786
 20
1.8561859809
 30
0.0
  0
VERTEX
  5
4FC
  8
0
  6
CONTINUOUS
 62
     8
 10
3.9852925295
 20
1.8275442557
 30
0.0
  0
VERTEX
  5
4FD
  8
0
  6
CONTINUOUS
 62
     8
 10
3.9655615298
 20
1.7993819829
 30
0.0
  0
VERTEX
  5
4FE
  8
0
  6
CONTINUOUS
 62
     8
 10
3.9436769536
 20
1.7717550763
 30
0.0
  0
VERTEX
  5
4FF
  8
0
  6
CONTINUOUS
 62
     8
 10
3.9196822508
 20
1.7447183864
 30
0.0
  0
VERTEX
  5
500
  8
0
  6
CONTINUOUS
 62
     8
 10
3.8936250606
 20
1.7183255921
 30
0.0
  0
VERTEX
  5
501
  8
0
  6
CONTINUOUS
 62
     8
 10
3.8655571171
 20
1.6926290939
 30
0.0
  0
VERTEX
  5
502
  8
0
  6
CONTINUOUS
 62
     8
 10
3.8355341467
 20
1.6676799097
 30
0.0
  0
VERTEX
  5
503
  8
0
  6
CONTINUOUS
 62
     8
 10
3.8036157572
 20
1.6435275739
 30
0.0
  0
VERTEX
  5
504
  8
0
  6
CONTINUOUS
 62
     8
 10
3.7698653195
 20
1.6202200387
 30
0.0
  0
VERTEX
  5
505
  8
0
  6
CONTINUOUS
 62
     8
 10
3.7343498421
 20
1.597803579
 30
0.0
  0
VERTEX
  5
506
  8
0
  6
CONTINUOUS
 62
     8
 10
3.6971398377
 20
1.5763227007
 30
0.0
  0
VERTEX
  5
507
  8
0
  6
CONTINUOUS
 62
     8
 10
3.6583091832
 20
1.555820052
 30
0.0
  0
VERTEX
  5
508
  8
0
  6
CONTINUOUS
 62
     8
 10
3.6179349734
 20
1.5363363391
 30
0.0
  0
VERTEX
  5
509
  8
0
  6
CONTINUOUS
 62
     8
 10
3.5760973675
 20
1.517910245
 30
0.0
  0
VERTEX
  5
50A
  8
0
  6
CONTINUOUS
 62
     8
 10
3.5328794301
 20
1.5005783531
 30
0.0
  0
VERTEX
  5
50B
  8
0
  6
CONTINUOUS
 62
     8
 10
3.4883669666
 20
1.4843750743
 30
0.0
  0
VERTEX
  5
50C
  8
0
  6
CONTINUOUS
 62
     8
 10
3.4426483522
 20
1.4693325786
 30
0.0
  0
VERTEX
  5
50D
  8
0
  6
CONTINUOUS
 62
     8
 10
3.3958143571
 20
1.4554807315
 30
0.0
  0
VERTEX
  5
50E
  8
0
  6
CONTINUOUS
 62
     8
 10
3.3479579659
 20
1.4428470346
 30
0.0
  0
VERTEX
  5
50F
  8
0
  6
CONTINUOUS
 62
     8
 10
3.2991741928
 20
1.4314565709
 30
0.0
  0
VERTEX
  5
510
  8
0
  6
CONTINUOUS
 62
     8
 10
3.2495598937
 20
1.4213319551
 30
0.0
  0
VERTEX
  5
511
  8
0
  6
CONTINUOUS
 62
     8
 10
3.1992135731
 20
1.4124932888
 30
0.0
  0
VERTEX
  5
512
  8
0
  6
CONTINUOUS
 62
     8
 10
3.148235189
 20
1.4049581203
 30
0.0
  0
VERTEX
  5
513
  8
0
  6
CONTINUOUS
 62
     8
 10
3.0967259543
 20
1.3987414099
 30
0.0
  0
VERTEX
  5
514
  8
0
  6
CONTINUOUS
 62
     8
 10
3.0447881356
 20
1.3938555004
 30
0.0
  0
VERTEX
  5
515
  8
0
  6
CONTINUOUS
 62
     8
 10
2.9925248509
 20
1.3903100922
 30
0.0
  0
VERTEX
  5
516
  8
0
  6
CONTINUOUS
 62
     8
 10
2.940039864
 20
1.3881122245
 30
0.0
  0
VERTEX
  5
517
  8
0
  6
CONTINUOUS
 62
     8
 10
2.887437379
 20
1.387266261
 30
0.0
  0
VERTEX
  5
518
  8
0
  6
CONTINUOUS
 62
     8
 10
2.8348218332
 20
1.3877738811
 30
0.0
  0
VERTEX
  5
519
  8
0
  6
CONTINUOUS
 62
     8
 10
2.7822976899
 20
1.3896340771
 30
0.0
  0
VERTEX
  5
51A
  8
0
  6
CONTINUOUS
 62
     8
 10
2.7299692311
 20
1.3928431557
 30
0.0
  0
VERTEX
  5
51B
  8
0
  6
CONTINUOUS
 62
     8
 10
2.6779403499
 20
1.3973947457
 30
0.0
  0
VERTEX
  5
51C
  8
0
  6
CONTINUOUS
 62
     8
 10
2.6263143449
 20
1.4032798101
 30
0.0
  0
VERTEX
  5
51D
  8
0
  6
CONTINUOUS
 62
     8
 10
2.5751937148
 20
1.4104866649
 30
0.0
  0
VERTEX
  5
51E
  8
0
  6
CONTINUOUS
 62
     8
 10
2.5246799549
 20
1.4190010014
 30
0.0
  0
VERTEX
  5
51F
  8
0
  6
CONTINUOUS
 62
     8
 10
2.4748733554
 20
1.4288059152
 30
0.0
  0
VERTEX
  5
520
  8
0
  6
CONTINUOUS
 62
     8
 10
2.4258728029
 20
1.4398819396
 30
0.0
  0
VERTEX
  5
521
  8
0
  6
CONTINUOUS
 62
     8
 10
2.3777755834
 20
1.4522070841
 30
0.0
  0
VERTEX
  5
522
  8
0
  6
CONTINUOUS
 62
     8
 10
2.3306771895
 20
1.4657568784
 30
0.0
  0
VERTEX
  5
523
  8
0
  6
CONTINUOUS
 62
     8
 10
2.2846711307
 20
1.4805044204
 30
0.0
  0
VERTEX
  5
524
  8
0
  6
CONTINUOUS
 62
     8
 10
2.2398487476
 20
1.4964204305
 30
0.0
  0
VERTEX
  5
525
  8
0
  6
CONTINUOUS
 62
     8
 10
2.1962990312
 20
1.5134733088
 30
0.0
  0
VERTEX
  5
526
  8
0
  6
CONTINUOUS
 62
     8
 10
2.1541084451
 20
1.5316291983
 30
0.0
  0
VERTEX
  5
527
  8
0
  6
CONTINUOUS
 62
     8
 10
2.1133607551
 20
1.5508520523
 30
0.0
  0
VERTEX
  5
528
  8
0
  6
CONTINUOUS
 62
     8
 10
2.0741368618
 20
1.5711037056
 30
0.0
  0
VERTEX
  5
529
  8
0
  6
CONTINUOUS
 62
     8
 10
2.0365146406
 20
1.5923439503
 30
0.0
  0
VERTEX
  5
52A
  8
0
  6
CONTINUOUS
 62
     8
 10
2.0005687871
 20
1.614530616
 30
0.0
  0
VERTEX
  5
52B
  8
0
  6
CONTINUOUS
 62
     8
 10
1.9663706682
 20
1.6376196531
 30
0.0
  0
VERTEX
  5
52C
  8
0
  6
CONTINUOUS
 62
     8
 10
1.9339881814
 20
1.6615652203
 30
0.0
  0
VERTEX
  5
52D
  8
0
  6
CONTINUOUS
 62
     8
 10
1.9034856188
 20
1.6863197761
 30
0.0
  0
VERTEX
  5
52E
  8
0
  6
CONTINUOUS
 62
     8
 10
1.8749235407
 20
1.7118341725
 30
0.0
  0
VERTEX
  5
52F
  8
0
  6
CONTINUOUS
 62
     8
 10
1.8483586544
 20
1.7380577531
 30
0.0
  0
VERTEX
  5
530
  8
0
  6
CONTINUOUS
 62
     8
 10
1.8238437019
 20
1.7649384533
 30
0.0
  0
VERTEX
  5
531
  8
0
  6
CONTINUOUS
 62
     8
 10
1.8014273555
 20
1.7924229041
 30
0.0
  0
VERTEX
  5
532
  8
0
  6
CONTINUOUS
 62
     8
 10
1.7811541207
 20
1.8204565375
 30
0.0
  0
VERTEX
  5
533
  8
0
  6
CONTINUOUS
 62
     8
 10
1.7630642481
 20
1.8489836955
 30
0.0
  0
VERTEX
  5
534
  8
0
  6
CONTINUOUS
 62
     8
 10
1.7471936536
 20
1.87794774
 30
0.0
  0
VERTEX
  5
535
  8
0
  6
CONTINUOUS
 62
     8
 10
1.7335738467
 20
1.9072911654
 30
0.0
  0
VERTEX
  5
536
  8
0
  6
CONTINUOUS
 62
     8
 10
1.7222318683
 20
1.9369557133
 30
0.0
  0
VERTEX
  5
537
  8
0
  6
CONTINUOUS
 62
     8
 10
1.7131902368
 20
1.9668824874
 30
0.0
  0
VERTEX
  5
538
  8
0
  6
CONTINUOUS
 62
     8
 10
1.7064669036
 20
1.9970120708
 30
0.0
  0
VERTEX
  5
539
  8
0
  6
CONTINUOUS
 62
     8
 10
1.7038940726
 20
2.0127223748
 30
0.0
  0
SEQEND
  5
72B
  8
0
  6
CONTINUOUS
 62
     8
  0
POLYLINE
  5
177
  8
0
  6
CONTINUOUS
 62
     8
 66
     1
 10
0.0
 20
0.0
 30
0.0
 70
   128
  0
VERTEX
  5
53A
  8
0
  6
CONTINUOUS
 62
     8
 10
4.0583469155
 20
1.8776820086
 30
0.0
  0
VERTEX
  5
53B
  8
0
  6
CONTINUOUS
 62
     8
 10
4.0565680439
 20
1.8657589294
 30
0.0
  0
VERTEX
  5
53C
  8
0
  6
CONTINUOUS
 62
     8
 10
4.0504265514
 20
1.8355879773
 30
0.0
  0
VERTEX
  5
53D
  8
0
  6
CONTINUOUS
 62
     8
 10
4.0419629908
 20
1.8056049128
 30
0.0
  0
VERTEX
  5
53E
  8
0
  6
CONTINUOUS
 62
     8
 10
4.0311941658
 20
1.7758692645
 30
0.0
  0
VERTEX
  5
53F
  8
0
  6
CONTINUOUS
 62
     8
 10
4.0181414567
 20
1.7464400698
 30
0.0
  0
VERTEX
  5
540
  8
0
  6
CONTINUOUS
 62
     8
 10
4.0028307786
 20
1.7173757576
 30
0.0
  0
VERTEX
  5
541
  8
0
  6
CONTINUOUS
 62
     8
 10
3.9852925295
 20
1.6887340324
 30
0.0
  0
VERTEX
  5
542
  8
0
  6
CONTINUOUS
 62
     8
 10
3.9655615298
 20
1.6605717596
 30
0.0
  0
VERTEX
  5
543
  8
0
  6
CONTINUOUS
 62
     8
 10
3.9436769536
 20
1.632944853
 30
0.0
  0
VERTEX
  5
544
  8
0
  6
CONTINUOUS
 62
     8
 10
3.9196822508
 20
1.6059081631
 30
0.0
  0
VERTEX
  5
545
  8
0
  6
CONTINUOUS
 62
     8
 10
3.8936250606
 20
1.5795153689
 30
0.0
  0
VERTEX
  5
546
  8
0
  6
CONTINUOUS
 62
     8
 10
3.8655571171
 20
1.5538188706
 30
0.0
  0
VERTEX
  5
547
  8
0
  6
CONTINUOUS
 62
     8
 10
3.8355341467
 20
1.5288696865
 30
0.0
  0
VERTEX
  5
548
  8
0
  6
CONTINUOUS
 62
     8
 10
3.8036157572
 20
1.5047173506
 30
0.0
  0
VERTEX
  5
549
  8
0
  6
CONTINUOUS
 62
     8
 10
3.7698653195
 20
1.4814098154
 30
0.0
  0
VERTEX
  5
54A
  8
0
  6
CONTINUOUS
 62
     8
 10
3.7343498421
 20
1.4589933557
 30
0.0
  0
VERTEX
  5
54B
  8
0
  6
CONTINUOUS
 62
     8
 10
3.6971398377
 20
1.4375124774
 30
0.0
  0
VERTEX
  5
54C
  8
0
  6
CONTINUOUS
 62
     8
 10
3.6583091832
 20
1.4170098287
 30
0.0
  0
VERTEX
  5
54D
  8
0
  6
CONTINUOUS
 62
     8
 10
3.6179349734
 20
1.3975261158
 30
0.0
  0
VERTEX
  5
54E
  8
0
  6
CONTINUOUS
 62
     8
 10
3.5760973675
 20
1.3791000217
 30
0.0
  0
VERTEX
  5
54F
  8
0
  6
CONTINUOUS
 62
     8
 10
3.5328794301
 20
1.3617681298
 30
0.0
  0
VERTEX
  5
550
  8
0
  6
CONTINUOUS
 62
     8
 10
3.4883669666
 20
1.345564851
 30
0.0
  0
VERTEX
  5
551
  8
0
  6
CONTINUOUS
 62
     8
 10
3.4426483522
 20
1.3305223553
 30
0.0
  0
VERTEX
  5
552
  8
0
  6
CONTINUOUS
 62
     8
 10
3.3958143571
 20
1.3166705082
 30
0.0
  0
VERTEX
  5
553
  8
0
  6
CONTINUOUS
 62
     8
 10
3.3479579659
 20
1.3040368113
 30
0.0
  0
VERTEX
  5
554
  8
0
  6
CONTINUOUS
 62
     8
 10
3.2991741928
 20
1.2926463476
 30
0.0
  0
VERTEX
  5
555
  8
0
  6
CONTINUOUS
 62
     8
 10
3.2495598937
 20
1.2825217319
 30
0.0
  0
VERTEX
  5
556
  8
0
  6
CONTINUOUS
 62
     8
 10
3.1992135731
 20
1.2736830655
 30
0.0
  0
VERTEX
  5
557
  8
0
  6
CONTINUOUS
 62
     8
 10
3.148235189
 20
1.266147897
 30
0.0
  0
VERTEX
  5
558
  8
0
  6
CONTINUOUS
 62
     8
 10
3.0967259543
 20
1.2599311866
 30
0.0
  0
VERTEX
  5
559
  8
0
  6
CONTINUOUS
 62
     8
 10
3.0447881356
 20
1.2550452771
 30
0.0
  0
VERTEX
  5
55A
  8
0
  6
CONTINUOUS
 62
     8
 10
2.9925248509
 20
1.2514998689
 30
0.0
  0
VERTEX
  5
55B
  8
0
  6
CONTINUOUS
 62
     8
 10
2.940039864
 20
1.2493020012
 30
0.0
  0
VERTEX
  5
55C
  8
0
  6
CONTINUOUS
 62
     8
 10
2.887437379
 20
1.2484560377
 30
0.0
  0
VERTEX
  5
55D
  8
0
  6
CONTINUOUS
 62
     8
 10
2.8348218332
 20
1.2489636578
 30
0.0
  0
VERTEX
  5
55E
  8
0
  6
CONTINUOUS
 62
     8
 10
2.7822976899
 20
1.2508238538
 30
0.0
  0
VERTEX
  5
55F
  8
0
  6
CONTINUOUS
 62
     8
 10
2.7299692311
 20
1.2540329325
 30
0.0
  0
VERTEX
  5
560
  8
0
  6
CONTINUOUS
 62
     8
 10
2.6779403499
 20
1.2585845224
 30
0.0
  0
VERTEX
  5
561
  8
0
  6
CONTINUOUS
 62
     8
 10
2.6263143449
 20
1.2644695869
 30
0.0
  0
VERTEX
  5
562
  8
0
  6
CONTINUOUS
 62
     8
 10
2.5751937148
 20
1.2716764416
 30
0.0
  0
VERTEX
  5
563
  8
0
  6
CONTINUOUS
 62
     8
 10
2.5246799549
 20
1.2801907781
 30
0.0
  0
VERTEX
  5
564
  8
0
  6
CONTINUOUS
 62
     8
 10
2.4748733554
 20
1.2899956919
 30
0.0
  0
VERTEX
  5
565
  8
0
  6
CONTINUOUS
 62
     8
 10
2.4258728029
 20
1.3010717163
 30
0.0
  0
VERTEX
  5
566
  8
0
  6
CONTINUOUS
 62
     8
 10
2.3777755834
 20
1.3133968608
 30
0.0
  0
VERTEX
  5
567
  8
0
  6
CONTINUOUS
 62
     8
 10
2.3306771895
 20
1.3269466551
 30
0.0
  0
VERTEX
  5
568
  8
0
  6
CONTINUOUS
 62
     8
 10
2.2846711307
 20
1.3416941972
 30
0.0
  0
VERTEX
  5
569
  8
0
  6
CONTINUOUS
 62
     8
 10
2.2398487476
 20
1.3576102072
 30
0.0
  0
VERTEX
  5
56A
  8
0
  6
CONTINUOUS
 62
     8
 10
2.1962990312
 20
1.3746630855
 30
0.0
  0
VERTEX
  5
56B
  8
0
  6
CONTINUOUS
 62
     8
 10
2.1541084451
 20
1.392818975
 30
0.0
  0
VERTEX
  5
56C
  8
0
  6
CONTINUOUS
 62
     8
 10
2.1133607551
 20
1.412041829
 30
0.0
  0
VERTEX
  5
56D
  8
0
  6
CONTINUOUS
 62
     8
 10
2.0741368618
 20
1.4322934823
 30
0.0
  0
VERTEX
  5
56E
  8
0
  6
CONTINUOUS
 62
     8
 10
2.0365146406
 20
1.4535337271
 30
0.0
  0
VERTEX
  5
56F
  8
0
  6
CONTINUOUS
 62
     8
 10
2.0005687871
 20
1.4757203927
 30
0.0
  0
VERTEX
  5
570
  8
0
  6
CONTINUOUS
 62
     8
 10
1.9663706682
 20
1.4988094298
 30
0.0
  0
VERTEX
  5
571
  8
0
  6
CONTINUOUS
 62
     8
 10
1.9339881814
 20
1.5227549971
 30
0.0
  0
VERTEX
  5
572
  8
0
  6
CONTINUOUS
 62
     8
 10
1.9034856188
 20
1.5475095528
 30
0.0
  0
VERTEX
  5
573
  8
0
  6
CONTINUOUS
 62
     8
 10
1.8749235407
 20
1.5730239492
 30
0.0
  0
VERTEX
  5
574
  8
0
  6
CONTINUOUS
 62
     8
 10
1.8483586544
 20
1.5992475298
 30
0.0
  0
VERTEX
  5
575
  8
0
  6
CONTINUOUS
 62
     8
 10
1.8238437019
 20
1.62612823
 30
0.0
  0
VERTEX
  5
576
  8
0
  6
CONTINUOUS
 62
     8
 10
1.8014273555
 20
1.6536126808
 30
0.0
  0
VERTEX
  5
577
  8
0
  6
CONTINUOUS
 62
     8
 10
1.7811541207
 20
1.6816463143
 30
0.0
  0
VERTEX
  5
578
  8
0
  6
CONTINUOUS
 62
     8
 10
1.7630642481
 20
1.7101734722
 30
0.0
  0
VERTEX
  5
579
  8
0
  6
CONTINUOUS
 62
     8
 10
1.7471936536
 20
1.7391375167
 30
0.0
  0
VERTEX
  5
57A
  8
0
  6
CONTINUOUS
 62
     8
 10
1.7335738467
 20
1.7684809422
 30
0.0
  0
VERTEX
  5
57B
  8
0
  6
CONTINUOUS
 62
     8
 10
1.7222318683
 20
1.79814549
 30
0.0
  0
VERTEX
  5
57C
  8
0
  6
CONTINUOUS
 62
     8
 10
1.7131902368
 20
1.8280722641
 30
0.0
  0
VERTEX
  5
57D
  8
0
  6
CONTINUOUS
 62
     8
 10
1.7064669036
 20
1.8582018475
 30
0.0
  0
VERTEX
  5
57E
  8
0
  6
CONTINUOUS
 62
     8
 10
1.7038940726
 20
1.8739121515
 30
0.0
  0
SEQEND
  5
72C
  8
0
  6
CONTINUOUS
 62
     8
  0
POLYLINE
  5
178
  8
0
  6
CONTINUOUS
 62
     8
 66
     1
 10
0.0
 20
0.0
 30
0.0
 70
   128
  0
VERTEX
  5
57F
  8
0
  6
CONTINUOUS
 62
     8
 10
2.324082014
 20
2.3904529886
 30
0.0
  0
VERTEX
  5
580
  8
0
  6
CONTINUOUS
 62
     8
 10
2.3553179893
 20
2.4075258882
 30
0.0
  0
VERTEX
  5
581
  8
0
  6
CONTINUOUS
 62
     8
 10
2.3881223856
 20
2.4235885904
 30
0.0
  0
VERTEX
  5
582
  8
0
  6
CONTINUOUS
 62
     8
 10
2.4223973016
 20
2.4385931578
 30
0.0
  0
VERTEX
  5
583
  8
0
  6
CONTINUOUS
 62
     8
 10
2.4580404475
 20
2.4524948108
 30
0.0
  0
VERTEX
  5
584
  8
0
  6
CONTINUOUS
 62
     8
 10
2.4949454502
 20
2.4652520615
 30
0.0
  0
VERTEX
  5
585
  8
0
  6
CONTINUOUS
 62
     8
 10
2.5330021707
 20
2.4768268372
 30
0.0
  0
VERTEX
  5
586
  8
0
  6
CONTINUOUS
 62
     8
 10
2.5720970326
 20
2.4871845943
 30
0.0
  0
VERTEX
  5
587
  8
0
  6
CONTINUOUS
 62
     8
 10
2.6121133616
 20
2.4962944211
 30
0.0
  0
VERTEX
  5
588
  8
0
  6
CONTINUOUS
 62
     8
 10
2.6529317333
 20
2.5041291303
 30
0.0
  0
VERTEX
  5
589
  8
0
  6
CONTINUOUS
 62
     8
 10
2.6944303295
 20
2.51066534
 30
0.0
  0
VERTEX
  5
58A
  8
0
  6
CONTINUOUS
 62
     8
 10
2.7364853022
 20
2.5158835437
 30
0.0
  0
VERTEX
  5
58B
  8
0
  6
CONTINUOUS
 62
     8
 10
2.7789711428
 20
2.5197681682
 30
0.0
  0
VERTEX
  5
58C
  8
0
  6
CONTINUOUS
 62
     8
 10
2.8217610568
 20
2.5223076202
 30
0.0
  0
VERTEX
  5
58D
  8
0
  6
CONTINUOUS
 62
     8
 10
2.8647273423
 20
2.523494321
 30
0.0
  0
VERTEX
  5
58E
  8
0
  6
CONTINUOUS
 62
     8
 10
2.907741771
 20
2.5233247291
 30
0.0
  0
VERTEX
  5
58F
  8
0
  6
CONTINUOUS
 62
     8
 10
2.950675971
 20
2.5217993505
 30
0.0
  0
VERTEX
  5
590
  8
0
  6
CONTINUOUS
 62
     8
 10
2.9934018097
 20
2.5189227375
 30
0.0
  0
VERTEX
  5
591
  8
0
  6
CONTINUOUS
 62
     8
 10
3.0357917765
 20
2.5147034752
 30
0.0
  0
VERTEX
  5
592
  8
0
  6
CONTINUOUS
 62
     8
 10
3.077719363
 20
2.5091541555
 30
0.0
  0
VERTEX
  5
593
  8
0
  6
CONTINUOUS
 62
     8
 10
3.1190594408
 20
2.5022913397
 30
0.0
  0
VERTEX
  5
594
  8
0
  6
CONTINUOUS
 62
     8
 10
3.159688635
 20
2.4941355091
 30
0.0
  0
VERTEX
  5
595
  8
0
  6
CONTINUOUS
 62
     8
 10
3.1994856919
 20
2.484711004
 30
0.0
  0
VERTEX
  5
596
  8
0
  6
CONTINUOUS
 62
     8
 10
3.2383318415
 20
2.4740459508
 30
0.0
  0
VERTEX
  5
597
  8
0
  6
CONTINUOUS
 62
     8
 10
3.2761111517
 20
2.4621721781
 30
0.0
  0
VERTEX
  5
598
  8
0
  6
CONTINUOUS
 62
     8
 10
3.3127108742
 20
2.4491251221
 30
0.0
  0
VERTEX
  5
599
  8
0
  6
CONTINUOUS
 62
     8
 10
3.348021781
 20
2.4349437202
 30
0.0
  0
VERTEX
  5
59A
  8
0
  6
CONTINUOUS
 62
     8
 10
3.3819384904
 20
2.4196702953
 30
0.0
  0
VERTEX
  5
59B
  8
0
  6
CONTINUOUS
 62
     8
 10
3.4143597817
 20
2.4033504294
 30
0.0
  0
VERTEX
  5
59C
  8
0
  6
CONTINUOUS
 62
     8
 10
3.445188897
 20
2.3860328273
 30
0.0
  0
VERTEX
  5
59D
  8
0
  6
CONTINUOUS
 62
     8
 10
3.4743338302
 20
2.3677691715
 30
0.0
  0
VERTEX
  5
59E
  8
0
  6
CONTINUOUS
 62
     8
 10
3.5017076012
 20
2.348613968
 30
0.0
  0
VERTEX
  5
59F
  8
0
  6
CONTINUOUS
 62
     8
 10
3.527228516
 20
2.3286243834
 30
0.0
  0
VERTEX
  5
5A0
  8
0
  6
CONTINUOUS
 62
     8
 10
3.5508204101
 20
2.3078600745
 30
0.0
  0
VERTEX
  5
5A1
  8
0
  6
CONTINUOUS
 62
     8
 10
3.572412876
 20
2.2863830102
 30
0.0
  0
VERTEX
  5
5A2
  8
0
  6
CONTINUOUS
 62
     8
 10
3.5919414735
 20
2.2642572865
 30
0.0
  0
VERTEX
  5
5A3
  8
0
  6
CONTINUOUS
 62
     8
 10
3.6093479213
 20
2.2415489352
 30
0.0
  0
VERTEX
  5
5A4
  8
0
  6
CONTINUOUS
 62
     8
 10
3.624580272
 20
2.218325727
 30
0.0
  0
VERTEX
  5
5A5
  8
0
  6
CONTINUOUS
 62
     8
 10
3.637593066
 20
2.194656969
 30
0.0
  0
VERTEX
  5
5A6
  8
0
  6
CONTINUOUS
 62
     8
 10
3.6483474682
 20
2.1706132981
 30
0.0
  0
VERTEX
  5
5A7
  8
0
  6
CONTINUOUS
 62
     8
 10
3.6568113832
 20
2.1462664701
 30
0.0
  0
VERTEX
  5
5A8
  8
0
  6
CONTINUOUS
 62
     8
 10
3.6629595514
 20
2.1216891456
 30
0.0
  0
VERTEX
  5
5A9
  8
0
  6
CONTINUOUS
 62
     8
 10
3.6656098236
 20
2.1062994951
 30
0.0
  0
SEQEND
  5
72D
  8
0
  6
CONTINUOUS
 62
     8
  0
ARC
  5
179
  8
0
  6
CONTINUOUS
 62
     8
 10
2.4990051818
 20
2.017059332
 30
0.0
 40
0.4123359521806749
 50
115.1016103828
 51
168.0814574189
  0
POLYLINE
  5
17A
  8
0
  6
CONTINUOUS
 62
     8
 66
     1
 10
0.0
 20
0.0
 30
0.0
 70
   128
  0
VERTEX
  5
5AA
  8
0
  6
CONTINUOUS
 62
     8
 10
2.324082014
 20
2.2516427653
 30
0.0
  0
VERTEX
  5
5AB
  8
0
  6
CONTINUOUS
 62
     8
 10
2.3553179893
 20
2.2687156649
 30
0.0
  0
VERTEX
  5
5AC
  8
0
  6
CONTINUOUS
 62
     8
 10
2.3881223856
 20
2.2847783671
 30
0.0
  0
VERTEX
  5
5AD
  8
0
  6
CONTINUOUS
 62
     8
 10
2.4223973016
 20
2.2997829345
 30
0.0
  0
VERTEX
  5
5AE
  8
0
  6
CONTINUOUS
 62
     8
 10
2.4580404475
 20
2.3136845875
 30
0.0
  0
VERTEX
  5
5AF
  8
0
  6
CONTINUOUS
 62
     8
 10
2.4949454502
 20
2.3264418382
 30
0.0
  0
VERTEX
  5
5B0
  8
0
  6
CONTINUOUS
 62
     8
 10
2.5330021707
 20
2.3380166139
 30
0.0
  0
VERTEX
  5
5B1
  8
0
  6
CONTINUOUS
 62
     8
 10
2.5720970326
 20
2.348374371
 30
0.0
  0
VERTEX
  5
5B2
  8
0
  6
CONTINUOUS
 62
     8
 10
2.6121133616
 20
2.3574841978
 30
0.0
  0
VERTEX
  5
5B3
  8
0
  6
CONTINUOUS
 62
     8
 10
2.6529317333
 20
2.365318907
 30
0.0
  0
VERTEX
  5
5B4
  8
0
  6
CONTINUOUS
 62
     8
 10
2.6944303295
 20
2.3718551167
 30
0.0
  0
VERTEX
  5
5B5
  8
0
  6
CONTINUOUS
 62
     8
 10
2.7364853022
 20
2.3770733204
 30
0.0
  0
VERTEX
  5
5B6
  8
0
  6
CONTINUOUS
 62
     8
 10
2.7789711428
 20
2.3809579449
 30
0.0
  0
VERTEX
  5
5B7
  8
0
  6
CONTINUOUS
 62
     8
 10
2.8217610568
 20
2.3834973969
 30
0.0
  0
VERTEX
  5
5B8
  8
0
  6
CONTINUOUS
 62
     8
 10
2.8647273423
 20
2.3846840977
 30
0.0
  0
VERTEX
  5
5B9
  8
0
  6
CONTINUOUS
 62
     8
 10
2.907741771
 20
2.3845145058
 30
0.0
  0
VERTEX
  5
5BA
  8
0
  6
CONTINUOUS
 62
     8
 10
2.950675971
 20
2.3829891272
 30
0.0
  0
VERTEX
  5
5BB
  8
0
  6
CONTINUOUS
 62
     8
 10
2.9934018097
 20
2.3801125142
 30
0.0
  0
VERTEX
  5
5BC
  8
0
  6
CONTINUOUS
 62
     8
 10
3.0357917765
 20
2.3758932519
 30
0.0
  0
VERTEX
  5
5BD
  8
0
  6
CONTINUOUS
 62
     8
 10
3.077719363
 20
2.3703439322
 30
0.0
  0
VERTEX
  5
5BE
  8
0
  6
CONTINUOUS
 62
     8
 10
3.1190594408
 20
2.3634811164
 30
0.0
  0
VERTEX
  5
5BF
  8
0
  6
CONTINUOUS
 62
     8
 10
3.159688635
 20
2.3553252858
 30
0.0
  0
VERTEX
  5
5C0
  8
0
  6
CONTINUOUS
 62
     8
 10
3.1994856919
 20
2.3459007807
 30
0.0
  0
VERTEX
  5
5C1
  8
0
  6
CONTINUOUS
 62
     8
 10
3.2383318415
 20
2.3352357275
 30
0.0
  0
VERTEX
  5
5C2
  8
0
  6
CONTINUOUS
 62
     8
 10
3.2761111517
 20
2.3233619548
 30
0.0
  0
VERTEX
  5
5C3
  8
0
  6
CONTINUOUS
 62
     8
 10
3.3127108742
 20
2.3103148988
 30
0.0
  0
VERTEX
  5
5C4
  8
0
  6
CONTINUOUS
 62
     8
 10
3.348021781
 20
2.2961334969
 30
0.0
  0
VERTEX
  5
5C5
  8
0
  6
CONTINUOUS
 62
     8
 10
3.3819384904
 20
2.280860072
 30
0.0
  0
VERTEX
  5
5C6
  8
0
  6
CONTINUOUS
 62
     8
 10
3.4143597817
 20
2.2645402061
 30
0.0
  0
VERTEX
  5
5C7
  8
0
  6
CONTINUOUS
 62
     8
 10
3.445188897
 20
2.247222604
 30
0.0
  0
VERTEX
  5
5C8
  8
0
  6
CONTINUOUS
 62
     8
 10
3.4743338302
 20
2.2289589482
 30
0.0
  0
VERTEX
  5
5C9
  8
0
  6
CONTINUOUS
 62
     8
 10
3.5017076012
 20
2.2098037447
 30
0.0
  0
VERTEX
  5
5CA
  8
0
  6
CONTINUOUS
 62
     8
 10
3.527228516
 20
2.1898141601
 30
0.0
  0
VERTEX
  5
5CB
  8
0
  6
CONTINUOUS
 62
     8
 10
3.5508204101
 20
2.1690498512
 30
0.0
  0
VERTEX
  5
5CC
  8
0
  6
CONTINUOUS
 62
     8
 10
3.572412876
 20
2.1475727869
 30
0.0
  0
VERTEX
  5
5CD
  8
0
  6
CONTINUOUS
 62
     8
 10
3.5919414735
 20
2.1254470632
 30
0.0
  0
VERTEX
  5
5CE
  8
0
  6
CONTINUOUS
 62
     8
 10
3.6093479213
 20
2.1027387119
 30
0.0
  0
VERTEX
  5
5CF
  8
0
  6
CONTINUOUS
 62
     8
 10
3.624580272
 20
2.0795155037
 30
0.0
  0
VERTEX
  5
5D0
  8
0
  6
CONTINUOUS
 62
     8
 10
3.637593066
 20
2.0558467457
 30
0.0
  0
VERTEX
  5
5D1
  8
0
  6
CONTINUOUS
 62
     8
 10
3.6483474682
 20
2.0318030748
 30
0.0
  0
VERTEX
  5
5D2
  8
0
  6
CONTINUOUS
 62
     8
 10
3.6568113832
 20
2.0074562469
 30
0.0
  0
VERTEX
  5
5D3
  8
0
  6
CONTINUOUS
 62
     8
 10
3.6591164312
 20
1.9992959283
 30
0.0
  0
SEQEND
  5
72E
  8
0
  6
CONTINUOUS
 62
     8
  0
ARC
  5
17B
  8
0
  6
CONTINUOUS
 62
     8
 10
2.5193485076
 20
1.8567446898
 30
0.0
 40
0.4405377323038699
 50
116.3111591957
 51
160.955765622
  0
POLYLINE
  5
17C
  8
0
  6
CONTINUOUS
 62
     8
 66
     1
 10
0.0
 20
0.0
 30
0.0
 70
   128
  0
VERTEX
  5
5D4
  8
0
  6
CONTINUOUS
 62
     8
 10
4.0413981162
 20
1.7612977963
 30
0.0
  0
VERTEX
  5
5D5
  8
0
  6
CONTINUOUS
 62
     8
 10
4.0415667078
 20
1.7574531197
 30
0.0
  0
VERTEX
  5
5D6
  8
0
  6
CONTINUOUS
 62
     8
 10
4.0415667078
 20
1.7273757457
 30
0.0
  0
VERTEX
  5
5D7
  8
0
  6
CONTINUOUS
 62
     8
 10
4.039229197
 20
1.6973286575
 30
0.0
  0
VERTEX
  5
5D8
  8
0
  6
CONTINUOUS
 62
     8
 10
4.0345588828
 20
1.6673723661
 30
0.0
  0
VERTEX
  5
5D9
  8
0
  6
CONTINUOUS
 62
     8
 10
4.0275651705
 20
1.6375671995
 30
0.0
  0
VERTEX
  5
5DA
  8
0
  6
CONTINUOUS
 62
     8
 10
4.0182621446
 20
1.6079731812
 30
0.0
  0
VERTEX
  5
5DB
  8
0
  6
CONTINUOUS
 62
     8
 10
4.0066685402
 20
1.5786499097
 30
0.0
  0
VERTEX
  5
5DC
  8
0
  6
CONTINUOUS
 62
     8
 10
3.9928077052
 20
1.5496564382
 30
0.0
  0
VERTEX
  5
5DD
  8
0
  6
CONTINUOUS
 62
     8
 10
3.9767075536
 20
1.5210511556
 30
0.0
  0
VERTEX
  5
5DE
  8
0
  6
CONTINUOUS
 62
     8
 10
3.9584005087
 20
1.4928916692
 30
0.0
  0
VERTEX
  5
5DF
  8
0
  6
CONTINUOUS
 62
     8
 10
3.9379234387
 20
1.4652346884
 30
0.0
  0
VERTEX
  5
5E0
  8
0
  6
CONTINUOUS
 62
     8
 10
3.9153175817
 20
1.4381359107
 30
0.0
  0
VERTEX
  5
5E1
  8
0
  6
CONTINUOUS
 62
     8
 10
3.8906284627
 20
1.4116499095
 30
0.0
  0
VERTEX
  5
5E2
  8
0
  6
CONTINUOUS
 62
     8
 10
3.8639058024
 20
1.3858300241
 30
0.0
  0
VERTEX
  5
5E3
  8
0
  6
CONTINUOUS
 62
     8
 10
3.8352034167
 20
1.3607282521
 30
0.0
  0
VERTEX
  5
5E4
  8
0
  6
CONTINUOUS
 62
     8
 10
3.8045791083
 20
1.3363951454
 30
0.0
  0
VERTEX
  5
5E5
  8
0
  6
CONTINUOUS
 62
     8
 10
3.7720945506
 20
1.3128797074
 30
0.0
  0
VERTEX
  5
5E6
  8
0
  6
CONTINUOUS
 62
     8
 10
3.7378151632
 20
1.2902292953
 30
0.0
  0
VERTEX
  5
5E7
  8
0
  6
CONTINUOUS
 62
     8
 10
3.70180998
 20
1.2684895238
 30
0.0
  0
VERTEX
  5
5E8
  8
0
  6
CONTINUOUS
 62
     8
 10
3.6641515109
 20
1.247704174
 30
0.0
  0
VERTEX
  5
5E9
  8
0
  6
CONTINUOUS
 62
     8
 10
3.6249155949
 20
1.2279151048
 30
0.0
  0
VERTEX
  5
5EA
  8
0
  6
CONTINUOUS
 62
     8
 10
3.584181248
 20
1.2091621688
 30
0.0
  0
VERTEX
  5
5EB
  8
0
  6
CONTINUOUS
 62
     8
 10
3.5420305036
 20
1.1914831319
 30
0.0
  0
VERTEX
  5
5EC
  8
0
  6
CONTINUOUS
 62
     8
 10
3.4985482479
 20
1.1749135973
 30
0.0
  0
VERTEX
  5
5ED
  8
0
  6
CONTINUOUS
 62
     8
 10
3.4538220483
 20
1.1594869339
 30
0.0
  0
VERTEX
  5
5EE
  8
0
  6
CONTINUOUS
 62
     8
 10
3.4079419773
 20
1.1452342089
 30
0.0
  0
VERTEX
  5
5EF
  8
0
  6
CONTINUOUS
 62
     8
 10
3.3610004313
 20
1.1321841254
 30
0.0
  0
VERTEX
  5
5F0
  8
0
  6
CONTINUOUS
 62
     8
 10
3.3130919445
 20
1.1203629645
 30
0.0
  0
VERTEX
  5
5F1
  8
0
  6
CONTINUOUS
 62
     8
 10
3.264312998
 20
1.1097945325
 30
0.0
  0
VERTEX
  5
5F2
  8
0
  6
CONTINUOUS
 62
     8
 10
3.2147618262
 20
1.1005001128
 30
0.0
  0
VERTEX
  5
5F3
  8
0
  6
CONTINUOUS
 62
     8
 10
3.1645382186
 20
1.092498423
 30
0.0
  0
VERTEX
  5
5F4
  8
0
  6
CONTINUOUS
 62
     8
 10
3.1137433188
 20
1.0858055777
 30
0.0
  0
VERTEX
  5
5F5
  8
0
  6
CONTINUOUS
 62
     8
 10
3.062479421
 20
1.0804350552
 30
0.0
  0
VERTEX
  5
5F6
  8
0
  6
CONTINUOUS
 62
     8
 10
3.0108497638
 20
1.076397671
 30
0.0
  0
VERTEX
  5
5F7
  8
0
  6
CONTINUOUS
 62
     8
 10
2.9589583226
 20
1.073701556
 30
0.0
  0
VERTEX
  5
5F8
  8
0
  6
CONTINUOUS
 62
     8
 10
2.9069095997
 20
1.0723521397
 30
0.0
  0
VERTEX
  5
5F9
  8
0
  6
CONTINUOUS
 62
     8
 10
2.8548084144
 20
1.0723521397
 30
0.0
  0
VERTEX
  5
5FA
  8
0
  6
CONTINUOUS
 62
     8
 10
2.8027596916
 20
1.073701556
 30
0.0
  0
VERTEX
  5
5FB
  8
0
  6
CONTINUOUS
 62
     8
 10
2.7508682503
 20
1.076397671
 30
0.0
  0
VERTEX
  5
5FC
  8
0
  6
CONTINUOUS
 62
     8
 10
2.6992385932
 20
1.0804350552
 30
0.0
  0
VERTEX
  5
5FD
  8
0
  6
CONTINUOUS
 62
     8
 10
2.6479746954
 20
1.0858055777
 30
0.0
  0
VERTEX
  5
5FE
  8
0
  6
CONTINUOUS
 62
     8
 10
2.5971797956
 20
1.092498423
 30
0.0
  0
VERTEX
  5
5FF
  8
0
  6
CONTINUOUS
 62
     8
 10
2.5469561879
 20
1.1005001128
 30
0.0
  0
VERTEX
  5
600
  8
0
  6
CONTINUOUS
 62
     8
 10
2.4974050161
 20
1.1097945325
 30
0.0
  0
VERTEX
  5
601
  8
0
  6
CONTINUOUS
 62
     8
 10
2.4486260697
 20
1.1203629645
 30
0.0
  0
VERTEX
  5
602
  8
0
  6
CONTINUOUS
 62
     8
 10
2.4007175828
 20
1.1321841254
 30
0.0
  0
VERTEX
  5
603
  8
0
  6
CONTINUOUS
 62
     8
 10
2.3537760369
 20
1.1452342089
 30
0.0
  0
VERTEX
  5
604
  8
0
  6
CONTINUOUS
 62
     8
 10
2.3078959659
 20
1.1594869339
 30
0.0
  0
VERTEX
  5
605
  8
0
  6
CONTINUOUS
 62
     8
 10
2.2631697662
 20
1.1749135973
 30
0.0
  0
VERTEX
  5
606
  8
0
  6
CONTINUOUS
 62
     8
 10
2.2196875105
 20
1.1914831319
 30
0.0
  0
VERTEX
  5
607
  8
0
  6
CONTINUOUS
 62
     8
 10
2.1775367662
 20
1.2091621688
 30
0.0
  0
VERTEX
  5
608
  8
0
  6
CONTINUOUS
 62
     8
 10
2.1368024192
 20
1.2279151048
 30
0.0
  0
VERTEX
  5
609
  8
0
  6
CONTINUOUS
 62
     8
 10
2.0975665033
 20
1.247704174
 30
0.0
  0
VERTEX
  5
60A
  8
0
  6
CONTINUOUS
 62
     8
 10
2.0599080341
 20
1.2684895238
 30
0.0
  0
VERTEX
  5
60B
  8
0
  6
CONTINUOUS
 62
     8
 10
2.023902851
 20
1.2902292953
 30
0.0
  0
VERTEX
  5
60C
  8
0
  6
CONTINUOUS
 62
     8
 10
1.9896234635
 20
1.3128797074
 30
0.0
  0
VERTEX
  5
60D
  8
0
  6
CONTINUOUS
 62
     8
 10
1.9571389058
 20
1.3363951454
 30
0.0
  0
VERTEX
  5
60E
  8
0
  6
CONTINUOUS
 62
     8
 10
1.9265145975
 20
1.3607282521
 30
0.0
  0
VERTEX
  5
60F
  8
0
  6
CONTINUOUS
 62
     8
 10
1.8978122118
 20
1.3858300241
 30
0.0
  0
VERTEX
  5
610
  8
0
  6
CONTINUOUS
 62
     8
 10
1.8710895515
 20
1.4116499095
 30
0.0
  0
VERTEX
  5
611
  8
0
  6
CONTINUOUS
 62
     8
 10
1.8464004325
 20
1.4381359107
 30
0.0
  0
VERTEX
  5
612
  8
0
  6
CONTINUOUS
 62
     8
 10
1.8237945754
 20
1.4652346884
 30
0.0
  0
VERTEX
  5
613
  8
0
  6
CONTINUOUS
 62
     8
 10
1.8033175054
 20
1.4928916692
 30
0.0
  0
VERTEX
  5
614
  8
0
  6
CONTINUOUS
 62
     8
 10
1.7850104606
 20
1.5210511556
 30
0.0
  0
VERTEX
  5
615
  8
0
  6
CONTINUOUS
 62
     8
 10
1.7689103089
 20
1.5496564382
 30
0.0
  0
VERTEX
  5
616
  8
0
  6
CONTINUOUS
 62
     8
 10
1.7550494739
 20
1.5786499097
 30
0.0
  0
VERTEX
  5
617
  8
0
  6
CONTINUOUS
 62
     8
 10
1.7434558695
 20
1.6079731812
 30
0.0
  0
VERTEX
  5
618
  8
0
  6
CONTINUOUS
 62
     8
 10
1.7341528436
 20
1.6375671995
 30
0.0
  0
VERTEX
  5
619
  8
0
  6
CONTINUOUS
 62
     8
 10
1.7271591314
 20
1.6673723661
 30
0.0
  0
VERTEX
  5
61A
  8
0
  6
CONTINUOUS
 62
     8
 10
1.7224888171
 20
1.6973286575
 30
0.0
  0
VERTEX
  5
61B
  8
0
  6
CONTINUOUS
 62
     8
 10
1.7201513063
 20
1.7273757457
 30
0.0
  0
VERTEX
  5
61C
  8
0
  6
CONTINUOUS
 62
     8
 10
1.7201513063
 20
1.7574531197
 30
0.0
  0
VERTEX
  5
61D
  8
0
  6
CONTINUOUS
 62
     8
 10
1.7203198979
 20
1.7612977963
 30
0.0
  0
SEQEND
  5
72F
  8
0
  6
CONTINUOUS
 62
     8
  0
POLYLINE
  5
17D
  8
0
  6
CONTINUOUS
 62
     8
 66
     1
 10
0.0
 20
0.0
 30
0.0
 70
   128
  0
VERTEX
  5
61E
  8
0
  6
CONTINUOUS
 62
     8
 10
4.0583469155
 20
1.6735433761
 30
0.0
  0
VERTEX
  5
61F
  8
0
  6
CONTINUOUS
 62
     8
 10
4.0565680439
 20
1.6616202969
 30
0.0
  0
VERTEX
  5
620
  8
0
  6
CONTINUOUS
 62
     8
 10
4.0504265514
 20
1.6314493449
 30
0.0
  0
VERTEX
  5
621
  8
0
  6
CONTINUOUS
 62
     8
 10
4.0419629908
 20
1.6014662804
 30
0.0
  0
VERTEX
  5
622
  8
0
  6
CONTINUOUS
 62
     8
 10
4.0311941658
 20
1.5717306321
 30
0.0
  0
VERTEX
  5
623
  8
0
  6
CONTINUOUS
 62
     8
 10
4.0181414567
 20
1.5423014374
 30
0.0
  0
VERTEX
  5
624
  8
0
  6
CONTINUOUS
 62
     8
 10
4.0028307786
 20
1.5132371251
 30
0.0
  0
VERTEX
  5
625
  8
0
  6
CONTINUOUS
 62
     8
 10
3.9852925295
 20
1.4845953999
 30
0.0
  0
VERTEX
  5
626
  8
0
  6
CONTINUOUS
 62
     8
 10
3.9655615298
 20
1.4564331272
 30
0.0
  0
VERTEX
  5
627
  8
0
  6
CONTINUOUS
 62
     8
 10
3.9436769536
 20
1.4288062206
 30
0.0
  0
VERTEX
  5
628
  8
0
  6
CONTINUOUS
 62
     8
 10
3.9196822508
 20
1.4017695307
 30
0.0
  0
VERTEX
  5
629
  8
0
  6
CONTINUOUS
 62
     8
 10
3.8936250606
 20
1.3753767364
 30
0.0
  0
VERTEX
  5
62A
  8
0
  6
CONTINUOUS
 62
     8
 10
3.8655571171
 20
1.3496802382
 30
0.0
  0
VERTEX
  5
62B
  8
0
  6
CONTINUOUS
 62
     8
 10
3.8355341467
 20
1.324731054
 30
0.0
  0
VERTEX
  5
62C
  8
0
  6
CONTINUOUS
 62
     8
 10
3.8036157572
 20
1.3005787182
 30
0.0
  0
VERTEX
  5
62D
  8
0
  6
CONTINUOUS
 62
     8
 10
3.7698653195
 20
1.277271183
 30
0.0
  0
VERTEX
  5
62E
  8
0
  6
CONTINUOUS
 62
     8
 10
3.7343498421
 20
1.2548547233
 30
0.0
  0
VERTEX
  5
62F
  8
0
  6
CONTINUOUS
 62
     8
 10
3.6971398377
 20
1.233373845
 30
0.0
  0
VERTEX
  5
630
  8
0
  6
CONTINUOUS
 62
     8
 10
3.6583091832
 20
1.2128711963
 30
0.0
  0
VERTEX
  5
631
  8
0
  6
CONTINUOUS
 62
     8
 10
3.6179349734
 20
1.1933874834
 30
0.0
  0
VERTEX
  5
632
  8
0
  6
CONTINUOUS
 62
     8
 10
3.5760973675
 20
1.1749613893
 30
0.0
  0
VERTEX
  5
633
  8
0
  6
CONTINUOUS
 62
     8
 10
3.5328794301
 20
1.1576294974
 30
0.0
  0
VERTEX
  5
634
  8
0
  6
CONTINUOUS
 62
     8
 10
3.4883669666
 20
1.1414262185
 30
0.0
  0
VERTEX
  5
635
  8
0
  6
CONTINUOUS
 62
     8
 10
3.4426483522
 20
1.1263837228
 30
0.0
  0
VERTEX
  5
636
  8
0
  6
CONTINUOUS
 62
     8
 10
3.3958143571
 20
1.1125318757
 30
0.0
  0
VERTEX
  5
637
  8
0
  6
CONTINUOUS
 62
     8
 10
3.3479579659
 20
1.0998981788
 30
0.0
  0
VERTEX
  5
638
  8
0
  6
CONTINUOUS
 62
     8
 10
3.2991741928
 20
1.0885077152
 30
0.0
  0
VERTEX
  5
639
  8
0
  6
CONTINUOUS
 62
     8
 10
3.2495598937
 20
1.0783830994
 30
0.0
  0
VERTEX
  5
63A
  8
0
  6
CONTINUOUS
 62
     8
 10
3.1992135731
 20
1.0695444331
 30
0.0
  0
VERTEX
  5
63B
  8
0
  6
CONTINUOUS
 62
     8
 10
3.148235189
 20
1.0620092645
 30
0.0
  0
VERTEX
  5
63C
  8
0
  6
CONTINUOUS
 62
     8
 10
3.0967259543
 20
1.0557925542
 30
0.0
  0
VERTEX
  5
63D
  8
0
  6
CONTINUOUS
 62
     8
 10
3.0447881356
 20
1.0509066446
 30
0.0
  0
VERTEX
  5
63E
  8
0
  6
CONTINUOUS
 62
     8
 10
2.9925248509
 20
1.0473612365
 30
0.0
  0
VERTEX
  5
63F
  8
0
  6
CONTINUOUS
 62
     8
 10
2.940039864
 20
1.0451633688
 30
0.0
  0
VERTEX
  5
640
  8
0
  6
CONTINUOUS
 62
     8
 10
2.887437379
 20
1.0443174052
 30
0.0
  0
VERTEX
  5
641
  8
0
  6
CONTINUOUS
 62
     8
 10
2.8348218332
 20
1.0448250254
 30
0.0
  0
VERTEX
  5
642
  8
0
  6
CONTINUOUS
 62
     8
 10
2.7822976899
 20
1.0466852214
 30
0.0
  0
VERTEX
  5
643
  8
0
  6
CONTINUOUS
 62
     8
 10
2.7299692311
 20
1.0498943
 30
0.0
  0
VERTEX
  5
644
  8
0
  6
CONTINUOUS
 62
     8
 10
2.6779403499
 20
1.0544458899
 30
0.0
  0
VERTEX
  5
645
  8
0
  6
CONTINUOUS
 62
     8
 10
2.6263143449
 20
1.0603309544
 30
0.0
  0
VERTEX
  5
646
  8
0
  6
CONTINUOUS
 62
     8
 10
2.5751937148
 20
1.0675378092
 30
0.0
  0
VERTEX
  5
647
  8
0
  6
CONTINUOUS
 62
     8
 10
2.5246799549
 20
1.0760521457
 30
0.0
  0
VERTEX
  5
648
  8
0
  6
CONTINUOUS
 62
     8
 10
2.4748733554
 20
1.0858570595
 30
0.0
  0
VERTEX
  5
649
  8
0
  6
CONTINUOUS
 62
     8
 10
2.4258728029
 20
1.0969330839
 30
0.0
  0
VERTEX
  5
64A
  8
0
  6
CONTINUOUS
 62
     8
 10
2.3777755834
 20
1.1092582284
 30
0.0
  0
VERTEX
  5
64B
  8
0
  6
CONTINUOUS
 62
     8
 10
2.3306771895
 20
1.1228080226
 30
0.0
  0
VERTEX
  5
64C
  8
0
  6
CONTINUOUS
 62
     8
 10
2.2846711307
 20
1.1375555647
 30
0.0
  0
VERTEX
  5
64D
  8
0
  6
CONTINUOUS
 62
     8
 10
2.2398487476
 20
1.1534715748
 30
0.0
  0
VERTEX
  5
64E
  8
0
  6
CONTINUOUS
 62
     8
 10
2.1962990312
 20
1.170524453
 30
0.0
  0
VERTEX
  5
64F
  8
0
  6
CONTINUOUS
 62
     8
 10
2.1541084451
 20
1.1886803426
 30
0.0
  0
VERTEX
  5
650
  8
0
  6
CONTINUOUS
 62
     8
 10
2.1133607551
 20
1.2079031966
 30
0.0
  0
VERTEX
  5
651
  8
0
  6
CONTINUOUS
 62
     8
 10
2.0741368618
 20
1.2281548499
 30
0.0
  0
VERTEX
  5
652
  8
0
  6
CONTINUOUS
 62
     8
 10
2.0365146406
 20
1.2493950946
 30
0.0
  0
VERTEX
  5
653
  8
0
  6
CONTINUOUS
 62
     8
 10
2.0005687871
 20
1.2715817603
 30
0.0
  0
VERTEX
  5
654
  8
0
  6
CONTINUOUS
 62
     8
 10
1.9663706682
 20
1.2946707973
 30
0.0
  0
VERTEX
  5
655
  8
0
  6
CONTINUOUS
 62
     8
 10
1.9339881814
 20
1.3186163646
 30
0.0
  0
VERTEX
  5
656
  8
0
  6
CONTINUOUS
 62
     8
 10
1.9034856188
 20
1.3433709204
 30
0.0
  0
VERTEX
  5
657
  8
0
  6
CONTINUOUS
 62
     8
 10
1.8749235407
 20
1.3688853168
 30
0.0
  0
VERTEX
  5
658
  8
0
  6
CONTINUOUS
 62
     8
 10
1.8483586544
 20
1.3951088974
 30
0.0
  0
VERTEX
  5
659
  8
0
  6
CONTINUOUS
 62
     8
 10
1.8238437019
 20
1.4219895976
 30
0.0
  0
VERTEX
  5
65A
  8
0
  6
CONTINUOUS
 62
     8
 10
1.8014273555
 20
1.4494740484
 30
0.0
  0
VERTEX
  5
65B
  8
0
  6
CONTINUOUS
 62
     8
 10
1.7811541207
 20
1.4775076818
 30
0.0
  0
VERTEX
  5
65C
  8
0
  6
CONTINUOUS
 62
     8
 10
1.7630642481
 20
1.5060348398
 30
0.0
  0
VERTEX
  5
65D
  8
0
  6
CONTINUOUS
 62
     8
 10
1.7471936536
 20
1.5349988842
 30
0.0
  0
VERTEX
  5
65E
  8
0
  6
CONTINUOUS
 62
     8
 10
1.7335738467
 20
1.5643423097
 30
0.0
  0
VERTEX
  5
65F
  8
0
  6
CONTINUOUS
 62
     8
 10
1.7222318683
 20
1.5940068576
 30
0.0
  0
VERTEX
  5
660
  8
0
  6
CONTINUOUS
 62
     8
 10
1.7131902368
 20
1.6239336317
 30
0.0
  0
VERTEX
  5
661
  8
0
  6
CONTINUOUS
 62
     8
 10
1.7064669036
 20
1.6540632151
 30
0.0
  0
VERTEX
  5
662
  8
0
  6
CONTINUOUS
 62
     8
 10
1.7038940726
 20
1.6697735191
 30
0.0
  0
SEQEND
  5
730
  8
0
  6
CONTINUOUS
 62
     8
  0
POLYLINE
  5
17E
  8
0
  6
CONTINUOUS
 62
     8
 66
     1
 10
0.0
 20
0.0
 30
0.0
 70
   128
  0
VERTEX
  5
663
  8
0
  6
CONTINUOUS
 62
     8
 10
4.0583469155
 20
1.5347331528
 30
0.0
  0
VERTEX
  5
664
  8
0
  6
CONTINUOUS
 62
     8
 10
4.0565680439
 20
1.5228100737
 30
0.0
  0
VERTEX
  5
665
  8
0
  6
CONTINUOUS
 62
     8
 10
4.0504265514
 20
1.4926391216
 30
0.0
  0
VERTEX
  5
666
  8
0
  6
CONTINUOUS
 62
     8
 10
4.0419629908
 20
1.4626560571
 30
0.0
  0
VERTEX
  5
667
  8
0
  6
CONTINUOUS
 62
     8
 10
4.0311941658
 20
1.4329204088
 30
0.0
  0
VERTEX
  5
668
  8
0
  6
CONTINUOUS
 62
     8
 10
4.0181414567
 20
1.4034912141
 30
0.0
  0
VERTEX
  5
669
  8
0
  6
CONTINUOUS
 62
     8
 10
4.0028307786
 20
1.3744269019
 30
0.0
  0
VERTEX
  5
66A
  8
0
  6
CONTINUOUS
 62
     8
 10
3.9852925295
 20
1.3457851766
 30
0.0
  0
VERTEX
  5
66B
  8
0
  6
CONTINUOUS
 62
     8
 10
3.9655615298
 20
1.3176229039
 30
0.0
  0
VERTEX
  5
66C
  8
0
  6
CONTINUOUS
 62
     8
 10
3.9436769536
 20
1.2899959973
 30
0.0
  0
VERTEX
  5
66D
  8
0
  6
CONTINUOUS
 62
     8
 10
3.9196822508
 20
1.2629593074
 30
0.0
  0
VERTEX
  5
66E
  8
0
  6
CONTINUOUS
 62
     8
 10
3.8936250606
 20
1.2365665131
 30
0.0
  0
VERTEX
  5
66F
  8
0
  6
CONTINUOUS
 62
     8
 10
3.8655571171
 20
1.2108700149
 30
0.0
  0
VERTEX
  5
670
  8
0
  6
CONTINUOUS
 62
     8
 10
3.8355341467
 20
1.1859208307
 30
0.0
  0
VERTEX
  5
671
  8
0
  6
CONTINUOUS
 62
     8
 10
3.8036157572
 20
1.1617684949
 30
0.0
  0
VERTEX
  5
672
  8
0
  6
CONTINUOUS
 62
     8
 10
3.7698653195
 20
1.1384609597
 30
0.0
  0
VERTEX
  5
673
  8
0
  6
CONTINUOUS
 62
     8
 10
3.7343498421
 20
1.1160445
 30
0.0
  0
VERTEX
  5
674
  8
0
  6
CONTINUOUS
 62
     8
 10
3.6971398377
 20
1.0945636217
 30
0.0
  0
VERTEX
  5
675
  8
0
  6
CONTINUOUS
 62
     8
 10
3.6583091832
 20
1.074060973
 30
0.0
  0
VERTEX
  5
676
  8
0
  6
CONTINUOUS
 62
     8
 10
3.6179349734
 20
1.0545772601
 30
0.0
  0
VERTEX
  5
677
  8
0
  6
CONTINUOUS
 62
     8
 10
3.5760973675
 20
1.036151166
 30
0.0
  0
VERTEX
  5
678
  8
0
  6
CONTINUOUS
 62
     8
 10
3.5328794301
 20
1.0188192741
 30
0.0
  0
VERTEX
  5
679
  8
0
  6
CONTINUOUS
 62
     8
 10
3.4883669666
 20
1.0026159953
 30
0.0
  0
VERTEX
  5
67A
  8
0
  6
CONTINUOUS
 62
     8
 10
3.4426483522
 20
0.9875734995
 30
0.0
  0
VERTEX
  5
67B
  8
0
  6
CONTINUOUS
 62
     8
 10
3.3958143571
 20
0.9737216524
 30
0.0
  0
VERTEX
  5
67C
  8
0
  6
CONTINUOUS
 62
     8
 10
3.3479579659
 20
0.9610879555
 30
0.0
  0
VERTEX
  5
67D
  8
0
  6
CONTINUOUS
 62
     8
 10
3.2991741928
 20
0.9496974919
 30
0.0
  0
VERTEX
  5
67E
  8
0
  6
CONTINUOUS
 62
     8
 10
3.2495598937
 20
0.9395728761
 30
0.0
  0
VERTEX
  5
67F
  8
0
  6
CONTINUOUS
 62
     8
 10
3.1992135731
 20
0.9307342098
 30
0.0
  0
VERTEX
  5
680
  8
0
  6
CONTINUOUS
 62
     8
 10
3.148235189
 20
0.9231990413
 30
0.0
  0
VERTEX
  5
681
  8
0
  6
CONTINUOUS
 62
     8
 10
3.0967259543
 20
0.9169823309
 30
0.0
  0
VERTEX
  5
682
  8
0
  6
CONTINUOUS
 62
     8
 10
3.0447881356
 20
0.9120964213
 30
0.0
  0
VERTEX
  5
683
  8
0
  6
CONTINUOUS
 62
     8
 10
2.9925248509
 20
0.9085510132
 30
0.0
  0
VERTEX
  5
684
  8
0
  6
CONTINUOUS
 62
     8
 10
2.940039864
 20
0.9063531455
 30
0.0
  0
VERTEX
  5
685
  8
0
  6
CONTINUOUS
 62
     8
 10
2.887437379
 20
0.9055071819
 30
0.0
  0
VERTEX
  5
686
  8
0
  6
CONTINUOUS
 62
     8
 10
2.8348218332
 20
0.9060148021
 30
0.0
  0
VERTEX
  5
687
  8
0
  6
CONTINUOUS
 62
     8
 10
2.7822976899
 20
0.9078749981
 30
0.0
  0
VERTEX
  5
688
  8
0
  6
CONTINUOUS
 62
     8
 10
2.7299692311
 20
0.9110840767
 30
0.0
  0
VERTEX
  5
689
  8
0
  6
CONTINUOUS
 62
     8
 10
2.6779403499
 20
0.9156356667
 30
0.0
  0
VERTEX
  5
68A
  8
0
  6
CONTINUOUS
 62
     8
 10
2.6263143449
 20
0.9215207311
 30
0.0
  0
VERTEX
  5
68B
  8
0
  6
CONTINUOUS
 62
     8
 10
2.5751937148
 20
0.9287275859
 30
0.0
  0
VERTEX
  5
68C
  8
0
  6
CONTINUOUS
 62
     8
 10
2.5246799549
 20
0.9372419224
 30
0.0
  0
VERTEX
  5
68D
  8
0
  6
CONTINUOUS
 62
     8
 10
2.4748733554
 20
0.9470468362
 30
0.0
  0
VERTEX
  5
68E
  8
0
  6
CONTINUOUS
 62
     8
 10
2.4258728029
 20
0.9581228606
 30
0.0
  0
VERTEX
  5
68F
  8
0
  6
CONTINUOUS
 62
     8
 10
2.3777755834
 20
0.9704480051
 30
0.0
  0
VERTEX
  5
690
  8
0
  6
CONTINUOUS
 62
     8
 10
2.3306771895
 20
0.9839977993
 30
0.0
  0
VERTEX
  5
691
  8
0
  6
CONTINUOUS
 62
     8
 10
2.2846711307
 20
0.9987453414
 30
0.0
  0
VERTEX
  5
692
  8
0
  6
CONTINUOUS
 62
     8
 10
2.2398487476
 20
1.0146613515
 30
0.0
  0
VERTEX
  5
693
  8
0
  6
CONTINUOUS
 62
     8
 10
2.1962990312
 20
1.0317142297
 30
0.0
  0
VERTEX
  5
694
  8
0
  6
CONTINUOUS
 62
     8
 10
2.1541084451
 20
1.0498701193
 30
0.0
  0
VERTEX
  5
695
  8
0
  6
CONTINUOUS
 62
     8
 10
2.1133607551
 20
1.0690929733
 30
0.0
  0
VERTEX
  5
696
  8
0
  6
CONTINUOUS
 62
     8
 10
2.0741368618
 20
1.0893446266
 30
0.0
  0
VERTEX
  5
697
  8
0
  6
CONTINUOUS
 62
     8
 10
2.0365146406
 20
1.1105848713
 30
0.0
  0
VERTEX
  5
698
  8
0
  6
CONTINUOUS
 62
     8
 10
2.0005687871
 20
1.132771537
 30
0.0
  0
VERTEX
  5
699
  8
0
  6
CONTINUOUS
 62
     8
 10
1.9663706682
 20
1.1558605741
 30
0.0
  0
VERTEX
  5
69A
  8
0
  6
CONTINUOUS
 62
     8
 10
1.9339881814
 20
1.1798061413
 30
0.0
  0
VERTEX
  5
69B
  8
0
  6
CONTINUOUS
 62
     8
 10
1.9034856188
 20
1.2045606971
 30
0.0
  0
VERTEX
  5
69C
  8
0
  6
CONTINUOUS
 62
     8
 10
1.8749235407
 20
1.2300750935
 30
0.0
  0
VERTEX
  5
69D
  8
0
  6
CONTINUOUS
 62
     8
 10
1.8483586544
 20
1.2562986741
 30
0.0
  0
VERTEX
  5
69E
  8
0
  6
CONTINUOUS
 62
     8
 10
1.8238437019
 20
1.2831793743
 30
0.0
  0
VERTEX
  5
69F
  8
0
  6
CONTINUOUS
 62
     8
 10
1.8014273555
 20
1.3106638251
 30
0.0
  0
VERTEX
  5
6A0
  8
0
  6
CONTINUOUS
 62
     8
 10
1.7811541207
 20
1.3386974585
 30
0.0
  0
VERTEX
  5
6A1
  8
0
  6
CONTINUOUS
 62
     8
 10
1.7630642481
 20
1.3672246165
 30
0.0
  0
VERTEX
  5
6A2
  8
0
  6
CONTINUOUS
 62
     8
 10
1.7471936536
 20
1.3961886609
 30
0.0
  0
VERTEX
  5
6A3
  8
0
  6
CONTINUOUS
 62
     8
 10
1.7335738467
 20
1.4255320864
 30
0.0
  0
VERTEX
  5
6A4
  8
0
  6
CONTINUOUS
 62
     8
 10
1.7222318683
 20
1.4551966343
 30
0.0
  0
VERTEX
  5
6A5
  8
0
  6
CONTINUOUS
 62
     8
 10
1.7131902368
 20
1.4851234084
 30
0.0
  0
VERTEX
  5
6A6
  8
0
  6
CONTINUOUS
 62
     8
 10
1.7064669036
 20
1.5152529918
 30
0.0
  0
VERTEX
  5
6A7
  8
0
  6
CONTINUOUS
 62
     8
 10
1.7038940726
 20
1.5309632958
 30
0.0
  0
SEQEND
  5
731
  8
0
  6
CONTINUOUS
 62
     8
  0
POLYLINE
  5
17F
  8
0
  6
CONTINUOUS
 62
     8
 66
     1
 10
0.0
 20
0.0
 30
0.0
 70
   128
  0
VERTEX
  5
6A8
  8
0
  6
CONTINUOUS
 62
     8
 10
2.3099398784
 20
2.0719990303
 30
0.0
  0
VERTEX
  5
6A9
  8
0
  6
CONTINUOUS
 62
     8
 10
2.3414079469
 20
2.0892148818
 30
0.0
  0
VERTEX
  5
6AA
  8
0
  6
CONTINUOUS
 62
     8
 10
2.3744313924
 20
2.1054308179
 30
0.0
  0
VERTEX
  5
6AB
  8
0
  6
CONTINUOUS
 62
     8
 10
2.4089149999
 20
2.1206000837
 30
0.0
  0
VERTEX
  5
6AC
  8
0
  6
CONTINUOUS
 62
     8
 10
2.4447593441
 20
2.1346789425
 30
0.0
  0
VERTEX
  5
6AD
  8
0
  6
CONTINUOUS
 62
     8
 10
2.4818610765
 20
2.1476268011
 30
0.0
  0
VERTEX
  5
6AE
  8
0
  6
CONTINUOUS
 62
     8
 10
2.5201132232
 20
2.1594063275
 30
0.0
  0
VERTEX
  5
6AF
  8
0
  6
CONTINUOUS
 62
     8
 10
2.5594054934
 20
2.1699835584
 30
0.0
  0
VERTEX
  5
6B0
  8
0
  6
CONTINUOUS
 62
     8
 10
2.5996245974
 20
2.1793279967
 30
0.0
  0
VERTEX
  5
6B1
  8
0
  6
CONTINUOUS
 62
     8
 10
2.6406545729
 20
2.1874127002
 30
0.0
  0
VERTEX
  5
6B2
  8
0
  6
CONTINUOUS
 62
     8
 10
2.68237712
 20
2.1942143585
 30
0.0
  0
VERTEX
  5
6B3
  8
0
  6
CONTINUOUS
 62
     8
 10
2.7246719417
 20
2.1997133606
 30
0.0
  0
VERTEX
  5
6B4
  8
0
  6
CONTINUOUS
 62
     8
 10
2.7674170912
 20
2.2038938516
 30
0.0
  0
VERTEX
  5
6B5
  8
0
  6
CONTINUOUS
 62
     8
 10
2.8104893231
 20
2.2067437779
 30
0.0
  0
VERTEX
  5
6B6
  8
0
  6
CONTINUOUS
 62
     8
 10
2.8537644491
 20
2.2082549225
 30
0.0
  0
VERTEX
  5
6B7
  8
0
  6
CONTINUOUS
 62
     8
 10
2.8971176956
 20
2.2084229284
 30
0.0
  0
VERTEX
  5
6B8
  8
0
  6
CONTINUOUS
 62
     8
 10
2.9404240641
 20
2.2072473111
 30
0.0
  0
VERTEX
  5
6B9
  8
0
  6
CONTINUOUS
 62
     8
 10
2.9835586912
 20
2.2047314603
 30
0.0
  0
VERTEX
  5
6BA
  8
0
  6
CONTINUOUS
 62
     8
 10
3.0263972085
 20
2.2008826299
 30
0.0
  0
VERTEX
  5
6BB
  8
0
  6
CONTINUOUS
 62
     8
 10
3.0688161014
 20
2.195711917
 30
0.0
  0
VERTEX
  5
6BC
  8
0
  6
CONTINUOUS
 62
     8
 10
3.1106930655
 20
2.18923423
 30
0.0
  0
VERTEX
  5
6BD
  8
0
  6
CONTINUOUS
 62
     8
 10
3.1519073584
 20
2.1814682459
 30
0.0
  0
VERTEX
  5
6BE
  8
0
  6
CONTINUOUS
 62
     8
 10
3.1923401487
 20
2.1724363561
 30
0.0
  0
VERTEX
  5
6BF
  8
0
  6
CONTINUOUS
 62
     8
 10
3.2318748583
 20
2.1621646017
 30
0.0
  0
VERTEX
  5
6C0
  8
0
  6
CONTINUOUS
 62
     8
 10
3.2703974984
 20
2.1506825989
 30
0.0
  0
VERTEX
  5
6C1
  8
0
  6
CONTINUOUS
 62
     8
 10
3.3077969981
 20
2.1380234532
 30
0.0
  0
VERTEX
  5
6C2
  8
0
  6
CONTINUOUS
 62
     8
 10
3.3439655251
 20
2.1242236644
 30
0.0
  0
VERTEX
  5
6C3
  8
0
  6
CONTINUOUS
 62
     8
 10
3.378798796
 20
2.1093230207
 30
0.0
  0
VERTEX
  5
6C4
  8
0
  6
CONTINUOUS
 62
     8
 10
3.4121963777
 20
2.0933644846
 30
0.0
  0
VERTEX
  5
6C5
  8
0
  6
CONTINUOUS
 62
     8
 10
3.4440619762
 20
2.0763940686
 30
0.0
  0
VERTEX
  5
6C6
  8
0
  6
CONTINUOUS
 62
     8
 10
3.4743037147
 20
2.0584607029
 30
0.0
  0
VERTEX
  5
6C7
  8
0
  6
CONTINUOUS
 62
     8
 10
3.5028343986
 20
2.0396160939
 30
0.0
  0
VERTEX
  5
6C8
  8
0
  6
CONTINUOUS
 62
     8
 10
3.5295717663
 20
2.0199145757
 30
0.0
  0
VERTEX
  5
6C9
  8
0
  6
CONTINUOUS
 62
     8
 10
3.5544387272
 20
1.9994129527
 30
0.0
  0
VERTEX
  5
6CA
  8
0
  6
CONTINUOUS
 62
     8
 10
3.5773635835
 20
1.9781703364
 30
0.0
  0
VERTEX
  5
6CB
  8
0
  6
CONTINUOUS
 62
     8
 10
3.5982802367
 20
1.9562479748
 30
0.0
  0
VERTEX
  5
6CC
  8
0
  6
CONTINUOUS
 62
     8
 10
3.6171283788
 20
1.9337090758
 30
0.0
  0
VERTEX
  5
6CD
  8
0
  6
CONTINUOUS
 62
     8
 10
3.6251155117
 20
1.9231152231
 30
0.0
  0
SEQEND
  5
732
  8
0
  6
CONTINUOUS
 62
     8
  0
ARC
  5
180
  8
0
  6
CONTINUOUS
 62
     8
 10
2.5734960293
 20
1.5897518886
 30
0.0
 40
0.5495672391196806
 50
118.657344382
 51
142.5813356222
  0
POLYLINE
  5
181
  8
0
  6
CONTINUOUS
 62
     8
 66
     1
 10
0.0
 20
0.0
 30
0.0
 70
   128
  0
VERTEX
  5
6CE
  8
0
  6
CONTINUOUS
 62
     8
 10
2.324082014
 20
2.0475041329
 30
0.0
  0
VERTEX
  5
6CF
  8
0
  6
CONTINUOUS
 62
     8
 10
2.3553179893
 20
2.0645770325
 30
0.0
  0
VERTEX
  5
6D0
  8
0
  6
CONTINUOUS
 62
     8
 10
2.3881223856
 20
2.0806397347
 30
0.0
  0
VERTEX
  5
6D1
  8
0
  6
CONTINUOUS
 62
     8
 10
2.4223973016
 20
2.095644302
 30
0.0
  0
VERTEX
  5
6D2
  8
0
  6
CONTINUOUS
 62
     8
 10
2.4580404475
 20
2.1095459551
 30
0.0
  0
VERTEX
  5
6D3
  8
0
  6
CONTINUOUS
 62
     8
 10
2.4949454502
 20
2.1223032058
 30
0.0
  0
VERTEX
  5
6D4
  8
0
  6
CONTINUOUS
 62
     8
 10
2.5330021707
 20
2.1338779815
 30
0.0
  0
VERTEX
  5
6D5
  8
0
  6
CONTINUOUS
 62
     8
 10
2.5720970326
 20
2.1442357386
 30
0.0
  0
VERTEX
  5
6D6
  8
0
  6
CONTINUOUS
 62
     8
 10
2.6121133616
 20
2.1533455653
 30
0.0
  0
VERTEX
  5
6D7
  8
0
  6
CONTINUOUS
 62
     8
 10
2.6529317333
 20
2.1611802745
 30
0.0
  0
VERTEX
  5
6D8
  8
0
  6
CONTINUOUS
 62
     8
 10
2.6944303295
 20
2.1677164843
 30
0.0
  0
VERTEX
  5
6D9
  8
0
  6
CONTINUOUS
 62
     8
 10
2.7364853022
 20
2.172934688
 30
0.0
  0
VERTEX
  5
6DA
  8
0
  6
CONTINUOUS
 62
     8
 10
2.7789711428
 20
2.1768193125
 30
0.0
  0
VERTEX
  5
6DB
  8
0
  6
CONTINUOUS
 62
     8
 10
2.8217610568
 20
2.1793587645
 30
0.0
  0
VERTEX
  5
6DC
  8
0
  6
CONTINUOUS
 62
     8
 10
2.8647273423
 20
2.1805454653
 30
0.0
  0
VERTEX
  5
6DD
  8
0
  6
CONTINUOUS
 62
     8
 10
2.907741771
 20
2.1803758733
 30
0.0
  0
VERTEX
  5
6DE
  8
0
  6
CONTINUOUS
 62
     8
 10
2.950675971
 20
2.1788504947
 30
0.0
  0
VERTEX
  5
6DF
  8
0
  6
CONTINUOUS
 62
     8
 10
2.9934018097
 20
2.1759738818
 30
0.0
  0
VERTEX
  5
6E0
  8
0
  6
CONTINUOUS
 62
     8
 10
3.0357917765
 20
2.1717546195
 30
0.0
  0
VERTEX
  5
6E1
  8
0
  6
CONTINUOUS
 62
     8
 10
3.077719363
 20
2.1662052998
 30
0.0
  0
VERTEX
  5
6E2
  8
0
  6
CONTINUOUS
 62
     8
 10
3.1190594408
 20
2.1593424839
 30
0.0
  0
VERTEX
  5
6E3
  8
0
  6
CONTINUOUS
 62
     8
 10
3.159688635
 20
2.1511866534
 30
0.0
  0
VERTEX
  5
6E4
  8
0
  6
CONTINUOUS
 62
     8
 10
3.1994856919
 20
2.1417621483
 30
0.0
  0
VERTEX
  5
6E5
  8
0
  6
CONTINUOUS
 62
     8
 10
3.2383318415
 20
2.131097095
 30
0.0
  0
VERTEX
  5
6E6
  8
0
  6
CONTINUOUS
 62
     8
 10
3.2761111517
 20
2.1192233224
 30
0.0
  0
VERTEX
  5
6E7
  8
0
  6
CONTINUOUS
 62
     8
 10
3.3127108742
 20
2.1061762664
 30
0.0
  0
VERTEX
  5
6E8
  8
0
  6
CONTINUOUS
 62
     8
 10
3.348021781
 20
2.0919948645
 30
0.0
  0
VERTEX
  5
6E9
  8
0
  6
CONTINUOUS
 62
     8
 10
3.3819384904
 20
2.0767214396
 30
0.0
  0
VERTEX
  5
6EA
  8
0
  6
CONTINUOUS
 62
     8
 10
3.4143597817
 20
2.0604015737
 30
0.0
  0
VERTEX
  5
6EB
  8
0
  6
CONTINUOUS
 62
     8
 10
3.445188897
 20
2.0430839715
 30
0.0
  0
VERTEX
  5
6EC
  8
0
  6
CONTINUOUS
 62
     8
 10
3.4743338302
 20
2.0248203157
 30
0.0
  0
VERTEX
  5
6ED
  8
0
  6
CONTINUOUS
 62
     8
 10
3.5017076012
 20
2.0056651122
 30
0.0
  0
VERTEX
  5
6EE
  8
0
  6
CONTINUOUS
 62
     8
 10
3.527228516
 20
1.9856755277
 30
0.0
  0
VERTEX
  5
6EF
  8
0
  6
CONTINUOUS
 62
     8
 10
3.5508204101
 20
1.9649112188
 30
0.0
  0
VERTEX
  5
6F0
  8
0
  6
CONTINUOUS
 62
     8
 10
3.572412876
 20
1.9434341545
 30
0.0
  0
VERTEX
  5
6F1
  8
0
  6
CONTINUOUS
 62
     8
 10
3.5919414735
 20
1.9213084308
 30
0.0
  0
VERTEX
  5
6F2
  8
0
  6
CONTINUOUS
 62
     8
 10
3.6087196281
 20
1.8994816233
 30
0.0
  0
SEQEND
  5
733
  8
0
  6
CONTINUOUS
 62
     8
  0
ARC
  5
182
  8
0
  6
CONTINUOUS
 62
     8
 10
2.5788398597
 20
1.5801980829
 30
0.0
 40
0.5322372631492298
 50
118.597572477
 51
143.1670059356
  0
POLYLINE
  5
183
  8
0
  6
CONTINUOUS
 62
     8
 66
     1
 10
0.0
 20
0.0
 30
0.0
 70
   128
  0
VERTEX
  5
6F3
  8
0
  6
CONTINUOUS
 62
     8
 10
2.324082014
 20
1.9086939096
 30
0.0
  0
VERTEX
  5
6F4
  8
0
  6
CONTINUOUS
 62
     8
 10
2.3553179893
 20
1.9257668092
 30
0.0
  0
VERTEX
  5
6F5
  8
0
  6
CONTINUOUS
 62
     8
 10
2.3881223856
 20
1.9418295114
 30
0.0
  0
VERTEX
  5
6F6
  8
0
  6
CONTINUOUS
 62
     8
 10
2.4223973016
 20
1.9568340788
 30
0.0
  0
VERTEX
  5
6F7
  8
0
  6
CONTINUOUS
 62
     8
 10
2.4580404475
 20
1.9707357318
 30
0.0
  0
VERTEX
  5
6F8
  8
0
  6
CONTINUOUS
 62
     8
 10
2.4949454502
 20
1.9834929825
 30
0.0
  0
VERTEX
  5
6F9
  8
0
  6
CONTINUOUS
 62
     8
 10
2.5330021707
 20
1.9950677582
 30
0.0
  0
VERTEX
  5
6FA
  8
0
  6
CONTINUOUS
 62
     8
 10
2.5720970326
 20
2.0054255153
 30
0.0
  0
VERTEX
  5
6FB
  8
0
  6
CONTINUOUS
 62
     8
 10
2.6121133616
 20
2.0145353421
 30
0.0
  0
VERTEX
  5
6FC
  8
0
  6
CONTINUOUS
 62
     8
 10
2.6529317333
 20
2.0223700513
 30
0.0
  0
VERTEX
  5
6FD
  8
0
  6
CONTINUOUS
 62
     8
 10
2.6944303295
 20
2.028906261
 30
0.0
  0
VERTEX
  5
6FE
  8
0
  6
CONTINUOUS
 62
     8
 10
2.7364853022
 20
2.0341244647
 30
0.0
  0
VERTEX
  5
6FF
  8
0
  6
CONTINUOUS
 62
     8
 10
2.7789711428
 20
2.0380090892
 30
0.0
  0
VERTEX
  5
700
  8
0
  6
CONTINUOUS
 62
     8
 10
2.8217610568
 20
2.0405485412
 30
0.0
  0
VERTEX
  5
701
  8
0
  6
CONTINUOUS
 62
     8
 10
2.8647273423
 20
2.041735242
 30
0.0
  0
VERTEX
  5
702
  8
0
  6
CONTINUOUS
 62
     8
 10
2.907741771
 20
2.0415656501
 30
0.0
  0
VERTEX
  5
703
  8
0
  6
CONTINUOUS
 62
     8
 10
2.950675971
 20
2.0400402714
 30
0.0
  0
VERTEX
  5
704
  8
0
  6
CONTINUOUS
 62
     8
 10
2.9934018097
 20
2.0371636585
 30
0.0
  0
VERTEX
  5
705
  8
0
  6
CONTINUOUS
 62
     8
 10
3.0357917765
 20
2.0329443962
 30
0.0
  0
VERTEX
  5
706
  8
0
  6
CONTINUOUS
 62
     8
 10
3.077719363
 20
2.0273950765
 30
0.0
  0
VERTEX
  5
707
  8
0
  6
CONTINUOUS
 62
     8
 10
3.1190594408
 20
2.0205322607
 30
0.0
  0
VERTEX
  5
708
  8
0
  6
CONTINUOUS
 62
     8
 10
3.159688635
 20
2.0123764301
 30
0.0
  0
VERTEX
  5
709
  8
0
  6
CONTINUOUS
 62
     8
 10
3.1994856919
 20
2.002951925
 30
0.0
  0
VERTEX
  5
70A
  8
0
  6
CONTINUOUS
 62
     8
 10
3.2383318415
 20
1.9922868717
 30
0.0
  0
VERTEX
  5
70B
  8
0
  6
CONTINUOUS
 62
     8
 10
3.2761111517
 20
1.9804130991
 30
0.0
  0
VERTEX
  5
70C
  8
0
  6
CONTINUOUS
 62
     8
 10
3.3127108742
 20
1.9673660431
 30
0.0
  0
VERTEX
  5
70D
  8
0
  6
CONTINUOUS
 62
     8
 10
3.348021781
 20
1.9531846412
 30
0.0
  0
VERTEX
  5
70E
  8
0
  6
CONTINUOUS
 62
     8
 10
3.3819384904
 20
1.9379112163
 30
0.0
  0
VERTEX
  5
70F
  8
0
  6
CONTINUOUS
 62
     8
 10
3.4143597817
 20
1.9215913504
 30
0.0
  0
VERTEX
  5
710
  8
0
  6
CONTINUOUS
 62
     8
 10
3.445188897
 20
1.9042737482
 30
0.0
  0
VERTEX
  5
711
  8
0
  6
CONTINUOUS
 62
     8
 10
3.4743338302
 20
1.8860100925
 30
0.0
  0
VERTEX
  5
712
  8
0
  6
CONTINUOUS
 62
     8
 10
3.5017076012
 20
1.866854889
 30
0.0
  0
VERTEX
  5
713
  8
0
  6
CONTINUOUS
 62
     8
 10
3.527228516
 20
1.8468653044
 30
0.0
  0
VERTEX
  5
714
  8
0
  6
CONTINUOUS
 62
     8
 10
3.545737191
 20
1.8307890892
 30
0.0
  0
SEQEND
  5
734
  8
0
  6
CONTINUOUS
 62
     8
  0
ARC
  5
184
  8
0
  6
CONTINUOUS
 62
     8
 10
2.6291996863
 20
1.3713495898
 30
0.0
 40
0.6179285654209806
 50
119.5890042989
 51
131.9521164668
  0
ENDSEC
  0
EOF
