  0
SECTION
  2
HEADER
  9
$ACADVER
  1
AC1009
  9
$DWGCODEPAGE
  3
ansi_1252
  9
$INSBASE
 10
0.0
 20
0.0
 30
0.0
  9
$EXTMIN
 10
0.0
 20
0.0
 30
0.0
  9
$EXTMAX
 10
11.0
 20
8.5
 30
0.0
  9
$LIMMIN
 10
0.0
 20
0.0
  9
$LIMMAX
 10
11.0
 20
8.5
  9
$ORTHOMODE
 70
     0
  9
$REGENMODE
 70
     1
  9
$FILLMODE
 70
     1
  9
$QTEXTMODE
 70
     0
  9
$MIRRTEXT
 70
     1
  9
$DRAGMODE
 70
     2
  9
$LTSCALE
 40
1.0
  9
$OSMODE
 70
    37
  9
$ATTMODE
 70
     1
  9
$TEXTSIZE
 40
0.094
  9
$TRACEWID
 40
0.05
  9
$TEXTSTYLE
  7
STANDARD
  9
$CLAYER
  8
0
  9
$CELTYPE
  6
BYLAYER
  9
$CECOLOR
 62
   256
  9
$DIMSCALE
 40
1.0
  9
$DIMASZ
 40
0.094
  9
$DIMEXO
 40
0.05
  9
$DIMDLI
 40
0.38
  9
$DIMRND
 40
0.0
  9
$DIMDLE
 40
0.0
  9
$DIMEXE
 40
0.125
  9
$DIMTP
 40
0.0
  9
$DIMTM
 40
0.0
  9
$DIMTXT
 40
0.094
  9
$DIMCEN
 40
0.09
  9
$DIMTSZ
 40
0.0
  9
$DIMTOL
 70
     0
  9
$DIMLIM
 70
     0
  9
$DIMTIH
 70
     1
  9
$DIMTOH
 70
     1
  9
$DIMSE1
 70
     0
  9
$DIMSE2
 70
     0
  9
$DIMTAD
 70
     0
  9
$DIMZIN
 70
     0
  9
$DIMBLK
  1

  9
$DIMASO
 70
     1
  9
$DIMSHO
 70
     1
  9
$DIMPOST
  1

  9
$DIMAPOST
  1

  9
$DIMALT
 70
     0
  9
$DIMALTD
 70
     2
  9
$DIMALTF
 40
25.4
  9
$DIMLFAC
 40
2.0
  9
$DIMTOFL
 70
     0
  9
$DIMTVP
 40
0.0
  9
$DIMTIX
 70
     0
  9
$DIMSOXD
 70
     0
  9
$DIMSAH
 70
     0
  9
$DIMBLK1
  1

  9
$DIMBLK2
  1

  9
$DIMSTYLE
  2
STANDARD
  9
$DIMCLRD
 70
     0
  9
$DIMCLRE
 70
     0
  9
$DIMCLRT
 70
     0
  9
$DIMTFAC
 40
1.0
  9
$DIMGAP
 40
0.06
  9
$LUNITS
 70
     2
  9
$LUPREC
 70
     3
  9
$SKETCHINC
 40
0.1
  9
$FILLETRAD
 40
0.5
  9
$AUNITS
 70
     0
  9
$AUPREC
 70
     0
  9
$MENU
  1
.
  9
$ELEVATION
 40
0.0
  9
$PELEVATION
 40
0.0
  9
$THICKNESS
 40
0.0
  9
$LIMCHECK
 70
     0
  9
$CHAMFERA
 40
0.0
  9
$CHAMFERB
 40
0.0
  9
$SKPOLY
 70
     0
  9
$TDCREATE
 40
2457742.440630451
  9
$TDUPDATE
 40
2457742.440632361
  9
$TDINDWG
 40
0.0000000116
  9
$TDUSRTIMER
 40
0.0000000116
  9
$USRTIMER
 70
     1
  9
$ANGBASE
 50
0.0
  9
$ANGDIR
 70
     0
  9
$PDMODE
 70
     0
  9
$PDSIZE
 40
-1.0
  9
$PLINEWID
 40
0.0
  9
$COORDS
 70
     1
  9
$SPLFRAME
 70
     0
  9
$SPLINETYPE
 70
     6
  9
$SPLINESEGS
 70
     8
  9
$ATTDIA
 70
     0
  9
$ATTREQ
 70
     1
  9
$HANDLING
 70
     1
  9
$HANDSEED
  5
685
  9
$SURFTAB1
 70
     6
  9
$SURFTAB2
 70
     6
  9
$SURFTYPE
 70
     6
  9
$SURFU
 70
     6
  9
$SURFV
 70
     6
  9
$UCSNAME
  2

  9
$UCSORG
 10
0.0
 20
0.0
 30
0.0
  9
$UCSXDIR
 10
1.0
 20
0.0
 30
0.0
  9
$UCSYDIR
 10
0.0
 20
1.0
 30
0.0
  9
$PUCSNAME
  2

  9
$PUCSORG
 10
0.0
 20
0.0
 30
0.0
  9
$PUCSXDIR
 10
1.0
 20
0.0
 30
0.0
  9
$PUCSYDIR
 10
0.0
 20
1.0
 30
0.0
  9
$USERI1
 70
     0
  9
$USERI2
 70
     0
  9
$USERI3
 70
     0
  9
$USERI4
 70
     0
  9
$USERI5
 70
     0
  9
$USERR1
 40
0.0
  9
$USERR2
 40
0.0
  9
$USERR3
 40
0.0
  9
$USERR4
 40
0.0
  9
$USERR5
 40
0.0
  9
$WORLDVIEW
 70
     1
  9
$SHADEDGE
 70
     3
  9
$SHADEDIF
 70
    70
  9
$TILEMODE
 70
     1
  9
$MAXACTVP
 70
    64
  9
$PLIMCHECK
 70
     0
  9
$PEXTMIN
 10
1.0000000000E+20
 20
1.0000000000E+20
 30
1.0000000000E+20
  9
$PEXTMAX
 10
-1.0000000000E+20
 20
-1.0000000000E+20
 30
-1.0000000000E+20
  9
$PLIMMIN
 10
0.0
 20
0.0
  9
$PLIMMAX
 10
12.0
 20
9.0
  9
$UNITMODE
 70
     0
  9
$VISRETAIN
 70
     1
  9
$PLINEGEN
 70
     0
  9
$PSLTSCALE
 70
     1
  0
ENDSEC
  0
SECTION
  2
TABLES
  0
TABLE
  2
VPORT
 70
     1
  0
VPORT
  2
*ACTIVE
 70
     0
 10
0.0
 20
0.0
 11
1.0
 21
1.0
 12
5.5
 22
4.25
 13
0.0
 23
0.0
 14
0.5
 24
0.5
 15
0.5
 25
0.5
 16
0.0
 26
0.0
 36
1.0
 17
0.0
 27
0.0
 37
0.0
 40
8.5
 41
1.2941176471
 42
50.0
 43
0.0
 44
0.0
 50
0.0
 51
0.0
 71
     0
 72
  2000
 73
     1
 74
     3
 75
     0
 76
     0
 77
     0
 78
     0
  0
ENDTAB
  0
TABLE
  2
LTYPE
 70
     6
  0
LTYPE
  2
CONTINUOUS
 70
     0
  3
Solid line
 72
    65
 73
     0
 40
0.0
  0
LTYPE
  2
HIDDEN
 70
     0
  3
Hidden __ __ __ __ __ __ __ __ __ __ __ __ __ __
 72
    65
 73
     2
 40
0.075
 49
0.05
 49
-0.025
  0
LTYPE
  2
PHANTOM
 70
     0
  3
Phantom ______  __  __  ______  __  __  ______
 72
    65
 73
     6
 40
0.5
 49
0.25
 49
-0.05
 49
0.05
 49
-0.05
 49
0.05
 49
-0.05
  0
LTYPE
  2
CENTER
 70
     0
  3
Center ____ _ ____ _ ____ _ ____ _ ____ _ ____
 72
    65
 73
     4
 40
0.4
 49
0.25
 49
-0.05
 49
0.05
 49
-0.05
  0
LTYPE
  2
CENTERX2
 70
     0
  3
Center (2x) ________  __  ________  __  _____
 72
    65
 73
     4
 40
0.8
 49
0.5
 49
-0.1
 49
0.1
 49
-0.1
  0
LTYPE
  2
DOT2
 70
     0
  3
Dot (.5x) ........................................
 72
    65
 73
     2
 40
0.025
 49
0.0
 49
-0.025
  0
ENDTAB
  0
TABLE
  2
LAYER
 70
     2
  0
LAYER
  2
0
 70
     0
 62
     7
  6
CONTINUOUS
  0
LAYER
  2
FORMAT
 70
     0
 62
     7
  6
CONTINUOUS
  0
ENDTAB
  0
TABLE
  2
STYLE
 70
     1
  0
STYLE
  2
STANDARD
 70
     0
 40
0.0
 41
1.0
 50
0.0
 71
     0
 42
0.094
  3
txt
  4

  0
ENDTAB
  0
TABLE
  2
VIEW
 70
     0
  0
ENDTAB
  0
TABLE
  2
UCS
 70
     0
  0
ENDTAB
  0
TABLE
  2
APPID
 70
     1
  0
APPID
  2
ACAD
 70
     0
  0
ENDTAB
  0
TABLE
  2
DIMSTYLE
 70
     4
  0
DIMSTYLE
  2
STANDARD
 70
     0
  3

  4

  5

  6

  7

 40
1.0
 41
0.18
 42
0.0625
 43
0.38
 44
0.18
 45
0.0
 46
0.0
 47
0.0
 48
0.0
140
0.18
141
0.09
142
0.0
143
25.4
144
1.0
145
0.0
146
1.0
147
0.09
 71
     0
 72
     0
 73
     1
 74
     1
 75
     0
 76
     0
 77
     0
 78
     0
170
     0
171
     2
172
     0
173
     0
174
     0
175
     0
176
     0
177
     0
178
     0
  0
DIMSTYLE
  2
SLDDIMSTYLE0
 70
     0
  3

  4

  5

  6

  7

 40
1.0
 41
0.094
 42
0.0625
 43
0.38
 44
0.0
 45
0.000000001
 46
0.0
 47
0.0
 48
0.0
140
0.094
141
0.09
142
0.0
143
25.4
144
1.0
145
0.0
146
1.0
147
0.0235
 71
     0
 72
     0
 73
     1
 74
     1
 75
     0
 76
     0
 77
     0
 78
    12
170
     0
171
     2
172
     0
173
     1
174
     0
175
     0
176
     0
177
     0
178
     0
  0
DIMSTYLE
  2
SLDDIMSTYLE1
 70
     0
  3

  4

  5

  6

  7

 40
1.0
 41
0.094
 42
0.0625
 43
0.38
 44
0.0
 45
0.000000001
 46
0.0
 47
0.0
 48
0.0
140
0.094
141
0.09
142
0.0
143
25.4
144
1.0
145
0.0
146
1.0
147
0.0235
 71
     0
 72
     0
 73
     1
 74
     1
 75
     0
 76
     0
 77
     0
 78
     4
170
     0
171
     2
172
     0
173
     1
174
     0
175
     0
176
     0
177
     0
178
     0
  0
DIMSTYLE
  2
SLDDIMSTYLE2
 70
     0
  3

  4

  5

  6

  7

 40
1.0
 41
0.094
 42
0.0625
 43
0.38
 44
0.0
 45
0.000000001
 46
0.0
 47
0.0
 48
0.0
140
0.094
141
0.09
142
0.0
143
25.4
144
1.0
145
0.0
146
1.0
147
0.0235
 71
     0
 72
     0
 73
     1
 74
     1
 75
     0
 76
     0
 77
     0
 78
    12
170
     0
171
     2
172
     1
173
     1
174
     0
175
     0
176
     0
177
     0
178
     0
  0
ENDTAB
  0
ENDSEC
  0
SECTION
  2
BLOCKS
  0
BLOCK
  8
0
  2
$MODEL_SPACE
 70
     0
 10
0.0
 20
0.0
 30
0.0
  3
$MODEL_SPACE
  1

  0
ENDBLK
  5
21
  8
0
  0
BLOCK
 67
     1
  8
0
  2
$PAPER_SPACE
 70
     0
 10
0.0
 20
0.0
 30
0.0
  3
$PAPER_SPACE
  1

  0
ENDBLK
  5
1D
 67
     1
  8
0
  0
BLOCK
  8
0
  2
SW_NOTE_0
 70
     0
 10
0.0
 20
0.0
 30
0.0
  3
SW_NOTE_0
  1

  0
TEXT
  5
90
  8
0
  6
CONTINUOUS
 62
     0
 10
0.0
 20
0.0735958462
 30
0.0
 40
0.2083333333
  1
Auburn Bearing
 41
0.7
 11
0.0
 21
0.0
 31
0.0
 73
     1
  0
TEXT
  5
91
  8
0
  6
CONTINUOUS
 62
     0
 10
0.3324845058
 20
-0.1225091592
 30
0.0
 40
0.125
  1
& MANUFACTURING
 41
0.7
 11
0.3324845058
 21
-0.1666666669
 31
0.0
 73
     1
  0
TEXT
  5
92
  8
0
  6
CONTINUOUS
 62
     0
 10
0.2038966512
 20
-0.268757631
 30
0.0
 40
0.1041666667
  1
Made in the USA since 1898
 41
0.6326923077
 11
0.2038966512
 21
-0.3055555542
 31
0.0
 73
     1
  0
ENDBLK
  5
8F
  8
0
  0
BLOCK
  8
0
  2
SW_NOTE_1
 70
     0
 10
0.0
 20
0.0
 30
0.0
  3
SW_NOTE_1
  1

  0
TEXT
  5
99
  8
0
  6
CONTINUOUS
 62
     0
 10
0.0
 20
0.0176630031
 30
0.0
 40
0.05
  1
THE INFORMATION CONTAINED IN THIS DRAWING IS THE SOLE PROPERTY OF AUBURN BALL BEARING.  ANY 
 41
0.6391304348
 11
0.0
 21
0.0
 31
0.0
 73
     1
  0
TEXT
  5
9A
  8
0
  6
CONTINUOUS
 62
     0
 10
-0.1618921698
 20
-0.0717070778
 30
0.0
 40
0.05
  1
REPRODUCTION IN WHOLE OR IN PART WITHOUT THE WRITTEN PERMISSION OF AUBURN BALL BEARING IS PROHIBITED.
 41
0.648019802
 11
-0.1618921698
 21
-0.0893700809
 31
0.0
 73
     1
  0
ENDBLK
  5
98
  8
0
  0
BLOCK
  8
0
  2
_D
 70
     0
 10
0.0
 20
0.0
 30
0.0
  3
_D
  1

  0
SOLID
  5
A5
  8
0
  6
CONTINUOUS
 62
     7
 10
6.7900946008
 20
7.3086629947
 30
0.0
 11
6.8840946008
 21
7.2942014562
 31
0.0
 12
6.8840946008
 22
7.3231245331
 32
0.0
 13
6.8840946008
 23
7.3231245331
 33
0.0
  0
SOLID
  5
A6
  8
0
  6
CONTINUOUS
 62
     7
 10
9.1338446008
 20
7.3086629947
 30
0.0
 11
9.0398446008
 21
7.3231245331
 31
0.0
 12
9.0398446008
 22
7.2942014562
 32
0.0
 13
9.0398446008
 23
7.2942014562
 33
0.0
  0
LINE
  5
A7
  8
0
  6
CONTINUOUS
 62
     7
 10
6.7900946008
 20
5.4362959355
 30
0.0
 11
6.7900946008
 21
7.4336629947
 31
0.0
  0
LINE
  5
A8
  8
0
  6
CONTINUOUS
 62
     7
 10
9.1338446008
 20
5.4362959355
 30
0.0
 11
9.1338446008
 21
7.4336629947
 31
0.0
  0
LINE
  5
A9
  8
0
  6
CONTINUOUS
 62
     7
 10
6.7900946008
 20
7.3086629947
 30
0.0
 11
7.7379118236
 21
7.3086629947
 31
0.0
  0
LINE
  5
AA
  8
0
  6
CONTINUOUS
 62
     7
 10
9.1338446008
 20
7.3086629947
 30
0.0
 11
8.192225532
 21
7.3086629947
 31
0.0
  0
TEXT
  5
AB
  8
0
  6
CONTINUOUS
 62
     7
 10
7.7379118236
 20
7.2665388847
 30
0.0
 40
0.094
  1
%%c
 41
0.7
 11
7.7379118236
 21
7.2333324389
 31
0.0
 73
     1
  0
TEXT
  5
AC
  8
0
  6
CONTINUOUS
 62
     7
 10
7.8796755735
 20
7.267974996
 30
0.0
 40
0.094
  1
2.344
 41
0.7
 11
7.8796755735
 21
7.2347685502
 31
0.0
 73
     1
  0
ENDBLK
  5
A4
  8
0
  0
BLOCK
  8
0
  2
_D_1
 70
     0
 10
0.0
 20
0.0
 30
0.0
  3
_D_1
  1

  0
SOLID
  5
B2
  8
0
  6
CONTINUOUS
 62
     7
 10
7.3369696008
 20
3.5054437865
 30
0.0
 11
7.4309696008
 21
3.4909822481
 31
0.0
 12
7.4309696008
 22
3.519905325
 32
0.0
 13
7.4309696008
 23
3.519905325
 33
0.0
  0
SOLID
  5
B3
  8
0
  6
CONTINUOUS
 62
     7
 10
8.5869696008
 20
3.5054437865
 30
0.0
 11
8.4929696008
 21
3.519905325
 31
0.0
 12
8.4929696008
 22
3.4909822481
 32
0.0
 13
8.4929696008
 23
3.4909822481
 33
0.0
  0
LINE
  5
B4
  8
0
  6
CONTINUOUS
 62
     7
 10
7.3369696008
 20
5.3362959355
 30
0.0
 11
7.3369696008
 21
3.3804437865
 31
0.0
  0
LINE
  5
B5
  8
0
  6
CONTINUOUS
 62
     7
 10
8.5869696008
 20
5.3362959355
 30
0.0
 11
8.5869696008
 21
3.3804437865
 31
0.0
  0
LINE
  5
B6
  8
0
  6
CONTINUOUS
 62
     7
 10
7.3369696008
 20
3.5054437865
 30
0.0
 11
7.764893639
 21
3.5054437865
 31
0.0
  0
LINE
  5
B7
  8
0
  6
CONTINUOUS
 62
     7
 10
8.5869696008
 20
3.5054437865
 30
0.0
 11
8.2192073474
 21
3.5054437865
 31
0.0
  0
TEXT
  5
B8
  8
0
  6
CONTINUOUS
 62
     7
 10
7.764893639
 20
3.4633196765
 30
0.0
 40
0.094
  1
%%c
 41
0.7
 11
7.764893639
 21
3.4301132307
 31
0.0
 73
     1
  0
TEXT
  5
B9
  8
0
  6
CONTINUOUS
 62
     7
 10
7.9066573888
 20
3.4647557878
 30
0.0
 40
0.094
  1
1.250
 41
0.7
 11
7.9066573888
 21
3.431549342
 31
0.0
 73
     1
  0
ENDBLK
  5
B1
  8
0
  0
BLOCK
  8
0
  2
SW_CENTERMARKSYMBOL_0
 70
     0
 10
0.0
 20
0.0
 30
0.0
  3
SW_CENTERMARKSYMBOL_0
  1

  0
LINE
  5
BD
  8
0
  6
CONTINUOUS
 62
     0
 10
0.0
 20
0.0
 30
0.0
 11
0.0
 21
0.1
 31
0.0
  0
LINE
  5
BE
  8
0
  6
CONTINUOUS
 62
     0
 10
0.0
 20
0.0
 30
0.0
 11
-0.1
 21
0.0
 31
0.0
  0
LINE
  5
BF
  8
0
  6
CONTINUOUS
 62
     0
 10
0.0
 20
0.0
 30
0.0
 11
0.0
 21
-0.1
 31
0.0
  0
LINE
  5
C0
  8
0
  6
CONTINUOUS
 62
     0
 10
0.0
 20
0.0
 30
0.0
 11
0.1
 21
0.0
 31
0.0
  0
LINE
  5
C1
  8
0
  6
CONTINUOUS
 62
     0
 10
0.0
 20
0.2
 30
0.0
 11
0.0
 21
1.271875
 31
0.0
  0
LINE
  5
C2
  8
0
  6
CONTINUOUS
 62
     0
 10
-0.2
 20
0.0
 30
0.0
 11
-1.271875
 21
0.0
 31
0.0
  0
LINE
  5
C3
  8
0
  6
CONTINUOUS
 62
     0
 10
0.0
 20
-0.2
 30
0.0
 11
0.0
 21
-1.271875
 31
0.0
  0
LINE
  5
C4
  8
0
  6
CONTINUOUS
 62
     0
 10
0.2
 20
0.0
 30
0.0
 11
1.271875
 21
0.0
 31
0.0
  0
ENDBLK
  5
BC
  8
0
  0
BLOCK
  8
0
  2
_D_2
 70
     0
 10
0.0
 20
0.0
 30
0.0
  3
_D_2
  1

  0
SOLID
  5
146
  8
0
  6
CONTINUOUS
 62
     7
 10
3.9268734665
 20
7.4243126677
 30
0.0
 11
3.8328734665
 21
7.4387742062
 31
0.0
 12
3.8328734665
 22
7.4098511293
 32
0.0
 13
3.8328734665
 23
7.4098511293
 33
0.0
  0
SOLID
  5
147
  8
0
  6
CONTINUOUS
 62
     7
 10
3.3018734665
 20
7.4243126677
 30
0.0
 11
3.3958734665
 21
7.4098511293
 31
0.0
 12
3.3958734665
 22
7.4387742062
 32
0.0
 13
3.3958734665
 23
7.4387742062
 33
0.0
  0
LINE
  5
148
  8
0
  6
CONTINUOUS
 62
     7
 10
3.9268734665
 20
6.5881709355
 30
0.0
 11
3.9268734665
 21
7.5493126677
 31
0.0
  0
LINE
  5
149
  8
0
  6
CONTINUOUS
 62
     7
 10
3.3018734665
 20
6.5881709355
 30
0.0
 11
3.3018734665
 21
7.5493126677
 31
0.0
  0
LINE
  5
14A
  8
0
  6
CONTINUOUS
 62
     7
 10
3.9268734665
 20
7.4243126677
 30
0.0
 11
3.7359206873
 21
7.4243126677
 31
0.0
  0
LINE
  5
14B
  8
0
  6
CONTINUOUS
 62
     7
 10
3.3018734665
 20
7.4243126677
 30
0.0
 11
3.4928262456
 21
7.4243126677
 31
0.0
  0
TEXT
  5
14C
  8
0
  6
CONTINUOUS
 62
     7
 10
3.4928262456
 20
7.3829066157
 30
0.586
 40
0.094
  1
.625
 41
0.7
 11
3.4928262456
 21
7.3497001699
 31
0.586
 73
     1
  0
ENDBLK
  5
145
  8
0
  0
ENDSEC
  0
SECTION
  2
ENTITIES
  0
LINE
  5
75
  8
0
  6
CONTINUOUS
 62
     7
 10
0.2588915831
 20
8.1920731707
 30
0.0
 11
10.629927
 21
8.1920731707
 31
0.0
  0
LINE
  5
76
  8
0
  6
CONTINUOUS
 62
     7
 10
0.2588915831
 20
8.1920731707
 30
0.0
 11
0.2588915831
 21
0.3920731707
 31
0.0
  0
LINE
  5
77
  8
0
  6
CONTINUOUS
 62
     7
 10
10.629927
 20
0.3920731707
 30
0.0
 11
0.2588915831
 21
0.3920731707
 31
0.0
  0
LINE
  5
78
  8
0
  6
CONTINUOUS
 62
     7
 10
10.629927
 20
0.3920731707
 30
0.0
 11
10.629927
 21
8.1920731707
 31
0.0
  0
LINE
  5
79
  8
0
  6
CONTINUOUS
 62
     7
 10
6.895369671
 20
0.6920731707
 30
0.0
 11
6.895369671
 21
0.3920731707
 31
0.0
  0
LINE
  5
7A
  8
0
  6
CONTINUOUS
 62
     7
 10
6.895369671
 20
2.2538646663
 30
0.0
 11
6.895369671
 21
0.6920731707
 31
0.0
  0
LINE
  5
7B
  8
0
  6
CONTINUOUS
 62
     7
 10
6.895369671
 20
0.6920731707
 30
0.0
 11
10.629927
 21
0.6920731707
 31
0.0
  0
LINE
  5
7C
  8
0
  6
CONTINUOUS
 62
     7
 10
6.895369671
 20
1.2938884062
 30
0.0
 11
10.629927
 21
1.2938884062
 31
0.0
  0
LINE
  5
7D
  8
0
  6
CONTINUOUS
 62
     7
 10
7.4789412454
 20
1.0420731707
 30
0.0
 11
10.629927
 21
1.0420731707
 31
0.0
  0
LINE
  5
7E
  8
0
  6
CONTINUOUS
 62
     7
 10
7.4789412454
 20
1.0420731707
 30
0.0
 11
6.895369671
 21
1.0420731707
 31
0.0
  0
LINE
  5
7F
  8
0
  6
CONTINUOUS
 62
     7
 10
10.629927
 20
2.2538646663
 30
0.0
 11
5.7428859
 21
2.2538646663
 31
0.0
  0
LINE
  5
80
  8
0
  6
CONTINUOUS
 62
     7
 10
6.7188368717
 20
0.6155953096
 30
0.0
 11
6.4188368717
 21
0.6155953096
 31
0.0
  0
LINE
  5
81
  8
0
  6
CONTINUOUS
 62
     7
 10
5.9688368717
 20
0.7405953096
 30
0.0
 11
5.9688368717
 21
0.4905953096
 31
0.0
  0
LINE
  5
82
  8
0
  6
CONTINUOUS
 62
     7
 10
5.9688368717
 20
0.7405953096
 30
0.0
 11
6.2688368717
 21
0.6780953096
 31
0.0
  0
LINE
  5
83
  8
0
  6
CONTINUOUS
 62
     7
 10
6.2688368717
 20
0.6780953096
 30
0.0
 11
6.2688368717
 21
0.5530953096
 31
0.0
  0
LINE
  5
84
  8
0
  6
CONTINUOUS
 62
     7
 10
6.2688368717
 20
0.5530953096
 30
0.0
 11
5.9688368717
 21
0.4905953096
 31
0.0
  0
LINE
  5
85
  8
0
  6
CONTINUOUS
 62
     7
 10
6.5688368717
 20
0.7655953096
 30
0.0
 11
6.5688368717
 21
0.4655953096
 31
0.0
  0
LINE
  5
86
  8
0
  6
CONTINUOUS
 62
     7
 10
6.2938368717
 20
0.6155953096
 30
0.0
 11
5.9438368717
 21
0.6155953096
 31
0.0
  0
LINE
  5
87
  8
0
  6
CONTINUOUS
 62
     7
 10
6.895369671
 20
0.8670731707
 30
0.0
 11
5.7428859
 21
0.8670731707
 31
0.0
  0
LINE
  5
88
  8
0
  6
CONTINUOUS
 62
     7
 10
5.7428859
 20
0.3920731707
 30
0.0
 11
5.7428859
 21
2.2538646663
 31
0.0
  0
CIRCLE
  5
89
  8
0
  6
CONTINUOUS
 62
     7
 10
6.5688368717
 20
0.6155953096
 30
0.0
 40
0.1250000000000005
  0
CIRCLE
  5
8A
  8
0
  6
CONTINUOUS
 62
     7
 10
6.5688368717
 20
0.6155953096
 30
0.0
 40
0.0624999999999998
  0
TEXT
  5
8B
  8
0
  6
CONTINUOUS
 62
     7
 10
9.8940990481
 20
0.7778772066
 30
0.0
 40
0.1875
  1
AE-24
 41
0.7
 11
9.8940990481
 21
0.711640945
 31
0.0
 73
     1
  0
TEXT
  5
8C
  8
0
  6
CONTINUOUS
 62
     7
 10
6.9454407988
 20
0.9373362189
 30
0.0
 40
0.0833333333
  1
ITEM NUMBER
 41
0.7
 11
6.9454407988
 21
0.9078978804
 31
0.0
 73
     1
  0
INSERT
  5
93
  8
0
  6
CONTINUOUS
 62
     7
  2
SW_NOTE_0
 10
7.6846410003
 20
1.7911336193
 30
0.0
  0
TEXT
  5
94
  8
0
  6
CONTINUOUS
 62
     7
 10
7.4912350328
 20
1.1264966581
 30
0.0
 40
0.1041666667
  1
Roller Thrust Bearing, AE-24,  1.250 x 2.344 x .625
 41
0.6382352941
 11
7.4912350328
 21
1.089698735
 31
0.0
 73
     1
  0
TEXT
  5
95
  8
0
  6
CONTINUOUS
 62
     7
 10
6.9585720202
 20
1.2053935902
 30
0.0
 40
0.065
  1
DESCRIPTION
 41
0.7
 11
6.9585720202
 21
1.1824316862
 31
0.0
 73
     1
  0
INSERT
  5
9B
  8
0
  6
CONTINUOUS
 62
     7
  2
SW_NOTE_1
 10
7.1289909583
 20
0.5372783317
 30
0.0
  0
CIRCLE
  5
9C
  8
0
  6
CONTINUOUS
 62
     7
 10
7.9619696008
 20
5.3862959355
 30
0.0
 40
0.625
  0
CIRCLE
  5
9D
  8
0
  6
CONTINUOUS
 62
     7
 10
7.9619696008
 20
5.3862959355
 30
0.0
 40
0.6450000000000005
  0
CIRCLE
  5
9E
  8
0
  6
CONTINUOUS
 62
     7
 10
7.9619696008
 20
5.3862959355
 30
0.0
 40
1.151875
  0
CIRCLE
  5
9F
  8
0
  6
CONTINUOUS
 62
     7
 10
7.9619696008
 20
5.3862959355
 30
0.0
 40
1.171875000000001
  0
DIMENSION
  5
A0
  8
0
  6
CONTINUOUS
 62
     7
  2
_D
 10
9.1338446008
 20
7.3086629947
 30
0.0
 11
7.9650686778
 21
7.3086629947
 31
0.0
 70
   160
  1
%%c<>
  3
SLDDIMSTYLE0
 13
6.7900946008
 23
5.3862959355
 33
0.0
 14
9.1338446008
 24
5.3862959355
 34
0.0
  0
DIMENSION
  5
AD
  8
0
  6
CONTINUOUS
 62
     7
  2
_D_1
 10
8.5869696008
 20
3.5054437865
 30
0.0
 11
7.9920504932
 21
3.5054437865
 31
0.0
 70
   160
  1
%%c<>
  3
SLDDIMSTYLE1
 13
7.3369696008
 23
5.3862959355
 33
0.0
 14
8.5869696008
 24
5.3862959355
 34
0.0
  0
INSERT
  5
C5
  8
0
  6
CONTINUOUS
 62
     7
  2
SW_CENTERMARKSYMBOL_0
 10
7.9619696008
 20
5.3862959355
 30
0.0
  0
LINE
  5
C6
  8
0
  6
HIDDEN
 62
     7
 10
7.9619696008
 20
6.8395759355
 30
0.0
 11
7.9619696008
 21
3.9330159355
 31
0.0
  0
LINE
  5
C7
  8
0
  6
CONTINUOUS
 62
     7
 10
7.9619696008
 20
6.8395759355
 30
0.0
 11
8.1519696008
 21
6.8395759355
 31
0.0
  0
SOLID
  5
C8
  8
0
  6
CONTINUOUS
 62
     7
 10
8.1519696008
 20
6.8395759355
 30
0.0
 11
8.0269696008
 21
6.8595759355
 31
0.0
 12
8.0269696008
 22
6.8195759355
 32
0.0
 13
8.0269696008
 23
6.8195759355
 33
0.0
  0
LINE
  5
C9
  8
0
  6
CONTINUOUS
 62
     7
 10
7.9619696008
 20
3.9330159355
 30
0.0
 11
8.1519696008
 21
3.9330159355
 31
0.0
  0
SOLID
  5
CA
  8
0
  6
CONTINUOUS
 62
     7
 10
8.1519696008
 20
3.9330159355
 30
0.0
 11
8.0269696008
 21
3.9530159355
 31
0.0
 12
8.0269696008
 22
3.9130159355
 32
0.0
 13
8.0269696008
 23
3.9130159355
 33
0.0
  0
TEXT
  5
CB
  8
0
  6
CONTINUOUS
 62
     7
 10
8.1802499989
 20
6.8201936996
 30
0.0
 40
0.094
  1
A
 41
0.7
 11
8.1802499989
 21
6.9141936996
 31
0.0
 73
     3
  0
TEXT
  5
CC
  8
0
  6
CONTINUOUS
 62
     7
 10
8.1802499989
 20
3.9136336996
 30
0.0
 40
0.094
  1
A
 41
0.7
 11
8.1802499989
 21
4.0076336996
 31
0.0
 73
     3
  0
LINE
  5
CD
  8
0
  6
CONTINUOUS
 62
     7
 10
3.6555882947
 20
6.4881709355
 30
0.0
 11
3.7024808806
 21
6.5350635213
 31
0.0
  0
LINE
  5
CE
  8
0
  6
CONTINUOUS
 62
     7
 10
3.6264802476
 20
4.6912959355
 30
0.0
 11
3.6764802476
 21
4.7412959355
 31
0.0
  0
LINE
  5
CF
  8
0
  6
CONTINUOUS
 62
     7
 10
3.5262660523
 20
4.2375283496
 30
0.0
 11
3.5731586382
 21
4.2844209355
 31
0.0
  0
LINE
  5
D0
  8
0
  6
CONTINUOUS
 62
     7
 10
3.5522666853
 20
6.0312959355
 30
0.0
 11
3.6022666853
 21
6.0812959355
 31
0.0
  0
LINE
  5
D1
  8
0
  6
CONTINUOUS
 62
     7
 10
3.5380919
 20
6.0812959355
 30
0.0
 11
3.4893734665
 21
6.130014369
 31
0.0
  0
LINE
  5
D2
  8
0
  6
CONTINUOUS
 62
     7
 10
3.6264802476
 20
6.0812959355
 30
0.0
 11
3.4893734665
 21
6.2184027166
 31
0.0
  0
LINE
  5
D3
  8
0
  6
CONTINUOUS
 62
     7
 10
3.7148685953
 20
6.0812959355
 30
0.0
 11
3.4893734665
 21
6.3067910643
 31
0.0
  0
LINE
  5
D4
  8
0
  6
CONTINUOUS
 62
     7
 10
3.7393734665
 20
6.1451794119
 30
0.0
 11
3.4893734665
 21
6.3951794119
 31
0.0
  0
LINE
  5
D5
  8
0
  6
CONTINUOUS
 62
     7
 10
3.7393734665
 20
6.2335677596
 30
0.0
 11
3.4931182878
 21
6.4798229382
 31
0.0
  0
LINE
  5
D6
  8
0
  6
CONTINUOUS
 62
     7
 10
3.7393734665
 20
6.3219561072
 30
0.0
 11
3.5731586382
 21
6.4881709355
 31
0.0
  0
LINE
  5
D7
  8
0
  6
CONTINUOUS
 62
     7
 10
3.7393734665
 20
6.4103444549
 30
0.0
 11
3.6615469859
 21
6.4881709355
 31
0.0
  0
LINE
  5
D8
  8
0
  6
CONTINUOUS
 62
     7
 10
3.567199947
 20
4.2844209355
 30
0.0
 11
3.4893734665
 21
4.362247416
 31
0.0
  0
LINE
  5
D9
  8
0
  6
CONTINUOUS
 62
     7
 10
3.6555882947
 20
4.2844209355
 30
0.0
 11
3.4893734665
 21
4.4506357637
 31
0.0
  0
LINE
  5
DA
  8
0
  6
CONTINUOUS
 62
     7
 10
3.7356286451
 20
4.2927689327
 30
0.0
 11
3.4893734665
 21
4.5390241113
 31
0.0
  0
LINE
  5
DB
  8
0
  6
CONTINUOUS
 62
     7
 10
3.7393734665
 20
4.377412459
 30
0.0
 11
3.4893734665
 21
4.627412459
 31
0.0
  0
LINE
  5
DC
  8
0
  6
CONTINUOUS
 62
     7
 10
3.7393734665
 20
4.4658008066
 30
0.0
 11
3.5138783376
 21
4.6912959355
 31
0.0
  0
LINE
  5
DD
  8
0
  6
CONTINUOUS
 62
     7
 10
3.7393734665
 20
4.5541891543
 30
0.0
 11
3.6022666853
 21
4.6912959355
 31
0.0
  0
LINE
  5
DE
  8
0
  6
CONTINUOUS
 62
     7
 10
3.7393734665
 20
4.6425775019
 30
0.0
 11
3.6906550329
 21
4.6912959355
 31
0.0
  0
LINE
  5
DF
  8
0
  6
CONTINUOUS
 62
     7
 10
3.7393734665
 20
4.627412459
 30
0.0
 11
3.8732569429
 21
4.7612959355
 31
0.0
  0
LINE
  5
E0
  8
0
  6
CONTINUOUS
 62
     7
 10
3.7393734665
 20
4.4506357637
 30
0.0
 11
3.9268734665
 21
4.6381357637
 31
0.0
  0
LINE
  5
E1
  8
0
  6
CONTINUOUS
 62
     7
 10
3.7393734665
 20
4.2738590684
 30
0.0
 11
3.9268734665
 21
4.4613590684
 31
0.0
  0
LINE
  5
E2
  8
0
  6
CONTINUOUS
 62
     7
 10
3.8567120288
 20
4.2144209355
 30
0.0
 11
3.9268734665
 21
4.2845823731
 31
0.0
  0
LINE
  5
E3
  8
0
  6
CONTINUOUS
 62
     7
 10
3.7393734665
 20
6.3951794119
 30
0.0
 11
3.90236499
 21
6.5581709355
 31
0.0
  0
LINE
  5
E4
  8
0
  6
CONTINUOUS
 62
     7
 10
3.7393734665
 20
6.2184027166
 30
0.0
 11
3.9268734665
 21
6.4059027166
 31
0.0
  0
LINE
  5
E5
  8
0
  6
CONTINUOUS
 62
     7
 10
3.7393734665
 20
6.0416260213
 30
0.0
 11
3.9268734665
 21
6.2291260213
 31
0.0
  0
LINE
  5
E6
  8
0
  6
CONTINUOUS
 62
     7
 10
3.8858200759
 20
6.0112959355
 30
0.0
 11
3.9268734665
 21
6.052349326
 31
0.0
  0
LINE
  5
E7
  8
0
  6
CONTINUOUS
 62
     7
 10
3.3018734665
 20
4.7202425449
 30
0.0
 11
3.3429268571
 21
4.7612959355
 31
0.0
  0
LINE
  5
E8
  8
0
  6
CONTINUOUS
 62
     7
 10
3.3018734665
 20
4.5434658496
 30
0.0
 11
3.4893734665
 21
4.7309658496
 31
0.0
  0
LINE
  5
E9
  8
0
  6
CONTINUOUS
 62
     7
 10
3.3018734665
 20
4.3666891543
 30
0.0
 11
3.4893734665
 21
4.5541891543
 31
0.0
  0
LINE
  5
EA
  8
0
  6
CONTINUOUS
 62
     7
 10
3.3263819429
 20
4.2144209355
 30
0.0
 11
3.4893734665
 21
4.377412459
 31
0.0
  0
LINE
  5
EB
  8
0
  6
CONTINUOUS
 62
     7
 10
3.3018734665
 20
6.4880094978
 30
0.0
 11
3.3720349041
 21
6.5581709355
 31
0.0
  0
LINE
  5
EC
  8
0
  6
CONTINUOUS
 62
     7
 10
3.3018734665
 20
6.3112328025
 30
0.0
 11
3.4893734665
 21
6.4987328025
 31
0.0
  0
LINE
  5
ED
  8
0
  6
CONTINUOUS
 62
     7
 10
3.3018734665
 20
6.1344561072
 30
0.0
 11
3.4893734665
 21
6.3219561072
 31
0.0
  0
LINE
  5
EE
  8
0
  6
CONTINUOUS
 62
     7
 10
3.35548999
 20
6.0112959355
 30
0.0
 11
3.4893734665
 21
6.1451794119
 31
0.0
  0
ARC
  5
EF
  8
0
  6
CONTINUOUS
 62
     7
 10
3.3218734665
 20
4.2344209355
 30
0.0
 40
0.02
 50
180.0
 51
270.0
  0
LINE
  5
F0
  8
0
  6
CONTINUOUS
 62
     7
 10
3.3018734665
 20
4.2344209355
 30
0.0
 11
3.3018734665
 21
4.7412959355
 31
0.0
  0
ARC
  5
F1
  8
0
  6
CONTINUOUS
 62
     7
 10
3.3218734665
 20
4.7412959355
 30
0.0
 40
0.0200000000000005
 50
90.0
 51
180.0
  0
LINE
  5
F2
  8
0
  6
CONTINUOUS
 62
     7
 10
3.4693734665
 20
4.7612959355
 30
0.0
 11
3.3218734665
 21
4.7612959355
 31
0.0
  0
ARC
  5
F3
  8
0
  6
CONTINUOUS
 62
     7
 10
3.4693734665
 20
4.7412959355
 30
0.0
 40
0.0200000000000005
 50
0.0
 51
90.0
  0
LINE
  5
F4
  8
0
  6
CONTINUOUS
 62
     7
 10
3.4893734665
 20
4.2344209355
 30
0.0
 11
3.4893734665
 21
4.7412959355
 31
0.0
  0
ARC
  5
F5
  8
0
  6
CONTINUOUS
 62
     7
 10
3.4693734665
 20
4.2344209355
 30
0.0
 40
0.0200000000000005
 50
270.0
 51
0.0
  0
LINE
  5
F6
  8
0
  6
CONTINUOUS
 62
     7
 10
3.4693734665
 20
4.2144209355
 30
0.0
 11
3.3218734665
 21
4.2144209355
 31
0.0
  0
ARC
  5
F7
  8
0
  6
CONTINUOUS
 62
     7
 10
3.4693734665
 20
6.5381709355
 30
0.0
 40
0.0200000000000005
 50
0.0
 51
90.0
  0
ARC
  5
F8
  8
0
  6
CONTINUOUS
 62
     7
 10
3.4693734665
 20
6.0312959355
 30
0.0
 40
0.0200000000000005
 50
270.0
 51
0.0
  0
LINE
  5
F9
  8
0
  6
CONTINUOUS
 62
     7
 10
3.4693734665
 20
6.0112959355
 30
0.0
 11
3.4693734665
 21
4.7612959355
 31
0.0
  0
LINE
  5
FA
  8
0
  6
CONTINUOUS
 62
     7
 10
3.4893734665
 20
6.0312959355
 30
0.0
 11
3.4893734665
 21
4.7412959355
 31
0.0
  0
LINE
  5
FB
  8
0
  6
CONTINUOUS
 62
     7
 10
3.3218734665
 20
6.0112959355
 30
0.0
 11
3.3218734665
 21
4.7612959355
 31
0.0
  0
LINE
  5
FC
  8
0
  6
CONTINUOUS
 62
     7
 10
3.3218734665
 20
6.0112959355
 30
0.0
 11
3.4693734665
 21
6.0112959355
 31
0.0
  0
LINE
  5
FD
  8
0
  6
CONTINUOUS
 62
     7
 10
3.3018734665
 20
6.0312959355
 30
0.0
 11
3.3018734665
 21
4.7412959355
 31
0.0
  0
ARC
  5
FE
  8
0
  6
CONTINUOUS
 62
     7
 10
3.3218734665
 20
6.0312959355
 30
0.0
 40
0.0200000000000005
 50
180.0
 51
270.0
  0
ARC
  5
FF
  8
0
  6
CONTINUOUS
 62
     7
 10
3.3218734665
 20
6.5381709355
 30
0.0
 40
0.0200000000000005
 50
90.0
 51
180.0
  0
LINE
  5
100
  8
0
  6
CONTINUOUS
 62
     7
 10
3.3218734665
 20
6.5581709355
 30
0.0
 11
3.4693734665
 21
6.5581709355
 31
0.0
  0
LINE
  5
101
  8
0
  6
CONTINUOUS
 62
     7
 10
3.3018734665
 20
6.0312959355
 30
0.0
 11
3.3018734665
 21
6.5381709355
 31
0.0
  0
LINE
  5
102
  8
0
  6
CONTINUOUS
 62
     7
 10
3.4893734665
 20
6.0312959355
 30
0.0
 11
3.4893734665
 21
6.5381709355
 31
0.0
  0
ARC
  5
103
  8
0
  6
CONTINUOUS
 62
     7
 10
3.7593734665
 20
4.2344209355
 30
0.0
 40
0.02
 50
180.0
 51
270.0
  0
LINE
  5
104
  8
0
  6
CONTINUOUS
 62
     7
 10
3.7393734665
 20
4.2344209355
 30
0.0
 11
3.7393734665
 21
4.7412959355
 31
0.0
  0
ARC
  5
105
  8
0
  6
CONTINUOUS
 62
     7
 10
3.7593734665
 20
4.7412959355
 30
0.0
 40
0.0200000000000005
 50
90.0
 51
180.0
  0
LINE
  5
106
  8
0
  6
CONTINUOUS
 62
     7
 10
3.9068734665
 20
4.7612959355
 30
0.0
 11
3.7593734665
 21
4.7612959355
 31
0.0
  0
ARC
  5
107
  8
0
  6
CONTINUOUS
 62
     7
 10
3.9068734665
 20
4.7412959355
 30
0.0
 40
0.0200000000000005
 50
0.0
 51
90.0
  0
LINE
  5
108
  8
0
  6
CONTINUOUS
 62
     7
 10
3.9268734665
 20
4.2344209355
 30
0.0
 11
3.9268734665
 21
4.7412959355
 31
0.0
  0
ARC
  5
109
  8
0
  6
CONTINUOUS
 62
     7
 10
3.9068734665
 20
4.2344209355
 30
0.0
 40
0.0200000000000005
 50
270.0
 51
0.0
  0
LINE
  5
10A
  8
0
  6
CONTINUOUS
 62
     7
 10
3.9068734665
 20
4.2144209355
 30
0.0
 11
3.7593734665
 21
4.2144209355
 31
0.0
  0
ARC
  5
10B
  8
0
  6
CONTINUOUS
 62
     7
 10
3.9068734665
 20
6.5381709355
 30
0.0
 40
0.0200000000000005
 50
0.0
 51
90.0
  0
ARC
  5
10C
  8
0
  6
CONTINUOUS
 62
     7
 10
3.9068734665
 20
6.0312959355
 30
0.0
 40
0.0200000000000005
 50
270.0
 51
0.0
  0
LINE
  5
10D
  8
0
  6
CONTINUOUS
 62
     7
 10
3.9068734665
 20
6.0112959355
 30
0.0
 11
3.9068734665
 21
4.7612959355
 31
0.0
  0
LINE
  5
10E
  8
0
  6
CONTINUOUS
 62
     7
 10
3.9268734665
 20
6.0312959355
 30
0.0
 11
3.9268734665
 21
4.7412959355
 31
0.0
  0
LINE
  5
10F
  8
0
  6
CONTINUOUS
 62
     7
 10
3.7593734665
 20
6.0112959355
 30
0.0
 11
3.7593734665
 21
4.7612959355
 31
0.0
  0
LINE
  5
110
  8
0
  6
CONTINUOUS
 62
     7
 10
3.7593734665
 20
6.0112959355
 30
0.0
 11
3.9068734665
 21
6.0112959355
 31
0.0
  0
LINE
  5
111
  8
0
  6
CONTINUOUS
 62
     7
 10
3.7393734665
 20
6.0312959355
 30
0.0
 11
3.7393734665
 21
4.7412959355
 31
0.0
  0
ARC
  5
112
  8
0
  6
CONTINUOUS
 62
     7
 10
3.7593734665
 20
6.0312959355
 30
0.0
 40
0.0200000000000005
 50
180.0
 51
270.0
  0
ARC
  5
113
  8
0
  6
CONTINUOUS
 62
     7
 10
3.7593734665
 20
6.5381709355
 30
0.0
 40
0.0200000000000005
 50
90.0
 51
180.0
  0
LINE
  5
114
  8
0
  6
CONTINUOUS
 62
     7
 10
3.7593734665
 20
6.5581709355
 30
0.0
 11
3.9068734665
 21
6.5581709355
 31
0.0
  0
LINE
  5
115
  8
0
  6
CONTINUOUS
 62
     7
 10
3.7393734665
 20
6.0312959355
 30
0.0
 11
3.7393734665
 21
6.5381709355
 31
0.0
  0
LINE
  5
116
  8
0
  6
CONTINUOUS
 62
     7
 10
3.9268734665
 20
6.0312959355
 30
0.0
 11
3.9268734665
 21
6.5381709355
 31
0.0
  0
ARC
  5
117
  8
0
  6
CONTINUOUS
 62
     7
 10
3.5093734665
 20
4.6712959355
 30
0.0
 40
0.0199999999999996
 50
90.0
 51
180.0
  0
ARC
  5
118
  8
0
  6
CONTINUOUS
 62
     7
 10
3.7193734665
 20
4.6712959355
 30
0.0
 40
0.0199999999999996
 50
0.0
 51
90.0
  0
LINE
  5
119
  8
0
  6
CONTINUOUS
 62
     7
 10
3.4893734665
 20
4.6712959355
 30
0.0
 11
3.4893734665
 21
4.3044209355
 31
0.0
  0
LINE
  5
11A
  8
0
  6
CONTINUOUS
 62
     7
 10
3.7393734665
 20
4.3044209355
 30
0.0
 11
3.7393734665
 21
4.6712959355
 31
0.0
  0
ARC
  5
11B
  8
0
  6
CONTINUOUS
 62
     7
 10
3.5093734665
 20
4.3044209355
 30
0.0
 40
0.0199999999999996
 50
180.0
 51
270.0
  0
ARC
  5
11C
  8
0
  6
CONTINUOUS
 62
     7
 10
3.7193734665
 20
4.3044209355
 30
0.0
 40
0.0199999999999996
 50
270.0
 51
0.0
  0
LINE
  5
11D
  8
0
  6
CONTINUOUS
 62
     7
 10
3.5093734665
 20
4.6912959355
 30
0.0
 11
3.7193734665
 21
4.6912959355
 31
0.0
  0
LINE
  5
11E
  8
0
  6
CONTINUOUS
 62
     7
 10
3.5093734665
 20
4.2844209355
 30
0.0
 11
3.7193734665
 21
4.2844209355
 31
0.0
  0
ARC
  5
11F
  8
0
  6
CONTINUOUS
 62
     7
 10
3.7193734665
 20
6.1012959355
 30
0.0
 40
0.0200000000000005
 50
270.0
 51
0.0
  0
ARC
  5
120
  8
0
  6
CONTINUOUS
 62
     7
 10
3.5093734665
 20
6.1012959355
 30
0.0
 40
0.0200000000000005
 50
180.0
 51
270.0
  0
LINE
  5
121
  8
0
  6
CONTINUOUS
 62
     7
 10
3.7393734665
 20
6.1012959355
 30
0.0
 11
3.7393734665
 21
6.4681709355
 31
0.0
  0
LINE
  5
122
  8
0
  6
CONTINUOUS
 62
     7
 10
3.4893734665
 20
6.4681709355
 30
0.0
 11
3.4893734665
 21
6.1012959355
 31
0.0
  0
ARC
  5
123
  8
0
  6
CONTINUOUS
 62
     7
 10
3.7193734665
 20
6.4681709355
 30
0.0
 40
0.0200000000000005
 50
0.0
 51
90.0
  0
ARC
  5
124
  8
0
  6
CONTINUOUS
 62
     7
 10
3.5093734665
 20
6.4681709355
 30
0.0
 40
0.0200000000000005
 50
90.0
 51
180.0
  0
LINE
  5
125
  8
0
  6
CONTINUOUS
 62
     7
 10
3.7193734665
 20
6.0812959355
 30
0.0
 11
3.5093734665
 21
6.0812959355
 31
0.0
  0
LINE
  5
126
  8
0
  6
CONTINUOUS
 62
     7
 10
3.7193734665
 20
6.4881709355
 30
0.0
 11
3.5093734665
 21
6.4881709355
 31
0.0
  0
LINE
  5
127
  8
0
  6
CONTINUOUS
 62
     7
 10
3.5093734665
 20
6.4881709355
 30
0.0
 11
3.5093734665
 21
6.5181709355
 31
0.0
  0
LINE
  5
128
  8
0
  6
CONTINUOUS
 62
     7
 10
3.5293734665
 20
6.5381709355
 30
0.0
 11
3.5093734665
 21
6.5181709355
 31
0.0
  0
LINE
  5
129
  8
0
  6
CONTINUOUS
 62
     7
 10
3.6993734665
 20
6.5381709355
 30
0.0
 11
3.5293734665
 21
6.5381709355
 31
0.0
  0
LINE
  5
12A
  8
0
  6
CONTINUOUS
 62
     7
 10
3.7193734665
 20
6.5181709355
 30
0.0
 11
3.6993734665
 21
6.5381709355
 31
0.0
  0
LINE
  5
12B
  8
0
  6
CONTINUOUS
 62
     7
 10
3.7193734665
 20
6.4881709355
 30
0.0
 11
3.7193734665
 21
6.5181709355
 31
0.0
  0
LINE
  5
12C
  8
0
  6
CONTINUOUS
 62
     7
 10
3.5293734665
 20
4.2344209355
 30
0.0
 11
3.6993734665
 21
4.2344209355
 31
0.0
  0
LINE
  5
12D
  8
0
  6
CONTINUOUS
 62
     7
 10
3.6993734665
 20
4.2344209355
 30
0.0
 11
3.7193734665
 21
4.2544209355
 31
0.0
  0
LINE
  5
12E
  8
0
  6
CONTINUOUS
 62
     7
 10
3.5293734665
 20
4.7412959355
 30
0.0
 11
3.6993734665
 21
4.7412959355
 31
0.0
  0
LINE
  5
12F
  8
0
  6
CONTINUOUS
 62
     7
 10
3.7193734665
 20
4.7212959355
 30
0.0
 11
3.6993734665
 21
4.7412959355
 31
0.0
  0
LINE
  5
130
  8
0
  6
CONTINUOUS
 62
     7
 10
3.5093734665
 20
4.7212959355
 30
0.0
 11
3.5293734665
 21
4.7412959355
 31
0.0
  0
LINE
  5
131
  8
0
  6
CONTINUOUS
 62
     7
 10
3.7193734665
 20
4.6912959355
 30
0.0
 11
3.7193734665
 21
4.7212959355
 31
0.0
  0
LINE
  5
132
  8
0
  6
CONTINUOUS
 62
     7
 10
3.5093734665
 20
4.6912959355
 30
0.0
 11
3.5093734665
 21
4.7212959355
 31
0.0
  0
LINE
  5
133
  8
0
  6
CONTINUOUS
 62
     7
 10
3.5093734665
 20
4.2544209355
 30
0.0
 11
3.5293734665
 21
4.2344209355
 31
0.0
  0
LINE
  5
134
  8
0
  6
CONTINUOUS
 62
     7
 10
3.7193734665
 20
4.2544209355
 30
0.0
 11
3.7193734665
 21
4.2844209355
 31
0.0
  0
LINE
  5
135
  8
0
  6
CONTINUOUS
 62
     7
 10
3.5093734665
 20
4.2544209355
 30
0.0
 11
3.5093734665
 21
4.2844209355
 31
0.0
  0
LINE
  5
136
  8
0
  6
CONTINUOUS
 62
     7
 10
3.6993734665
 20
6.0312959355
 30
0.0
 11
3.6993734665
 21
4.7412959355
 31
0.0
  0
LINE
  5
137
  8
0
  6
CONTINUOUS
 62
     7
 10
3.6993734665
 20
6.0312959355
 30
0.0
 11
3.7193734665
 21
6.0512959355
 31
0.0
  0
LINE
  5
138
  8
0
  6
CONTINUOUS
 62
     7
 10
3.7193734665
 20
6.0512959355
 30
0.0
 11
3.7193734665
 21
4.7212959355
 31
0.0
  0
LINE
  5
139
  8
0
  6
CONTINUOUS
 62
     7
 10
3.6993734665
 20
6.0312959355
 30
0.0
 11
3.5293734665
 21
6.0312959355
 31
0.0
  0
LINE
  5
13A
  8
0
  6
CONTINUOUS
 62
     7
 10
3.5293734665
 20
6.0312959355
 30
0.0
 11
3.5293734665
 21
4.7412959355
 31
0.0
  0
LINE
  5
13B
  8
0
  6
CONTINUOUS
 62
     7
 10
3.5293734665
 20
6.0312959355
 30
0.0
 11
3.5093734665
 21
6.0512959355
 31
0.0
  0
LINE
  5
13C
  8
0
  6
CONTINUOUS
 62
     7
 10
3.5093734665
 20
6.0512959355
 30
0.0
 11
3.5093734665
 21
4.7212959355
 31
0.0
  0
LINE
  5
13D
  8
0
  6
CONTINUOUS
 62
     7
 10
3.7193734665
 20
6.0512959355
 30
0.0
 11
3.7193734665
 21
6.0812959355
 31
0.0
  0
LINE
  5
13E
  8
0
  6
CONTINUOUS
 62
     7
 10
3.5093734665
 20
6.0512959355
 30
0.0
 11
3.5093734665
 21
6.0812959355
 31
0.0
  0
ARC
  5
13F
  8
0
  6
CONTINUOUS
 62
     7
 10
3.6143734665
 20
5.3862959355
 30
0.0
 40
0.1250000000000005
 50
327.1401196211
 51
32.8598803789
  0
ARC
  5
140
  8
0
  6
CONTINUOUS
 62
     7
 10
3.6143734665
 20
5.3862959355
 30
0.0
 40
0.1250000000000002
 50
147.1401196211
 51
212.8598803789
  0
DIMENSION
  5
141
  8
0
  6
CONTINUOUS
 62
     7
  2
_D_2
 10
3.3018734665
 20
7.4243126677
 30
0.0
 11
3.6143734665
 21
7.4243126677
 31
0.0
 70
   160
  1
<>
  3
SLDDIMSTYLE2
 13
3.9268734665
 23
6.5381709355
 33
0.0
 14
3.3018734665
 24
6.5381709355
 34
0.0
  0
TEXT
  5
14D
  8
0
  6
CONTINUOUS
 62
     7
 10
3.2261012351
 20
3.7388573045
 30
0.0
 40
0.094
  1
SECTION A-A
 41
0.7
 11
3.2261012351
 21
3.7056508587
 31
0.0
 73
     1
  0
POLYLINE
  5
14E
  8
0
  6
CONTINUOUS
 62
     7
 66
     1
 10
0.0
 20
0.0
 30
0.0
 70
   128
  0
VERTEX
  5
181
  8
0
  6
CONTINUOUS
 62
     7
 10
4.2754718572
 20
2.2104195016
 30
0.0
  0
VERTEX
  5
182
  8
0
  6
CONTINUOUS
 62
     7
 10
4.2736205134
 20
2.2240827385
 30
0.0
  0
VERTEX
  5
183
  8
0
  6
CONTINUOUS
 62
     7
 10
4.2676455618
 20
2.2528112484
 30
0.0
  0
VERTEX
  5
184
  8
0
  6
CONTINUOUS
 62
     7
 10
4.2596145229
 20
2.2813647914
 30
0.0
  0
VERTEX
  5
185
  8
0
  6
CONTINUOUS
 62
     7
 10
4.2495380107
 20
2.3096972053
 30
0.0
  0
VERTEX
  5
186
  8
0
  6
CONTINUOUS
 62
     7
 10
4.2374293469
 20
2.3377609884
 30
0.0
  0
VERTEX
  5
187
  8
0
  6
CONTINUOUS
 62
     7
 10
4.2233053611
 20
2.3655071661
 30
0.0
  0
VERTEX
  5
188
  8
0
  6
CONTINUOUS
 62
     7
 10
4.2071870973
 20
2.3928854995
 30
0.0
  0
VERTEX
  5
189
  8
0
  6
CONTINUOUS
 62
     7
 10
4.1891003079
 20
2.4198449552
 30
0.0
  0
VERTEX
  5
18A
  8
0
  6
CONTINUOUS
 62
     7
 10
4.1690756775
 20
2.4463343259
 30
0.0
  0
VERTEX
  5
18B
  8
0
  6
CONTINUOUS
 62
     7
 10
4.1471487858
 20
2.4723028779
 30
0.0
  0
VERTEX
  5
18C
  8
0
  6
CONTINUOUS
 62
     7
 10
4.1233598655
 20
2.4977009323
 30
0.0
  0
VERTEX
  5
18D
  8
0
  6
CONTINUOUS
 62
     7
 10
4.0977534323
 20
2.5224803212
 30
0.0
  0
VERTEX
  5
18E
  8
0
  6
CONTINUOUS
 62
     7
 10
4.0703778635
 20
2.5465946984
 30
0.0
  0
VERTEX
  5
18F
  8
0
  6
CONTINUOUS
 62
     7
 10
4.0412849849
 20
2.5699997167
 30
0.0
  0
VERTEX
  5
190
  8
0
  6
CONTINUOUS
 62
     7
 10
4.0105297019
 20
2.5926530974
 30
0.0
  0
VERTEX
  5
191
  8
0
  6
CONTINUOUS
 62
     7
 10
3.9781696946
 20
2.6145146272
 30
0.0
  0
VERTEX
  5
192
  8
0
  6
CONTINUOUS
 62
     7
 10
3.9442651749
 20
2.6355461113
 30
0.0
  0
VERTEX
  5
193
  8
0
  6
CONTINUOUS
 62
     7
 10
3.9088791125
 20
2.6557110832
 30
0.0
  0
VERTEX
  5
194
  8
0
  6
CONTINUOUS
 62
     7
 10
3.8720766307
 20
2.6749750629
 30
0.0
  0
VERTEX
  5
195
  8
0
  6
CONTINUOUS
 62
     7
 10
3.8339244322
 20
2.6933056884
 30
0.0
  0
VERTEX
  5
196
  8
0
  6
CONTINUOUS
 62
     7
 10
3.7944912195
 20
2.710672351
 30
0.0
  0
VERTEX
  5
197
  8
0
  6
CONTINUOUS
 62
     7
 10
3.7538476152
 20
2.7270461734
 30
0.0
  0
VERTEX
  5
198
  8
0
  6
CONTINUOUS
 62
     7
 10
3.7120660836
 20
2.7424000034
 30
0.0
  0
VERTEX
  5
199
  8
0
  6
CONTINUOUS
 62
     7
 10
3.6692208485
 20
2.7567084201
 30
0.0
  0
VERTEX
  5
19A
  8
0
  6
CONTINUOUS
 62
     7
 10
3.6253878048
 20
2.7699477492
 30
0.0
  0
VERTEX
  5
19B
  8
0
  6
CONTINUOUS
 62
     7
 10
3.5806444233
 20
2.7820960859
 30
0.0
  0
VERTEX
  5
19C
  8
0
  6
CONTINUOUS
 62
     7
 10
3.5350696478
 20
2.7931333214
 30
0.0
  0
VERTEX
  5
19D
  8
0
  6
CONTINUOUS
 62
     7
 10
3.4887437839
 20
2.8030411735
 30
0.0
  0
VERTEX
  5
19E
  8
0
  6
CONTINUOUS
 62
     7
 10
3.4417483818
 20
2.811803216
 30
0.0
  0
VERTEX
  5
19F
  8
0
  6
CONTINUOUS
 62
     7
 10
3.3941661109
 20
2.8194049091
 30
0.0
  0
VERTEX
  5
1A0
  8
0
  6
CONTINUOUS
 62
     7
 10
3.34608063
 20
2.8258336274
 30
0.0
  0
VERTEX
  5
1A1
  8
0
  6
CONTINUOUS
 62
     7
 10
3.2975764515
 20
2.8310786853
 30
0.0
  0
VERTEX
  5
1A2
  8
0
  6
CONTINUOUS
 62
     7
 10
3.2487388016
 20
2.8351313593
 30
0.0
  0
VERTEX
  5
1A3
  8
0
  6
CONTINUOUS
 62
     7
 10
3.1996534769
 20
2.8379849073
 30
0.0
  0
VERTEX
  5
1A4
  8
0
  6
CONTINUOUS
 62
     7
 10
3.1504066979
 20
2.8396345824
 30
0.0
  0
VERTEX
  5
1A5
  8
0
  6
CONTINUOUS
 62
     7
 10
3.101084961
 20
2.8400776442
 30
0.0
  0
VERTEX
  5
1A6
  8
0
  6
CONTINUOUS
 62
     7
 10
3.0517748882
 20
2.8393133637
 30
0.0
  0
VERTEX
  5
1A7
  8
0
  6
CONTINUOUS
 62
     7
 10
3.0025632611
 20
2.837343035
 30
0.0
  0
VERTEX
  5
1A8
  8
0
  6
CONTINUOUS
 62
     7
 10
2.953536605
 20
2.834169974
 30
0.0
  0
VERTEX
  5
1A9
  8
0
  6
CONTINUOUS
 62
     7
 10
2.9047810084
 20
2.8297994973
 30
0.0
  0
VERTEX
  5
1AA
  8
0
  6
CONTINUOUS
 62
     7
 10
2.8563820809
 20
2.8242389098
 30
0.0
  0
VERTEX
  5
1AB
  8
0
  6
CONTINUOUS
 62
     7
 10
2.8084248063
 20
2.8174974871
 30
0.0
  0
VERTEX
  5
1AC
  8
0
  6
CONTINUOUS
 62
     7
 10
2.760993397
 20
2.8095864532
 30
0.0
  0
VERTEX
  5
1AD
  8
0
  6
CONTINUOUS
 62
     7
 10
2.7141711523
 20
2.8005189538
 30
0.0
  0
VERTEX
  5
1AE
  8
0
  6
CONTINUOUS
 62
     7
 10
2.6680403208
 20
2.7903100265
 30
0.0
  0
VERTEX
  5
1AF
  8
0
  6
CONTINUOUS
 62
     7
 10
2.6226819666
 20
2.778976566
 30
0.0
  0
VERTEX
  5
1B0
  8
0
  6
CONTINUOUS
 62
     7
 10
2.5781758424
 20
2.7665372875
 30
0.0
  0
VERTEX
  5
1B1
  8
0
  6
CONTINUOUS
 62
     7
 10
2.5346002681
 20
2.7530126873
 30
0.0
  0
VERTEX
  5
1B2
  8
0
  6
CONTINUOUS
 62
     7
 10
2.4920320172
 20
2.7384250022
 30
0.0
  0
VERTEX
  5
1B3
  8
0
  6
CONTINUOUS
 62
     7
 10
2.4505462118
 20
2.7227981697
 30
0.0
  0
VERTEX
  5
1B4
  8
0
  6
CONTINUOUS
 62
     7
 10
2.4102162258
 20
2.7061577889
 30
0.0
  0
VERTEX
  5
1B5
  8
0
  6
CONTINUOUS
 62
     7
 10
2.3711135987
 20
2.6885310874
 30
0.0
  0
VERTEX
  5
1B6
  8
0
  6
CONTINUOUS
 62
     7
 10
2.3333079589
 20
2.6699468937
 30
0.0
  0
VERTEX
  5
1B7
  8
0
  6
CONTINUOUS
 62
     7
 10
2.2968669557
 20
2.650435621
 30
0.0
  0
VERTEX
  5
1B8
  8
0
  6
CONTINUOUS
 62
     7
 10
2.283150411
 20
2.6426460722
 30
0.0
  0
SEQEND
  5
670
  8
0
  6
CONTINUOUS
 62
     7
  0
POLYLINE
  5
14F
  8
0
  6
CONTINUOUS
 62
     7
 66
     1
 10
0.0
 20
0.0
 30
0.0
 70
   128
  0
VERTEX
  5
1B9
  8
0
  6
CONTINUOUS
 62
     7
 10
2.283150411
 20
2.6426460722
 30
0.0
  0
VERTEX
  5
1BA
  8
0
  6
CONTINUOUS
 62
     7
 10
2.2648167396
 20
2.6318230465
 30
0.0
  0
VERTEX
  5
1BB
  8
0
  6
CONTINUOUS
 62
     7
 10
2.2311713963
 20
2.6106300069
 30
0.0
  0
VERTEX
  5
1BC
  8
0
  6
CONTINUOUS
 62
     7
 10
2.1990729658
 20
2.5886057881
 30
0.0
  0
VERTEX
  5
1BD
  8
0
  6
CONTINUOUS
 62
     7
 10
2.1685844394
 20
2.5657894855
 30
0.0
  0
VERTEX
  5
1BE
  8
0
  6
CONTINUOUS
 62
     7
 10
2.1397632192
 20
2.5422200972
 30
0.0
  0
VERTEX
  5
1BF
  8
0
  6
CONTINUOUS
 62
     7
 10
2.1126640465
 20
2.5179384205
 30
0.0
  0
VERTEX
  5
1C0
  8
0
  6
CONTINUOUS
 62
     7
 10
2.087339065
 20
2.4929873389
 30
0.0
  0
VERTEX
  5
1C1
  8
0
  6
CONTINUOUS
 62
     7
 10
2.0638375826
 20
2.4674119503
 30
0.0
  0
VERTEX
  5
1C2
  8
0
  6
CONTINUOUS
 62
     7
 10
2.0422057544
 20
2.4412596633
 30
0.0
  0
VERTEX
  5
1C3
  8
0
  6
CONTINUOUS
 62
     7
 10
2.0224861833
 20
2.4145802214
 30
0.0
  0
VERTEX
  5
1C4
  8
0
  6
CONTINUOUS
 62
     7
 10
2.0047174523
 20
2.3874256121
 30
0.0
  0
VERTEX
  5
1C5
  8
0
  6
CONTINUOUS
 62
     7
 10
1.9889336244
 20
2.3598498123
 30
0.0
  0
VERTEX
  5
1C6
  8
0
  6
CONTINUOUS
 62
     7
 10
1.9751637733
 20
2.3319083415
 30
0.0
  0
VERTEX
  5
1C7
  8
0
  6
CONTINUOUS
 62
     7
 10
1.9634316308
 20
2.3036576218
 30
0.0
  0
VERTEX
  5
1C8
  8
0
  6
CONTINUOUS
 62
     7
 10
1.9537554432
 20
2.2751541887
 30
0.0
  0
VERTEX
  5
1C9
  8
0
  6
CONTINUOUS
 62
     7
 10
1.9461481101
 20
2.2464538484
 30
0.0
  0
VERTEX
  5
1CA
  8
0
  6
CONTINUOUS
 62
     7
 10
1.9406176323
 20
2.2176109156
 30
0.0
  0
VERTEX
  5
1CB
  8
0
  6
CONTINUOUS
 62
     7
 10
1.9400033167
 20
2.212458703
 30
0.0
  0
SEQEND
  5
671
  8
0
  6
CONTINUOUS
 62
     7
  0
LINE
  5
150
  8
0
  6
CONTINUOUS
 62
     7
 10
4.2795232219
 20
2.0346852783
 30
0.0
 11
4.2795232219
 21
2.1551250481
 31
0.0
  0
LINE
  5
151
  8
0
  6
CONTINUOUS
 62
     7
 10
1.9357732219
 20
2.1551250481
 30
0.0
 11
1.9357732219
 21
2.0346852783
 31
0.0
  0
POLYLINE
  5
152
  8
0
  6
CONTINUOUS
 62
     7
 66
     1
 10
0.0
 20
0.0
 30
0.0
 70
   128
  0
VERTEX
  5
1CC
  8
0
  6
CONTINUOUS
 62
     7
 10
1.9399617288
 20
1.9774351989
 30
0.0
  0
VERTEX
  5
1CD
  8
0
  6
CONTINUOUS
 62
     7
 10
1.9441498467
 20
1.9525844266
 30
0.0
  0
VERTEX
  5
1CE
  8
0
  6
CONTINUOUS
 62
     7
 10
1.9510652786
 20
1.9239301912
 30
0.0
  0
VERTEX
  5
1CF
  8
0
  6
CONTINUOUS
 62
     7
 10
1.9600322347
 20
1.8954718683
 30
0.0
  0
VERTEX
  5
1D0
  8
0
  6
CONTINUOUS
 62
     7
 10
1.9710389626
 20
1.8672561928
 30
0.0
  0
VERTEX
  5
1D1
  8
0
  6
CONTINUOUS
 62
     7
 10
1.9840706353
 20
1.8393313441
 30
0.0
  0
VERTEX
  5
1D2
  8
0
  6
CONTINUOUS
 62
     7
 10
1.9991085749
 20
1.8117469185
 30
0.0
  0
VERTEX
  5
1D3
  8
0
  6
CONTINUOUS
 62
     7
 10
2.0161296317
 20
1.7845535881
 30
0.0
  0
VERTEX
  5
1D4
  8
0
  6
CONTINUOUS
 62
     7
 10
2.0351058115
 20
1.7578025471
 30
0.0
  0
VERTEX
  5
1D5
  8
0
  6
CONTINUOUS
 62
     7
 10
2.0560041747
 20
1.7315448645
 30
0.0
  0
VERTEX
  5
1D6
  8
0
  6
CONTINUOUS
 62
     7
 10
2.0787869764
 20
1.7058308576
 30
0.0
  0
VERTEX
  5
1D7
  8
0
  6
CONTINUOUS
 62
     7
 10
2.1034119765
 20
1.6807095629
 30
0.0
  0
VERTEX
  5
1D8
  8
0
  6
CONTINUOUS
 62
     7
 10
2.1298328421
 20
1.6562283461
 30
0.0
  0
VERTEX
  5
1D9
  8
0
  6
CONTINUOUS
 62
     7
 10
2.1579995716
 20
1.6324326549
 30
0.0
  0
VERTEX
  5
1DA
  8
0
  6
CONTINUOUS
 62
     7
 10
2.18785889
 20
1.6093658951
 30
0.0
  0
VERTEX
  5
1DB
  8
0
  6
CONTINUOUS
 62
     7
 10
2.2193545903
 20
1.587069398
 30
0.0
  0
VERTEX
  5
1DC
  8
0
  6
CONTINUOUS
 62
     7
 10
2.2524278095
 20
1.5655824475
 30
0.0
  0
VERTEX
  5
1DD
  8
0
  6
CONTINUOUS
 62
     7
 10
2.287017244
 20
1.5449423374
 30
0.0
  0
VERTEX
  5
1DE
  8
0
  6
CONTINUOUS
 62
     7
 10
2.3230585327
 20
1.5251848493
 30
0.0
  0
VERTEX
  5
1DF
  8
0
  6
CONTINUOUS
 62
     7
 10
2.3604860215
 20
1.5063433574
 30
0.0
  0
VERTEX
  5
1E0
  8
0
  6
CONTINUOUS
 62
     7
 10
2.3992320839
 20
1.4884494188
 30
0.0
  0
VERTEX
  5
1E1
  8
0
  6
CONTINUOUS
 62
     7
 10
2.4392271307
 20
1.4715328497
 30
0.0
  0
VERTEX
  5
1E2
  8
0
  6
CONTINUOUS
 62
     7
 10
2.4803996878
 20
1.4556217392
 30
0.0
  0
VERTEX
  5
1E3
  8
0
  6
CONTINUOUS
 62
     7
 10
2.5226764767
 20
1.44074245
 30
0.0
  0
VERTEX
  5
1E4
  8
0
  6
CONTINUOUS
 62
     7
 10
2.5659824989
 20
1.4269196074
 30
0.0
  0
VERTEX
  5
1E5
  8
0
  6
CONTINUOUS
 62
     7
 10
2.6102411272
 20
1.4141760806
 30
0.0
  0
VERTEX
  5
1E6
  8
0
  6
CONTINUOUS
 62
     7
 10
2.6553742046
 20
1.4025329574
 30
0.0
  0
VERTEX
  5
1E7
  8
0
  6
CONTINUOUS
 62
     7
 10
2.7013021509
 20
1.3920095159
 30
0.0
  0
VERTEX
  5
1E8
  8
0
  6
CONTINUOUS
 62
     7
 10
2.747944077
 20
1.3826231941
 30
0.0
  0
VERTEX
  5
1E9
  8
0
  6
CONTINUOUS
 62
     7
 10
2.7952179055
 20
1.3743895601
 30
0.0
  0
VERTEX
  5
1EA
  8
0
  6
CONTINUOUS
 62
     7
 10
2.8430404985
 20
1.3673222824
 30
0.0
  0
VERTEX
  5
1EB
  8
0
  6
CONTINUOUS
 62
     7
 10
2.8913277902
 20
1.3614331033
 30
0.0
  0
VERTEX
  5
1EC
  8
0
  6
CONTINUOUS
 62
     7
 10
2.9399949245
 20
1.3567318146
 30
0.0
  0
VERTEX
  5
1ED
  8
0
  6
CONTINUOUS
 62
     7
 10
2.9889563966
 20
1.3532262366
 30
0.0
  0
VERTEX
  5
1EE
  8
0
  6
CONTINUOUS
 62
     7
 10
3.038126198
 20
1.3509222015
 30
0.0
  0
VERTEX
  5
1EF
  8
0
  6
CONTINUOUS
 62
     7
 10
3.0874179636
 20
1.3498235406
 30
0.0
  0
VERTEX
  5
1F0
  8
0
  6
CONTINUOUS
 62
     7
 10
3.1367451209
 20
1.3499320758
 30
0.0
  0
VERTEX
  5
1F1
  8
0
  6
CONTINUOUS
 62
     7
 10
3.1860210144
 20
1.3512476151
 30
0.0
  0
VERTEX
  5
1F2
  8
0
  6
CONTINUOUS
 62
     7
 10
3.235158844
 20
1.3537679366
 30
0.0
  0
VERTEX
  5
1F3
  8
0
  6
CONTINUOUS
 62
     7
 10
3.2840723238
 20
1.3574888091
 30
0.0
  0
VERTEX
  5
1F4
  8
0
  6
CONTINUOUS
 62
     7
 10
3.3326755656
 20
1.3624040059
 30
0.0
  0
VERTEX
  5
1F5
  8
0
  6
CONTINUOUS
 62
     7
 10
3.3808832275
 20
1.3685053192
 30
0.0
  0
VERTEX
  5
1F6
  8
0
  6
CONTINUOUS
 62
     7
 10
3.4286106603
 20
1.3757825803
 30
0.0
  0
VERTEX
  5
1F7
  8
0
  6
CONTINUOUS
 62
     7
 10
3.4757740513
 20
1.3842236838
 30
0.0
  0
VERTEX
  5
1F8
  8
0
  6
CONTINUOUS
 62
     7
 10
3.5222905644
 20
1.3938146157
 30
0.0
  0
VERTEX
  5
1F9
  8
0
  6
CONTINUOUS
 62
     7
 10
3.568078476
 20
1.4045394856
 30
0.0
  0
VERTEX
  5
1FA
  8
0
  6
CONTINUOUS
 62
     7
 10
3.6130573055
 20
1.4163805622
 30
0.0
  0
VERTEX
  5
1FB
  8
0
  6
CONTINUOUS
 62
     7
 10
3.6571479403
 20
1.4293183118
 30
0.0
  0
VERTEX
  5
1FC
  8
0
  6
CONTINUOUS
 62
     7
 10
3.7002727534
 20
1.4433314378
 30
0.0
  0
VERTEX
  5
1FD
  8
0
  6
CONTINUOUS
 62
     7
 10
3.7423557131
 20
1.4583969217
 30
0.0
  0
VERTEX
  5
1FE
  8
0
  6
CONTINUOUS
 62
     7
 10
3.7833224846
 20
1.4744900622
 30
0.0
  0
VERTEX
  5
1FF
  8
0
  6
CONTINUOUS
 62
     7
 10
3.8231005218
 20
1.4915845124
 30
0.0
  0
VERTEX
  5
200
  8
0
  6
CONTINUOUS
 62
     7
 10
3.8616191494
 20
1.5096523105
 30
0.0
  0
VERTEX
  5
201
  8
0
  6
CONTINUOUS
 62
     7
 10
3.8988096353
 20
1.5286639029
 30
0.0
  0
VERTEX
  5
202
  8
0
  6
CONTINUOUS
 62
     7
 10
3.9346052545
 20
1.548588154
 30
0.0
  0
VERTEX
  5
203
  8
0
  6
CONTINUOUS
 62
     7
 10
3.9689413452
 20
1.5693923406
 30
0.0
  0
VERTEX
  5
204
  8
0
  6
CONTINUOUS
 62
     7
 10
4.0017553631
 20
1.591042125
 30
0.0
  0
VERTEX
  5
205
  8
0
  6
CONTINUOUS
 62
     7
 10
4.0329867195
 20
1.6135013393
 30
0.0
  0
VERTEX
  5
206
  8
0
  6
CONTINUOUS
 62
     7
 10
4.0625765937
 20
1.6367316195
 30
0.0
  0
VERTEX
  5
207
  8
0
  6
CONTINUOUS
 62
     7
 10
4.0904691186
 20
1.6606930772
 30
0.0
  0
VERTEX
  5
208
  8
0
  6
CONTINUOUS
 62
     7
 10
4.1166109386
 20
1.6853437987
 30
0.0
  0
VERTEX
  5
209
  8
0
  6
CONTINUOUS
 62
     7
 10
4.1409514157
 20
1.7106397122
 30
0.0
  0
VERTEX
  5
20A
  8
0
  6
CONTINUOUS
 62
     7
 10
4.1634429098
 20
1.7365344733
 30
0.0
  0
VERTEX
  5
20B
  8
0
  6
CONTINUOUS
 62
     7
 10
4.1840411408
 20
1.7629794019
 30
0.0
  0
VERTEX
  5
20C
  8
0
  6
CONTINUOUS
 62
     7
 10
4.2027056279
 20
1.7899235149
 30
0.0
  0
VERTEX
  5
20D
  8
0
  6
CONTINUOUS
 62
     7
 10
4.2194001813
 20
1.817313701
 30
0.0
  0
VERTEX
  5
20E
  8
0
  6
CONTINUOUS
 62
     7
 10
4.234093395
 20
1.8450950769
 30
0.0
  0
VERTEX
  5
20F
  8
0
  6
CONTINUOUS
 62
     7
 10
4.2467590641
 20
1.8732115425
 30
0.0
  0
VERTEX
  5
210
  8
0
  6
CONTINUOUS
 62
     7
 10
4.2573764353
 20
1.90160651
 30
0.0
  0
VERTEX
  5
211
  8
0
  6
CONTINUOUS
 62
     7
 10
4.2659302034
 20
1.9302237372
 30
0.0
  0
VERTEX
  5
212
  8
0
  6
CONTINUOUS
 62
     7
 10
4.272410204
 20
1.9590081443
 30
0.0
  0
VERTEX
  5
213
  8
0
  6
CONTINUOUS
 62
     7
 10
4.2758014997
 20
1.9812784285
 30
0.0
  0
SEQEND
  5
672
  8
0
  6
CONTINUOUS
 62
     7
  0
POLYLINE
  5
153
  8
0
  6
CONTINUOUS
 62
     7
 66
     1
 10
0.0
 20
0.0
 30
0.0
 70
   128
  0
VERTEX
  5
214
  8
0
  6
CONTINUOUS
 62
     7
 10
3.7306924221
 20
2.1278484266
 30
0.0
  0
VERTEX
  5
215
  8
0
  6
CONTINUOUS
 62
     7
 10
3.7271012212
 20
2.1087071514
 30
0.0
  0
VERTEX
  5
216
  8
0
  6
CONTINUOUS
 62
     7
 10
3.721281616
 20
2.0888126026
 30
0.0
  0
VERTEX
  5
217
  8
0
  6
CONTINUOUS
 62
     7
 10
3.7134368319
 20
2.0691527229
 30
0.0
  0
VERTEX
  5
218
  8
0
  6
CONTINUOUS
 62
     7
 10
3.7036071427
 20
2.0497947666
 30
0.0
  0
VERTEX
  5
219
  8
0
  6
CONTINUOUS
 62
     7
 10
3.6918350153
 20
2.030795836
 30
0.0
  0
VERTEX
  5
21A
  8
0
  6
CONTINUOUS
 62
     7
 10
3.6781630015
 20
2.0122073696
 30
0.0
  0
VERTEX
  5
21B
  8
0
  6
CONTINUOUS
 62
     7
 10
3.6626341895
 20
1.9940791778
 30
0.0
  0
VERTEX
  5
21C
  8
0
  6
CONTINUOUS
 62
     7
 10
3.6452938618
 20
1.9764618758
 30
0.0
  0
VERTEX
  5
21D
  8
0
  6
CONTINUOUS
 62
     7
 10
3.6261912959
 20
1.9594077661
 30
0.0
  0
VERTEX
  5
21E
  8
0
  6
CONTINUOUS
 62
     7
 10
3.6053811737
 20
1.9429706747
 30
0.0
  0
VERTEX
  5
21F
  8
0
  6
CONTINUOUS
 62
     7
 10
3.582924454
 20
1.9272052431
 30
0.0
  0
VERTEX
  5
220
  8
0
  6
CONTINUOUS
 62
     7
 10
3.5588887578
 20
1.9121660302
 30
0.0
  0
VERTEX
  5
221
  8
0
  6
CONTINUOUS
 62
     7
 10
3.5333496981
 20
1.8979073208
 30
0.0
  0
VERTEX
  5
222
  8
0
  6
CONTINUOUS
 62
     7
 10
3.5063884524
 20
1.8844809401
 30
0.0
  0
VERTEX
  5
223
  8
0
  6
CONTINUOUS
 62
     7
 10
3.478091354
 20
1.8719359021
 30
0.0
  0
VERTEX
  5
224
  8
0
  6
CONTINUOUS
 62
     7
 10
3.4485503594
 20
1.8603184736
 30
0.0
  0
VERTEX
  5
225
  8
0
  6
CONTINUOUS
 62
     7
 10
3.4178625547
 20
1.8496717553
 30
0.0
  0
VERTEX
  5
226
  8
0
  6
CONTINUOUS
 62
     7
 10
3.3861296428
 20
1.8400353619
 30
0.0
  0
VERTEX
  5
227
  8
0
  6
CONTINUOUS
 62
     7
 10
3.353457432
 20
1.8314451811
 30
0.0
  0
VERTEX
  5
228
  8
0
  6
CONTINUOUS
 62
     7
 10
3.3199553351
 20
1.8239331936
 30
0.0
  0
VERTEX
  5
229
  8
0
  6
CONTINUOUS
 62
     7
 10
3.2857358832
 20
1.8175273395
 30
0.0
  0
VERTEX
  5
22A
  8
0
  6
CONTINUOUS
 62
     7
 10
3.2509142544
 20
1.8122514183
 30
0.0
  0
VERTEX
  5
22B
  8
0
  6
CONTINUOUS
 62
     7
 10
3.215607817
 20
1.8081250152
 30
0.0
  0
VERTEX
  5
22C
  8
0
  6
CONTINUOUS
 62
     7
 10
3.179935684
 20
1.8051634472
 30
0.0
  0
VERTEX
  5
22D
  8
0
  6
CONTINUOUS
 62
     7
 10
3.1440182771
 20
1.8033777243
 30
0.0
  0
VERTEX
  5
22E
  8
0
  6
CONTINUOUS
 62
     7
 10
3.1079768989
 20
1.802774523
 30
0.0
  0
VERTEX
  5
22F
  8
0
  6
CONTINUOUS
 62
     7
 10
3.0719333098
 20
1.8033561697
 30
0.0
  0
VERTEX
  5
230
  8
0
  6
CONTINUOUS
 62
     7
 10
3.036009658
 20
1.8051206102
 30
0.0
  0
VERTEX
  5
231
  8
0
  6
CONTINUOUS
 62
     7
 10
3.000327715
 20
1.8080613864
 30
0.0
  0
VERTEX
  5
232
  8
0
  6
CONTINUOUS
 62
     7
 10
2.9650080802
 20
1.8121676914
 30
0.0
  0
VERTEX
  5
233
  8
0
  6
CONTINUOUS
 62
     7
 10
2.9301701266
 20
1.8174243867
 30
0.0
  0
VERTEX
  5
234
  8
0
  6
CONTINUOUS
 62
     7
 10
2.8959315805
 20
1.8238120256
 30
0.0
  0
VERTEX
  5
235
  8
0
  6
CONTINUOUS
 62
     7
 10
2.8624080954
 20
1.8313068868
 30
0.0
  0
VERTEX
  5
236
  8
0
  6
CONTINUOUS
 62
     7
 10
2.8297128174
 20
1.8398810184
 30
0.0
  0
VERTEX
  5
237
  8
0
  6
CONTINUOUS
 62
     7
 10
2.7979559403
 20
1.8495022963
 30
0.0
  0
VERTEX
  5
238
  8
0
  6
CONTINUOUS
 62
     7
 10
2.7672442459
 20
1.8601345013
 30
0.0
  0
VERTEX
  5
239
  8
0
  6
CONTINUOUS
 62
     7
 10
2.7376806268
 20
1.8717374227
 30
0.0
  0
VERTEX
  5
23A
  8
0
  6
CONTINUOUS
 62
     7
 10
2.7093635874
 20
1.884266999
 30
0.0
  0
VERTEX
  5
23B
  8
0
  6
CONTINUOUS
 62
     7
 10
2.6823867234
 20
1.8976755109
 30
0.0
  0
VERTEX
  5
23C
  8
0
  6
CONTINUOUS
 62
     7
 10
2.6568381796
 20
1.9119118468
 30
0.0
  0
VERTEX
  5
23D
  8
0
  6
CONTINUOUS
 62
     7
 10
2.6328000959
 20
1.9269218692
 30
0.0
  0
VERTEX
  5
23E
  8
0
  6
CONTINUOUS
 62
     7
 10
2.6103480591
 20
1.9426489154
 30
0.0
  0
VERTEX
  5
23F
  8
0
  6
CONTINUOUS
 62
     7
 10
2.5895513356
 20
1.9590338535
 30
0.0
  0
VERTEX
  5
240
  8
0
  6
CONTINUOUS
 62
     7
 10
2.5704724395
 20
1.9760155833
 30
0.0
  0
VERTEX
  5
241
  8
0
  6
CONTINUOUS
 62
     7
 10
2.5531648612
 20
1.9935337417
 30
0.0
  0
VERTEX
  5
242
  8
0
  6
CONTINUOUS
 62
     7
 10
2.5376742761
 20
2.0115292724
 30
0.0
  0
VERTEX
  5
243
  8
0
  6
CONTINUOUS
 62
     7
 10
2.5240390312
 20
2.0299459585
 30
0.0
  0
VERTEX
  5
244
  8
0
  6
CONTINUOUS
 62
     7
 10
2.5122912849
 20
2.0487319196
 30
0.0
  0
VERTEX
  5
245
  8
0
  6
CONTINUOUS
 62
     7
 10
2.5024589176
 20
2.0678406551
 30
0.0
  0
VERTEX
  5
246
  8
0
  6
CONTINUOUS
 62
     7
 10
2.4945681187
 20
2.0872309669
 30
0.0
  0
VERTEX
  5
247
  8
0
  6
CONTINUOUS
 62
     7
 10
2.4886461187
 20
2.1068649334
 30
0.0
  0
VERTEX
  5
248
  8
0
  6
CONTINUOUS
 62
     7
 10
2.4847229123
 20
2.1267033384
 30
0.0
  0
VERTEX
  5
249
  8
0
  6
CONTINUOUS
 62
     7
 10
2.4844064407
 20
2.1300469573
 30
0.0
  0
SEQEND
  5
673
  8
0
  6
CONTINUOUS
 62
     7
  0
POLYLINE
  5
154
  8
0
  6
CONTINUOUS
 62
     7
 66
     1
 10
0.0
 20
0.0
 30
0.0
 70
   128
  0
VERTEX
  5
24A
  8
0
  6
CONTINUOUS
 62
     7
 10
2.4922595024
 20
2.0948850188
 30
0.0
  0
VERTEX
  5
24B
  8
0
  6
CONTINUOUS
 62
     7
 10
2.4959276994
 20
2.1063127076
 30
0.0
  0
VERTEX
  5
24C
  8
0
  6
CONTINUOUS
 62
     7
 10
2.5043105833
 20
2.1258974834
 30
0.0
  0
VERTEX
  5
24D
  8
0
  6
CONTINUOUS
 62
     7
 10
2.5146670177
 20
2.145164149
 30
0.0
  0
VERTEX
  5
24E
  8
0
  6
CONTINUOUS
 62
     7
 10
2.5269544349
 20
2.1640575855
 30
0.0
  0
VERTEX
  5
24F
  8
0
  6
CONTINUOUS
 62
     7
 10
2.5411302578
 20
2.1825271304
 30
0.0
  0
VERTEX
  5
250
  8
0
  6
CONTINUOUS
 62
     7
 10
2.5571509912
 20
2.2005229245
 30
0.0
  0
VERTEX
  5
251
  8
0
  6
CONTINUOUS
 62
     7
 10
2.5749704444
 20
2.2179939317
 30
0.0
  0
VERTEX
  5
252
  8
0
  6
CONTINUOUS
 62
     7
 10
2.5945380027
 20
2.234887393
 30
0.0
  0
VERTEX
  5
253
  8
0
  6
CONTINUOUS
 62
     7
 10
2.6157973593
 20
2.2511491805
 30
0.0
  0
VERTEX
  5
254
  8
0
  6
CONTINUOUS
 62
     7
 10
2.6386857833
 20
2.2667245845
 30
0.0
  0
VERTEX
  5
255
  8
0
  6
CONTINUOUS
 62
     7
 10
2.6615635354
 20
2.2806559172
 30
0.0
  0
VERTEX
  5
256
  8
0
  6
CONTINUOUS
 62
     7
 10
2.6749378425
 20
2.288149535
 30
0.0
  0
VERTEX
  5
257
  8
0
  6
CONTINUOUS
 62
     7
 10
2.7015206645
 20
2.3018024879
 30
0.0
  0
VERTEX
  5
258
  8
0
  6
CONTINUOUS
 62
     7
 10
2.7294672467
 20
2.3145892689
 30
0.0
  0
VERTEX
  5
259
  8
0
  6
CONTINUOUS
 62
     7
 10
2.7586829872
 20
2.3264605904
 30
0.0
  0
VERTEX
  5
25A
  8
0
  6
CONTINUOUS
 62
     7
 10
2.7890721282
 20
2.3373724644
 30
0.0
  0
VERTEX
  5
25B
  8
0
  6
CONTINUOUS
 62
     7
 10
2.8205341583
 20
2.3472843117
 30
0.0
  0
VERTEX
  5
25C
  8
0
  6
CONTINUOUS
 62
     7
 10
2.8529643235
 20
2.3561592224
 30
0.0
  0
VERTEX
  5
25D
  8
0
  6
CONTINUOUS
 62
     7
 10
2.8862541323
 20
2.3639641498
 30
0.0
  0
VERTEX
  5
25E
  8
0
  6
CONTINUOUS
 62
     7
 10
2.9202918454
 20
2.3706700559
 30
0.0
  0
VERTEX
  5
25F
  8
0
  6
CONTINUOUS
 62
     7
 10
2.9549629512
 20
2.3762520193
 30
0.0
  0
VERTEX
  5
260
  8
0
  6
CONTINUOUS
 62
     7
 10
2.9901506263
 20
2.3806893151
 30
0.0
  0
VERTEX
  5
261
  8
0
  6
CONTINUOUS
 62
     7
 10
3.0257361838
 20
2.3839654738
 30
0.0
  0
VERTEX
  5
262
  8
0
  6
CONTINUOUS
 62
     7
 10
3.0615995117
 20
2.3860683238
 30
0.0
  0
VERTEX
  5
263
  8
0
  6
CONTINUOUS
 62
     7
 10
3.0976195026
 20
2.386990021
 30
0.0
  0
VERTEX
  5
264
  8
0
  6
CONTINUOUS
 62
     7
 10
3.1336744778
 20
2.3867270677
 30
0.0
  0
VERTEX
  5
265
  8
0
  6
CONTINUOUS
 62
     7
 10
3.1696424495
 20
2.3852803317
 30
0.0
  0
VERTEX
  5
266
  8
0
  6
CONTINUOUS
 62
     7
 10
3.2054013076
 20
2.3826550949
 30
0.0
  0
VERTEX
  5
267
  8
0
  6
CONTINUOUS
 62
     7
 10
3.2408301942
 20
2.3788609956
 30
0.0
  0
VERTEX
  5
268
  8
0
  6
CONTINUOUS
 62
     7
 10
3.2758093653
 20
2.3739120092
 30
0.0
  0
VERTEX
  5
269
  8
0
  6
CONTINUOUS
 62
     7
 10
3.3102206099
 20
2.3678264264
 30
0.0
  0
VERTEX
  5
26A
  8
0
  6
CONTINUOUS
 62
     7
 10
3.3439476748
 20
2.3606268225
 30
0.0
  0
VERTEX
  5
26B
  8
0
  6
CONTINUOUS
 62
     7
 10
3.3768766962
 20
2.3523400166
 30
0.0
  0
VERTEX
  5
26C
  8
0
  6
CONTINUOUS
 62
     7
 10
3.4088966415
 20
2.3429970171
 30
0.0
  0
VERTEX
  5
26D
  8
0
  6
CONTINUOUS
 62
     7
 10
3.439899765
 20
2.3326329507
 30
0.0
  0
VERTEX
  5
26E
  8
0
  6
CONTINUOUS
 62
     7
 10
3.4697820799
 20
2.3212869664
 30
0.0
  0
VERTEX
  5
26F
  8
0
  6
CONTINUOUS
 62
     7
 10
3.4984438511
 20
2.3090021063
 30
0.0
  0
VERTEX
  5
270
  8
0
  6
CONTINUOUS
 62
     7
 10
3.5257901101
 20
2.2958251286
 30
0.0
  0
VERTEX
  5
271
  8
0
  6
CONTINUOUS
 62
     7
 10
3.5517311916
 20
2.2818062636
 30
0.0
  0
VERTEX
  5
272
  8
0
  6
CONTINUOUS
 62
     7
 10
3.576183286
 20
2.2669988778
 30
0.0
  0
VERTEX
  5
273
  8
0
  6
CONTINUOUS
 62
     7
 10
3.5990689912
 20
2.251459013
 30
0.0
  0
VERTEX
  5
274
  8
0
  6
CONTINUOUS
 62
     7
 10
3.620317635
 20
2.2352449249
 30
0.0
  0
VERTEX
  5
275
  8
0
  6
CONTINUOUS
 62
     7
 10
3.6398641837
 20
2.2184177666
 30
0.0
  0
VERTEX
  5
276
  8
0
  6
CONTINUOUS
 62
     7
 10
3.6576530266
 20
2.2010380109
 30
0.0
  0
VERTEX
  5
277
  8
0
  6
CONTINUOUS
 62
     7
 10
3.6736364111
 20
2.1831652115
 30
0.0
  0
VERTEX
  5
278
  8
0
  6
CONTINUOUS
 62
     7
 10
3.6877741009
 20
2.1648565032
 30
0.0
  0
VERTEX
  5
279
  8
0
  6
CONTINUOUS
 62
     7
 10
3.700032428
 20
2.1461650644
 30
0.0
  0
VERTEX
  5
27A
  8
0
  6
CONTINUOUS
 62
     7
 10
3.7103825924
 20
2.127138896
 30
0.0
  0
VERTEX
  5
27B
  8
0
  6
CONTINUOUS
 62
     7
 10
3.718798228
 20
2.1078205192
 30
0.0
  0
VERTEX
  5
27C
  8
0
  6
CONTINUOUS
 62
     7
 10
3.7230608008
 20
2.0948948156
 30
0.0
  0
SEQEND
  5
674
  8
0
  6
CONTINUOUS
 62
     7
  0
LINE
  5
155
  8
0
  6
CONTINUOUS
 62
     7
 10
4.2595232219
 20
1.8468808916
 30
0.0
 11
4.2595232219
 21
1.9087887342
 31
0.0
  0
LINE
  5
156
  8
0
  6
CONTINUOUS
 62
     7
 10
1.9557732219
 20
1.908988647
 30
0.0
 11
1.9557732219
 21
1.8468808916
 31
0.0
  0
LINE
  5
157
  8
0
  6
CONTINUOUS
 62
     7
 10
2.2930172517
 20
1.3767572592
 30
0.0
 11
2.3071616852
 21
1.3685891973
 31
0.0
  0
LINE
  5
158
  8
0
  6
CONTINUOUS
 62
     7
 10
3.9081347586
 20
1.3685891973
 30
0.0
 11
3.9222791922
 21
1.3767572592
 31
0.0
  0
ARC
  5
159
  8
0
  6
CONTINUOUS
 62
     7
 10
3.9387026278
 20
1.8133735337
 30
0.0
 40
0.3391139915492795
 50
6.7416271041
 51
17.6835475558
  0
ARC
  5
15A
  8
0
  6
CONTINUOUS
 62
     7
 10
2.2828190943
 20
1.8125001826
 30
0.0
 40
0.3454675374345541
 50
162.4718503092
 51
172.8963870346
  0
LINE
  5
15B
  8
0
  6
CONTINUOUS
 62
     7
 10
4.2795232219
 20
1.6774486731
 30
0.0
 11
4.2795232219
 21
1.7978884429
 31
0.0
  0
LINE
  5
15C
  8
0
  6
CONTINUOUS
 62
     7
 10
1.9357732219
 20
1.7978884429
 30
0.0
 11
1.9357732219
 21
1.6774486731
 31
0.0
  0
POLYLINE
  5
15D
  8
0
  6
CONTINUOUS
 62
     7
 66
     1
 10
0.0
 20
0.0
 30
0.0
 70
   128
  0
VERTEX
  5
27D
  8
0
  6
CONTINUOUS
 62
     7
 10
1.9399617288
 20
1.6201985937
 30
0.0
  0
VERTEX
  5
27E
  8
0
  6
CONTINUOUS
 62
     7
 10
1.9441498467
 20
1.5953478214
 30
0.0
  0
VERTEX
  5
27F
  8
0
  6
CONTINUOUS
 62
     7
 10
1.9510652786
 20
1.566693586
 30
0.0
  0
VERTEX
  5
280
  8
0
  6
CONTINUOUS
 62
     7
 10
1.9600322347
 20
1.5382352631
 30
0.0
  0
VERTEX
  5
281
  8
0
  6
CONTINUOUS
 62
     7
 10
1.9710389626
 20
1.5100195876
 30
0.0
  0
VERTEX
  5
282
  8
0
  6
CONTINUOUS
 62
     7
 10
1.9840706353
 20
1.4820947389
 30
0.0
  0
VERTEX
  5
283
  8
0
  6
CONTINUOUS
 62
     7
 10
1.9991085749
 20
1.4545103133
 30
0.0
  0
VERTEX
  5
284
  8
0
  6
CONTINUOUS
 62
     7
 10
2.0161296317
 20
1.4273169829
 30
0.0
  0
VERTEX
  5
285
  8
0
  6
CONTINUOUS
 62
     7
 10
2.0351058115
 20
1.4005659419
 30
0.0
  0
VERTEX
  5
286
  8
0
  6
CONTINUOUS
 62
     7
 10
2.0560041747
 20
1.3743082593
 30
0.0
  0
VERTEX
  5
287
  8
0
  6
CONTINUOUS
 62
     7
 10
2.0787869764
 20
1.3485942524
 30
0.0
  0
VERTEX
  5
288
  8
0
  6
CONTINUOUS
 62
     7
 10
2.1034119765
 20
1.3234729577
 30
0.0
  0
VERTEX
  5
289
  8
0
  6
CONTINUOUS
 62
     7
 10
2.1298328421
 20
1.2989917409
 30
0.0
  0
VERTEX
  5
28A
  8
0
  6
CONTINUOUS
 62
     7
 10
2.1579995716
 20
1.2751960497
 30
0.0
  0
VERTEX
  5
28B
  8
0
  6
CONTINUOUS
 62
     7
 10
2.18785889
 20
1.2521292899
 30
0.0
  0
VERTEX
  5
28C
  8
0
  6
CONTINUOUS
 62
     7
 10
2.2193545903
 20
1.2298327928
 30
0.0
  0
VERTEX
  5
28D
  8
0
  6
CONTINUOUS
 62
     7
 10
2.2524278095
 20
1.2083458423
 30
0.0
  0
VERTEX
  5
28E
  8
0
  6
CONTINUOUS
 62
     7
 10
2.287017244
 20
1.1877057322
 30
0.0
  0
VERTEX
  5
28F
  8
0
  6
CONTINUOUS
 62
     7
 10
2.3230585327
 20
1.1679482441
 30
0.0
  0
VERTEX
  5
290
  8
0
  6
CONTINUOUS
 62
     7
 10
2.3604860215
 20
1.1491067522
 30
0.0
  0
VERTEX
  5
291
  8
0
  6
CONTINUOUS
 62
     7
 10
2.3992320839
 20
1.1312128136
 30
0.0
  0
VERTEX
  5
292
  8
0
  6
CONTINUOUS
 62
     7
 10
2.4392271307
 20
1.1142962445
 30
0.0
  0
VERTEX
  5
293
  8
0
  6
CONTINUOUS
 62
     7
 10
2.4803996878
 20
1.098385134
 30
0.0
  0
VERTEX
  5
294
  8
0
  6
CONTINUOUS
 62
     7
 10
2.5226764767
 20
1.0835058448
 30
0.0
  0
VERTEX
  5
295
  8
0
  6
CONTINUOUS
 62
     7
 10
2.5659824989
 20
1.0696830022
 30
0.0
  0
VERTEX
  5
296
  8
0
  6
CONTINUOUS
 62
     7
 10
2.6102411272
 20
1.0569394754
 30
0.0
  0
VERTEX
  5
297
  8
0
  6
CONTINUOUS
 62
     7
 10
2.6553742046
 20
1.0452963522
 30
0.0
  0
VERTEX
  5
298
  8
0
  6
CONTINUOUS
 62
     7
 10
2.7013021509
 20
1.0347729107
 30
0.0
  0
VERTEX
  5
299
  8
0
  6
CONTINUOUS
 62
     7
 10
2.747944077
 20
1.0253865889
 30
0.0
  0
VERTEX
  5
29A
  8
0
  6
CONTINUOUS
 62
     7
 10
2.7952179055
 20
1.0171529549
 30
0.0
  0
VERTEX
  5
29B
  8
0
  6
CONTINUOUS
 62
     7
 10
2.8430404985
 20
1.0100856772
 30
0.0
  0
VERTEX
  5
29C
  8
0
  6
CONTINUOUS
 62
     7
 10
2.8913277902
 20
1.0041964981
 30
0.0
  0
VERTEX
  5
29D
  8
0
  6
CONTINUOUS
 62
     7
 10
2.9399949245
 20
0.9994952094
 30
0.0
  0
VERTEX
  5
29E
  8
0
  6
CONTINUOUS
 62
     7
 10
2.9889563966
 20
0.9959896314
 30
0.0
  0
VERTEX
  5
29F
  8
0
  6
CONTINUOUS
 62
     7
 10
3.038126198
 20
0.9936855963
 30
0.0
  0
VERTEX
  5
2A0
  8
0
  6
CONTINUOUS
 62
     7
 10
3.0874179636
 20
0.9925869354
 30
0.0
  0
VERTEX
  5
2A1
  8
0
  6
CONTINUOUS
 62
     7
 10
3.1367451209
 20
0.9926954706
 30
0.0
  0
VERTEX
  5
2A2
  8
0
  6
CONTINUOUS
 62
     7
 10
3.1860210144
 20
0.9940110099
 30
0.0
  0
VERTEX
  5
2A3
  8
0
  6
CONTINUOUS
 62
     7
 10
3.235158844
 20
0.9965313314
 30
0.0
  0
VERTEX
  5
2A4
  8
0
  6
CONTINUOUS
 62
     7
 10
3.2840723238
 20
1.0002522039
 30
0.0
  0
VERTEX
  5
2A5
  8
0
  6
CONTINUOUS
 62
     7
 10
3.3326755656
 20
1.0051674007
 30
0.0
  0
VERTEX
  5
2A6
  8
0
  6
CONTINUOUS
 62
     7
 10
3.3808832275
 20
1.011268714
 30
0.0
  0
VERTEX
  5
2A7
  8
0
  6
CONTINUOUS
 62
     7
 10
3.4286106603
 20
1.0185459751
 30
0.0
  0
VERTEX
  5
2A8
  8
0
  6
CONTINUOUS
 62
     7
 10
3.4757740513
 20
1.0269870786
 30
0.0
  0
VERTEX
  5
2A9
  8
0
  6
CONTINUOUS
 62
     7
 10
3.5222905644
 20
1.0365780105
 30
0.0
  0
VERTEX
  5
2AA
  8
0
  6
CONTINUOUS
 62
     7
 10
3.568078476
 20
1.0473028804
 30
0.0
  0
VERTEX
  5
2AB
  8
0
  6
CONTINUOUS
 62
     7
 10
3.6130573055
 20
1.059143957
 30
0.0
  0
VERTEX
  5
2AC
  8
0
  6
CONTINUOUS
 62
     7
 10
3.6571479403
 20
1.0720817066
 30
0.0
  0
VERTEX
  5
2AD
  8
0
  6
CONTINUOUS
 62
     7
 10
3.7002727534
 20
1.0860948326
 30
0.0
  0
VERTEX
  5
2AE
  8
0
  6
CONTINUOUS
 62
     7
 10
3.7423557131
 20
1.1011603165
 30
0.0
  0
VERTEX
  5
2AF
  8
0
  6
CONTINUOUS
 62
     7
 10
3.7833224846
 20
1.117253457
 30
0.0
  0
VERTEX
  5
2B0
  8
0
  6
CONTINUOUS
 62
     7
 10
3.8231005218
 20
1.1343479072
 30
0.0
  0
VERTEX
  5
2B1
  8
0
  6
CONTINUOUS
 62
     7
 10
3.8616191494
 20
1.1524157053
 30
0.0
  0
VERTEX
  5
2B2
  8
0
  6
CONTINUOUS
 62
     7
 10
3.8988096353
 20
1.1714272977
 30
0.0
  0
VERTEX
  5
2B3
  8
0
  6
CONTINUOUS
 62
     7
 10
3.9346052545
 20
1.1913515488
 30
0.0
  0
VERTEX
  5
2B4
  8
0
  6
CONTINUOUS
 62
     7
 10
3.9689413452
 20
1.2121557354
 30
0.0
  0
VERTEX
  5
2B5
  8
0
  6
CONTINUOUS
 62
     7
 10
4.0017553631
 20
1.2338055198
 30
0.0
  0
VERTEX
  5
2B6
  8
0
  6
CONTINUOUS
 62
     7
 10
4.0329867195
 20
1.2562647341
 30
0.0
  0
VERTEX
  5
2B7
  8
0
  6
CONTINUOUS
 62
     7
 10
4.0625765937
 20
1.2794950143
 30
0.0
  0
VERTEX
  5
2B8
  8
0
  6
CONTINUOUS
 62
     7
 10
4.0904691186
 20
1.303456472
 30
0.0
  0
VERTEX
  5
2B9
  8
0
  6
CONTINUOUS
 62
     7
 10
4.1166109386
 20
1.3281071935
 30
0.0
  0
VERTEX
  5
2BA
  8
0
  6
CONTINUOUS
 62
     7
 10
4.1409514157
 20
1.353403107
 30
0.0
  0
VERTEX
  5
2BB
  8
0
  6
CONTINUOUS
 62
     7
 10
4.1634429098
 20
1.3792978681
 30
0.0
  0
VERTEX
  5
2BC
  8
0
  6
CONTINUOUS
 62
     7
 10
4.1840411408
 20
1.4057427967
 30
0.0
  0
VERTEX
  5
2BD
  8
0
  6
CONTINUOUS
 62
     7
 10
4.2027056279
 20
1.4326869097
 30
0.0
  0
VERTEX
  5
2BE
  8
0
  6
CONTINUOUS
 62
     7
 10
4.2194001813
 20
1.4600770958
 30
0.0
  0
VERTEX
  5
2BF
  8
0
  6
CONTINUOUS
 62
     7
 10
4.234093395
 20
1.4878584717
 30
0.0
  0
VERTEX
  5
2C0
  8
0
  6
CONTINUOUS
 62
     7
 10
4.2467590641
 20
1.5159749373
 30
0.0
  0
VERTEX
  5
2C1
  8
0
  6
CONTINUOUS
 62
     7
 10
4.2573764353
 20
1.5443699048
 30
0.0
  0
VERTEX
  5
2C2
  8
0
  6
CONTINUOUS
 62
     7
 10
4.2659302034
 20
1.572987132
 30
0.0
  0
VERTEX
  5
2C3
  8
0
  6
CONTINUOUS
 62
     7
 10
4.272410204
 20
1.6017715391
 30
0.0
  0
VERTEX
  5
2C4
  8
0
  6
CONTINUOUS
 62
     7
 10
4.2758014997
 20
1.6240418233
 30
0.0
  0
SEQEND
  5
675
  8
0
  6
CONTINUOUS
 62
     7
  0
ARC
  5
15E
  8
0
  6
CONTINUOUS
 62
     7
 10
3.1076285587
 20
1.0758495732
 30
0.0
 40
0.9570236666488768
 50
61.4208397706
 51
118.5773631228
  0
POLYLINE
  5
15F
  8
0
  6
CONTINUOUS
 62
     7
 66
     1
 10
0.0
 20
0.0
 30
0.0
 70
   128
  0
VERTEX
  5
2C5
  8
0
  6
CONTINUOUS
 62
     7
 10
2.2931495984
 20
2.6416559112
 30
0.0
  0
VERTEX
  5
2C6
  8
0
  6
CONTINUOUS
 62
     7
 10
2.3305120868
 20
2.6622778964
 30
0.0
  0
VERTEX
  5
2C7
  8
0
  6
CONTINUOUS
 62
     7
 10
2.3694396241
 20
2.6819114313
 30
0.0
  0
VERTEX
  5
2C8
  8
0
  6
CONTINUOUS
 62
     7
 10
2.4098538152
 20
2.7005169767
 30
0.0
  0
VERTEX
  5
2C9
  8
0
  6
CONTINUOUS
 62
     7
 10
2.4516732714
 20
2.7180570634
 30
0.0
  0
VERTEX
  5
2CA
  8
0
  6
CONTINUOUS
 62
     7
 10
2.4948137738
 20
2.734496368
 30
0.0
  0
VERTEX
  5
2CB
  8
0
  6
CONTINUOUS
 62
     7
 10
2.5391884432
 20
2.7498017839
 30
0.0
  0
VERTEX
  5
2CC
  8
0
  6
CONTINUOUS
 62
     7
 10
2.584707915
 20
2.7639424882
 30
0.0
  0
VERTEX
  5
2CD
  8
0
  6
CONTINUOUS
 62
     7
 10
2.631280519
 20
2.7768900032
 30
0.0
  0
VERTEX
  5
2CE
  8
0
  6
CONTINUOUS
 62
     7
 10
2.6788124642
 20
2.7886182544
 30
0.0
  0
VERTEX
  5
2CF
  8
0
  6
CONTINUOUS
 62
     7
 10
2.7272080274
 20
2.7991036228
 30
0.0
  0
VERTEX
  5
2D0
  8
0
  6
CONTINUOUS
 62
     7
 10
2.7763697466
 20
2.808324992
 30
0.0
  0
VERTEX
  5
2D1
  8
0
  6
CONTINUOUS
 62
     7
 10
2.8261986166
 20
2.8162637916
 30
0.0
  0
VERTEX
  5
2D2
  8
0
  6
CONTINUOUS
 62
     7
 10
2.8765942886
 20
2.8229040339
 30
0.0
  0
VERTEX
  5
2D3
  8
0
  6
CONTINUOUS
 62
     7
 10
2.9274552725
 20
2.8282323462
 30
0.0
  0
VERTEX
  5
2D4
  8
0
  6
CONTINUOUS
 62
     7
 10
2.978679141
 20
2.8322379981
 30
0.0
  0
VERTEX
  5
2D5
  8
0
  6
CONTINUOUS
 62
     7
 10
3.0301627361
 20
2.8349129228
 30
0.0
  0
VERTEX
  5
2D6
  8
0
  6
CONTINUOUS
 62
     7
 10
3.0818023766
 20
2.8362517332
 30
0.0
  0
VERTEX
  5
2D7
  8
0
  6
CONTINUOUS
 62
     7
 10
3.1334940672
 20
2.8362517332
 30
0.0
  0
VERTEX
  5
2D8
  8
0
  6
CONTINUOUS
 62
     7
 10
3.1851337078
 20
2.8349129228
 30
0.0
  0
VERTEX
  5
2D9
  8
0
  6
CONTINUOUS
 62
     7
 10
3.2366173028
 20
2.8322379981
 30
0.0
  0
VERTEX
  5
2DA
  8
0
  6
CONTINUOUS
 62
     7
 10
3.2878411713
 20
2.8282323462
 30
0.0
  0
VERTEX
  5
2DB
  8
0
  6
CONTINUOUS
 62
     7
 10
3.3387021552
 20
2.8229040339
 30
0.0
  0
VERTEX
  5
2DC
  8
0
  6
CONTINUOUS
 62
     7
 10
3.3890978273
 20
2.8162637916
 30
0.0
  0
VERTEX
  5
2DD
  8
0
  6
CONTINUOUS
 62
     7
 10
3.4389266972
 20
2.808324992
 30
0.0
  0
VERTEX
  5
2DE
  8
0
  6
CONTINUOUS
 62
     7
 10
3.4880884164
 20
2.7991036228
 30
0.0
  0
VERTEX
  5
2DF
  8
0
  6
CONTINUOUS
 62
     7
 10
3.5364839797
 20
2.7886182544
 30
0.0
  0
VERTEX
  5
2E0
  8
0
  6
CONTINUOUS
 62
     7
 10
3.5840159248
 20
2.7768900032
 30
0.0
  0
VERTEX
  5
2E1
  8
0
  6
CONTINUOUS
 62
     7
 10
3.6305885288
 20
2.7639424882
 30
0.0
  0
VERTEX
  5
2E2
  8
0
  6
CONTINUOUS
 62
     7
 10
3.6761080006
 20
2.7498017839
 30
0.0
  0
VERTEX
  5
2E3
  8
0
  6
CONTINUOUS
 62
     7
 10
3.7204826701
 20
2.734496368
 30
0.0
  0
VERTEX
  5
2E4
  8
0
  6
CONTINUOUS
 62
     7
 10
3.7636231725
 20
2.7180570634
 30
0.0
  0
VERTEX
  5
2E5
  8
0
  6
CONTINUOUS
 62
     7
 10
3.8054426287
 20
2.7005169767
 30
0.0
  0
VERTEX
  5
2E6
  8
0
  6
CONTINUOUS
 62
     7
 10
3.8458568198
 20
2.6819114313
 30
0.0
  0
VERTEX
  5
2E7
  8
0
  6
CONTINUOUS
 62
     7
 10
3.884784357
 20
2.6622778964
 30
0.0
  0
VERTEX
  5
2E8
  8
0
  6
CONTINUOUS
 62
     7
 10
3.9221468455
 20
2.6416559112
 30
0.0
  0
VERTEX
  5
2E9
  8
0
  6
CONTINUOUS
 62
     7
 10
3.9578690422
 20
2.6200870057
 30
0.0
  0
VERTEX
  5
2EA
  8
0
  6
CONTINUOUS
 62
     7
 10
3.9918790072
 20
2.5976146168
 30
0.0
  0
VERTEX
  5
2EB
  8
0
  6
CONTINUOUS
 62
     7
 10
4.0241082492
 20
2.5742840009
 30
0.0
  0
VERTEX
  5
2EC
  8
0
  6
CONTINUOUS
 62
     7
 10
4.0544918626
 20
2.5501421427
 30
0.0
  0
VERTEX
  5
2ED
  8
0
  6
CONTINUOUS
 62
     7
 10
4.0829686589
 20
2.5252376608
 30
0.0
  0
VERTEX
  5
2EE
  8
0
  6
CONTINUOUS
 62
     7
 10
4.1094812897
 20
2.4996207094
 30
0.0
  0
VERTEX
  5
2EF
  8
0
  6
CONTINUOUS
 62
     7
 10
4.133976362
 20
2.4733428777
 30
0.0
  0
VERTEX
  5
2F0
  8
0
  6
CONTINUOUS
 62
     7
 10
4.156404546
 20
2.4464570857
 30
0.0
  0
VERTEX
  5
2F1
  8
0
  6
CONTINUOUS
 62
     7
 10
4.1767206743
 20
2.4190174778
 30
0.0
  0
VERTEX
  5
2F2
  8
0
  6
CONTINUOUS
 62
     7
 10
4.194883833
 20
2.3910793138
 30
0.0
  0
VERTEX
  5
2F3
  8
0
  6
CONTINUOUS
 62
     7
 10
4.2108574439
 20
2.3626988574
 30
0.0
  0
VERTEX
  5
2F4
  8
0
  6
CONTINUOUS
 62
     7
 10
4.2246093382
 20
2.3339332631
 30
0.0
  0
VERTEX
  5
2F5
  8
0
  6
CONTINUOUS
 62
     7
 10
4.2361118215
 20
2.3048404609
 30
0.0
  0
VERTEX
  5
2F6
  8
0
  6
CONTINUOUS
 62
     7
 10
4.2453417293
 20
2.2754790398
 30
0.0
  0
VERTEX
  5
2F7
  8
0
  6
CONTINUOUS
 62
     7
 10
4.2522804737
 20
2.24590813
 30
0.0
  0
VERTEX
  5
2F8
  8
0
  6
CONTINUOUS
 62
     7
 10
4.2569140811
 20
2.2161872832
 30
0.0
  0
VERTEX
  5
2F9
  8
0
  6
CONTINUOUS
 62
     7
 10
4.2592332201
 20
2.1863763532
 30
0.0
  0
VERTEX
  5
2FA
  8
0
  6
CONTINUOUS
 62
     7
 10
4.2592332201
 20
2.1565353754
 30
0.0
  0
VERTEX
  5
2FB
  8
0
  6
CONTINUOUS
 62
     7
 10
4.2569140811
 20
2.1267244455
 30
0.0
  0
VERTEX
  5
2FC
  8
0
  6
CONTINUOUS
 62
     7
 10
4.2522804737
 20
2.0970035987
 30
0.0
  0
VERTEX
  5
2FD
  8
0
  6
CONTINUOUS
 62
     7
 10
4.2453417293
 20
2.0674326888
 30
0.0
  0
VERTEX
  5
2FE
  8
0
  6
CONTINUOUS
 62
     7
 10
4.2361118215
 20
2.0380712678
 30
0.0
  0
VERTEX
  5
2FF
  8
0
  6
CONTINUOUS
 62
     7
 10
4.2246093382
 20
2.0089784656
 30
0.0
  0
VERTEX
  5
300
  8
0
  6
CONTINUOUS
 62
     7
 10
4.2108574439
 20
1.9802128713
 30
0.0
  0
VERTEX
  5
301
  8
0
  6
CONTINUOUS
 62
     7
 10
4.194883833
 20
1.9518324149
 30
0.0
  0
VERTEX
  5
302
  8
0
  6
CONTINUOUS
 62
     7
 10
4.1767206743
 20
1.9238942509
 30
0.0
  0
VERTEX
  5
303
  8
0
  6
CONTINUOUS
 62
     7
 10
4.156404546
 20
1.896454643
 30
0.0
  0
VERTEX
  5
304
  8
0
  6
CONTINUOUS
 62
     7
 10
4.133976362
 20
1.869568851
 30
0.0
  0
VERTEX
  5
305
  8
0
  6
CONTINUOUS
 62
     7
 10
4.1094812897
 20
1.8432910193
 30
0.0
  0
VERTEX
  5
306
  8
0
  6
CONTINUOUS
 62
     7
 10
4.0829686589
 20
1.8176740679
 30
0.0
  0
VERTEX
  5
307
  8
0
  6
CONTINUOUS
 62
     7
 10
4.0544918626
 20
1.7927695859
 30
0.0
  0
VERTEX
  5
308
  8
0
  6
CONTINUOUS
 62
     7
 10
4.0241082492
 20
1.7686277278
 30
0.0
  0
VERTEX
  5
309
  8
0
  6
CONTINUOUS
 62
     7
 10
3.9918790072
 20
1.7452971118
 30
0.0
  0
VERTEX
  5
30A
  8
0
  6
CONTINUOUS
 62
     7
 10
3.9578690422
 20
1.7228247229
 30
0.0
  0
VERTEX
  5
30B
  8
0
  6
CONTINUOUS
 62
     7
 10
3.9221468455
 20
1.7012558174
 30
0.0
  0
VERTEX
  5
30C
  8
0
  6
CONTINUOUS
 62
     7
 10
3.884784357
 20
1.6806338323
 30
0.0
  0
VERTEX
  5
30D
  8
0
  6
CONTINUOUS
 62
     7
 10
3.8458568198
 20
1.6610002973
 30
0.0
  0
VERTEX
  5
30E
  8
0
  6
CONTINUOUS
 62
     7
 10
3.8054426287
 20
1.642394752
 30
0.0
  0
VERTEX
  5
30F
  8
0
  6
CONTINUOUS
 62
     7
 10
3.7636231725
 20
1.6248546653
 30
0.0
  0
VERTEX
  5
310
  8
0
  6
CONTINUOUS
 62
     7
 10
3.7204826701
 20
1.6084153607
 30
0.0
  0
VERTEX
  5
311
  8
0
  6
CONTINUOUS
 62
     7
 10
3.6761080006
 20
1.5931099448
 30
0.0
  0
VERTEX
  5
312
  8
0
  6
CONTINUOUS
 62
     7
 10
3.6305885288
 20
1.5789692405
 30
0.0
  0
VERTEX
  5
313
  8
0
  6
CONTINUOUS
 62
     7
 10
3.5840159248
 20
1.5660217255
 30
0.0
  0
VERTEX
  5
314
  8
0
  6
CONTINUOUS
 62
     7
 10
3.5364839797
 20
1.5542934742
 30
0.0
  0
VERTEX
  5
315
  8
0
  6
CONTINUOUS
 62
     7
 10
3.4880884164
 20
1.5438081059
 30
0.0
  0
VERTEX
  5
316
  8
0
  6
CONTINUOUS
 62
     7
 10
3.4389266972
 20
1.5345867366
 30
0.0
  0
VERTEX
  5
317
  8
0
  6
CONTINUOUS
 62
     7
 10
3.3890978273
 20
1.526647937
 30
0.0
  0
VERTEX
  5
318
  8
0
  6
CONTINUOUS
 62
     7
 10
3.3387021552
 20
1.5200076948
 30
0.0
  0
VERTEX
  5
319
  8
0
  6
CONTINUOUS
 62
     7
 10
3.2878411713
 20
1.5146793824
 30
0.0
  0
VERTEX
  5
31A
  8
0
  6
CONTINUOUS
 62
     7
 10
3.2366173028
 20
1.5106737305
 30
0.0
  0
VERTEX
  5
31B
  8
0
  6
CONTINUOUS
 62
     7
 10
3.1851337078
 20
1.5079988059
 30
0.0
  0
VERTEX
  5
31C
  8
0
  6
CONTINUOUS
 62
     7
 10
3.1334940672
 20
1.5066599955
 30
0.0
  0
VERTEX
  5
31D
  8
0
  6
CONTINUOUS
 62
     7
 10
3.0818023766
 20
1.5066599955
 30
0.0
  0
VERTEX
  5
31E
  8
0
  6
CONTINUOUS
 62
     7
 10
3.0301627361
 20
1.5079988059
 30
0.0
  0
VERTEX
  5
31F
  8
0
  6
CONTINUOUS
 62
     7
 10
2.978679141
 20
1.5106737305
 30
0.0
  0
VERTEX
  5
320
  8
0
  6
CONTINUOUS
 62
     7
 10
2.9274552725
 20
1.5146793824
 30
0.0
  0
VERTEX
  5
321
  8
0
  6
CONTINUOUS
 62
     7
 10
2.8765942886
 20
1.5200076948
 30
0.0
  0
VERTEX
  5
322
  8
0
  6
CONTINUOUS
 62
     7
 10
2.8261986166
 20
1.526647937
 30
0.0
  0
VERTEX
  5
323
  8
0
  6
CONTINUOUS
 62
     7
 10
2.7763697466
 20
1.5345867366
 30
0.0
  0
VERTEX
  5
324
  8
0
  6
CONTINUOUS
 62
     7
 10
2.7272080274
 20
1.5438081059
 30
0.0
  0
VERTEX
  5
325
  8
0
  6
CONTINUOUS
 62
     7
 10
2.6788124642
 20
1.5542934742
 30
0.0
  0
VERTEX
  5
326
  8
0
  6
CONTINUOUS
 62
     7
 10
2.631280519
 20
1.5660217255
 30
0.0
  0
VERTEX
  5
327
  8
0
  6
CONTINUOUS
 62
     7
 10
2.584707915
 20
1.5789692405
 30
0.0
  0
VERTEX
  5
328
  8
0
  6
CONTINUOUS
 62
     7
 10
2.5391884432
 20
1.5931099448
 30
0.0
  0
VERTEX
  5
329
  8
0
  6
CONTINUOUS
 62
     7
 10
2.4948137738
 20
1.6084153607
 30
0.0
  0
VERTEX
  5
32A
  8
0
  6
CONTINUOUS
 62
     7
 10
2.4516732714
 20
1.6248546653
 30
0.0
  0
VERTEX
  5
32B
  8
0
  6
CONTINUOUS
 62
     7
 10
2.4098538152
 20
1.642394752
 30
0.0
  0
VERTEX
  5
32C
  8
0
  6
CONTINUOUS
 62
     7
 10
2.3694396241
 20
1.6610002973
 30
0.0
  0
VERTEX
  5
32D
  8
0
  6
CONTINUOUS
 62
     7
 10
2.3305120868
 20
1.6806338323
 30
0.0
  0
VERTEX
  5
32E
  8
0
  6
CONTINUOUS
 62
     7
 10
2.2931495984
 20
1.7012558174
 30
0.0
  0
VERTEX
  5
32F
  8
0
  6
CONTINUOUS
 62
     7
 10
2.2574274017
 20
1.7228247229
 30
0.0
  0
VERTEX
  5
330
  8
0
  6
CONTINUOUS
 62
     7
 10
2.2234174366
 20
1.7452971118
 30
0.0
  0
VERTEX
  5
331
  8
0
  6
CONTINUOUS
 62
     7
 10
2.1911881947
 20
1.7686277278
 30
0.0
  0
VERTEX
  5
332
  8
0
  6
CONTINUOUS
 62
     7
 10
2.1608045813
 20
1.7927695859
 30
0.0
  0
VERTEX
  5
333
  8
0
  6
CONTINUOUS
 62
     7
 10
2.1323277849
 20
1.8176740679
 30
0.0
  0
VERTEX
  5
334
  8
0
  6
CONTINUOUS
 62
     7
 10
2.1058151542
 20
1.8432910193
 30
0.0
  0
VERTEX
  5
335
  8
0
  6
CONTINUOUS
 62
     7
 10
2.0813200819
 20
1.869568851
 30
0.0
  0
VERTEX
  5
336
  8
0
  6
CONTINUOUS
 62
     7
 10
2.0588918979
 20
1.896454643
 30
0.0
  0
VERTEX
  5
337
  8
0
  6
CONTINUOUS
 62
     7
 10
2.0385757695
 20
1.9238942509
 30
0.0
  0
VERTEX
  5
338
  8
0
  6
CONTINUOUS
 62
     7
 10
2.0204126108
 20
1.9518324149
 30
0.0
  0
VERTEX
  5
339
  8
0
  6
CONTINUOUS
 62
     7
 10
2.004439
 20
1.9802128713
 30
0.0
  0
VERTEX
  5
33A
  8
0
  6
CONTINUOUS
 62
     7
 10
1.9906871056
 20
2.0089784656
 30
0.0
  0
VERTEX
  5
33B
  8
0
  6
CONTINUOUS
 62
     7
 10
1.9791846224
 20
2.0380712678
 30
0.0
  0
VERTEX
  5
33C
  8
0
  6
CONTINUOUS
 62
     7
 10
1.9699547146
 20
2.0674326888
 30
0.0
  0
VERTEX
  5
33D
  8
0
  6
CONTINUOUS
 62
     7
 10
1.9630159702
 20
2.0970035987
 30
0.0
  0
VERTEX
  5
33E
  8
0
  6
CONTINUOUS
 62
     7
 10
1.9583823627
 20
2.1267244455
 30
0.0
  0
VERTEX
  5
33F
  8
0
  6
CONTINUOUS
 62
     7
 10
1.9560632238
 20
2.1565353754
 30
0.0
  0
VERTEX
  5
340
  8
0
  6
CONTINUOUS
 62
     7
 10
1.9560632238
 20
2.1863763532
 30
0.0
  0
VERTEX
  5
341
  8
0
  6
CONTINUOUS
 62
     7
 10
1.9583823627
 20
2.2161872832
 30
0.0
  0
VERTEX
  5
342
  8
0
  6
CONTINUOUS
 62
     7
 10
1.9630159702
 20
2.24590813
 30
0.0
  0
VERTEX
  5
343
  8
0
  6
CONTINUOUS
 62
     7
 10
1.9699547146
 20
2.2754790398
 30
0.0
  0
VERTEX
  5
344
  8
0
  6
CONTINUOUS
 62
     7
 10
1.9791846224
 20
2.3048404609
 30
0.0
  0
VERTEX
  5
345
  8
0
  6
CONTINUOUS
 62
     7
 10
1.9906871056
 20
2.3339332631
 30
0.0
  0
VERTEX
  5
346
  8
0
  6
CONTINUOUS
 62
     7
 10
2.004439
 20
2.3626988574
 30
0.0
  0
VERTEX
  5
347
  8
0
  6
CONTINUOUS
 62
     7
 10
2.0204126108
 20
2.3910793138
 30
0.0
  0
VERTEX
  5
348
  8
0
  6
CONTINUOUS
 62
     7
 10
2.0385757695
 20
2.4190174778
 30
0.0
  0
VERTEX
  5
349
  8
0
  6
CONTINUOUS
 62
     7
 10
2.0588918979
 20
2.4464570857
 30
0.0
  0
VERTEX
  5
34A
  8
0
  6
CONTINUOUS
 62
     7
 10
2.0813200819
 20
2.4733428777
 30
0.0
  0
VERTEX
  5
34B
  8
0
  6
CONTINUOUS
 62
     7
 10
2.1058151542
 20
2.4996207094
 30
0.0
  0
VERTEX
  5
34C
  8
0
  6
CONTINUOUS
 62
     7
 10
2.1323277849
 20
2.5252376608
 30
0.0
  0
VERTEX
  5
34D
  8
0
  6
CONTINUOUS
 62
     7
 10
2.1608045813
 20
2.5501421427
 30
0.0
  0
VERTEX
  5
34E
  8
0
  6
CONTINUOUS
 62
     7
 10
2.1911881947
 20
2.5742840009
 30
0.0
  0
VERTEX
  5
34F
  8
0
  6
CONTINUOUS
 62
     7
 10
2.2234174366
 20
2.5976146168
 30
0.0
  0
VERTEX
  5
350
  8
0
  6
CONTINUOUS
 62
     7
 10
2.2574274017
 20
2.6200870057
 30
0.0
  0
VERTEX
  5
351
  8
0
  6
CONTINUOUS
 62
     7
 10
2.2931495984
 20
2.6416559112
 30
0.0
  0
SEQEND
  5
676
  8
0
  6
CONTINUOUS
 62
     7
  0
ARC
  5
160
  8
0
  6
CONTINUOUS
 62
     7
 10
3.8875382135
 20
2.1551272121
 30
0.0
 40
0.3919826426224244
 50
352.4253997426
 51
7.8441602742
  0
ARC
  5
161
  8
0
  6
CONTINUOUS
 62
     7
 10
2.3282632284
 20
2.155125118
 30
0.0
 40
0.3924836188073729
 50
171.8762170417
 51
188.1119445894
  0
ARC
  5
162
  8
0
  6
CONTINUOUS
 62
     7
 10
3.8871784092
 20
2.0347292264
 30
0.0
 40
0.3923448152170192
 50
352.426277235
 51
359.9935820749
  0
ARC
  5
163
  8
0
  6
CONTINUOUS
 62
     7
 10
2.3286412403
 20
2.0347574645
 30
0.0
 40
0.3928680250433461
 50
180.0105276132
 51
188.1145776248
  0
POLYLINE
  5
164
  8
0
  6
CONTINUOUS
 62
     7
 66
     1
 10
0.0
 20
0.0
 30
0.0
 70
   128
  0
VERTEX
  5
352
  8
0
  6
CONTINUOUS
 62
     7
 10
2.6515643481
 20
2.4347474804
 30
0.0
  0
VERTEX
  5
353
  8
0
  6
CONTINUOUS
 62
     7
 10
2.6796563892
 20
2.4500221549
 30
0.0
  0
VERTEX
  5
354
  8
0
  6
CONTINUOUS
 62
     7
 10
2.7092805301
 20
2.4642996344
 30
0.0
  0
VERTEX
  5
355
  8
0
  6
CONTINUOUS
 62
     7
 10
2.7403307238
 20
2.4775288092
 30
0.0
  0
VERTEX
  5
356
  8
0
  6
CONTINUOUS
 62
     7
 10
2.7726958189
 20
2.4896623223
 30
0.0
  0
VERTEX
  5
357
  8
0
  6
CONTINUOUS
 62
     7
 10
2.8062599567
 20
2.5006567389
 30
0.0
  0
VERTEX
  5
358
  8
0
  6
CONTINUOUS
 62
     7
 10
2.8409029862
 20
2.5104727017
 30
0.0
  0
VERTEX
  5
359
  8
0
  6
CONTINUOUS
 62
     7
 10
2.8765008945
 20
2.5190750723
 30
0.0
  0
VERTEX
  5
35A
  8
0
  6
CONTINUOUS
 62
     7
 10
2.9129262502
 20
2.5264330563
 30
0.0
  0
VERTEX
  5
35B
  8
0
  6
CONTINUOUS
 62
     7
 10
2.95004866
 20
2.5325203141
 30
0.0
  0
VERTEX
  5
35C
  8
0
  6
CONTINUOUS
 62
     7
 10
2.9877352353
 20
2.5373150549
 30
0.0
  0
VERTEX
  5
35D
  8
0
  6
CONTINUOUS
 62
     7
 10
3.025851068
 20
2.5408001148
 30
0.0
  0
VERTEX
  5
35E
  8
0
  6
CONTINUOUS
 62
     7
 10
3.0642597133
 20
2.5429630181
 30
0.0
  0
VERTEX
  5
35F
  8
0
  6
CONTINUOUS
 62
     7
 10
3.1028236782
 20
2.5437960221
 30
0.0
  0
VERTEX
  5
360
  8
0
  6
CONTINUOUS
 62
     7
 10
3.1414049137
 20
2.5432961451
 30
0.0
  0
VERTEX
  5
361
  8
0
  6
CONTINUOUS
 62
     7
 10
3.179865309
 20
2.5414651764
 30
0.0
  0
VERTEX
  5
362
  8
0
  6
CONTINUOUS
 62
     7
 10
3.2180671859
 20
2.5383096703
 30
0.0
  0
VERTEX
  5
363
  8
0
  6
CONTINUOUS
 62
     7
 10
3.2558737915
 20
2.5338409229
 30
0.0
  0
VERTEX
  5
364
  8
0
  6
CONTINUOUS
 62
     7
 10
3.2931497881
 20
2.528074931
 30
0.0
  0
VERTEX
  5
365
  8
0
  6
CONTINUOUS
 62
     7
 10
3.3297617372
 20
2.5210323353
 30
0.0
  0
VERTEX
  5
366
  8
0
  6
CONTINUOUS
 62
     7
 10
3.3655785776
 20
2.5127383467
 30
0.0
  0
VERTEX
  5
367
  8
0
  6
CONTINUOUS
 62
     7
 10
3.4004720943
 20
2.5032226553
 30
0.0
  0
VERTEX
  5
368
  8
0
  6
CONTINUOUS
 62
     7
 10
3.4343173774
 20
2.4925193249
 30
0.0
  0
VERTEX
  5
369
  8
0
  6
CONTINUOUS
 62
     7
 10
3.4669932698
 20
2.4806666707
 30
0.0
  0
VERTEX
  5
36A
  8
0
  6
CONTINUOUS
 62
     7
 10
3.4983828002
 20
2.467707122
 30
0.0
  0
VERTEX
  5
36B
  8
0
  6
CONTINUOUS
 62
     7
 10
3.5283736022
 20
2.4536870707
 30
0.0
  0
VERTEX
  5
36C
  8
0
  6
CONTINUOUS
 62
     7
 10
3.5568583165
 20
2.438656705
 30
0.0
  0
VERTEX
  5
36D
  8
0
  6
CONTINUOUS
 62
     7
 10
3.5837349753
 20
2.4226698296
 30
0.0
  0
VERTEX
  5
36E
  8
0
  6
CONTINUOUS
 62
     7
 10
3.6089073671
 20
2.4057836734
 30
0.0
  0
VERTEX
  5
36F
  8
0
  6
CONTINUOUS
 62
     7
 10
3.6322853812
 20
2.3880586844
 30
0.0
  0
VERTEX
  5
370
  8
0
  6
CONTINUOUS
 62
     7
 10
3.6537853304
 20
2.3695583136
 30
0.0
  0
VERTEX
  5
371
  8
0
  6
CONTINUOUS
 62
     7
 10
3.6733302506
 20
2.3503487874
 30
0.0
  0
VERTEX
  5
372
  8
0
  6
CONTINUOUS
 62
     7
 10
3.6908501759
 20
2.330498871
 30
0.0
  0
VERTEX
  5
373
  8
0
  6
CONTINUOUS
 62
     7
 10
3.7062823895
 20
2.3100796218
 30
0.0
  0
VERTEX
  5
374
  8
0
  6
CONTINUOUS
 62
     7
 10
3.7195716482
 20
2.2891641357
 30
0.0
  0
VERTEX
  5
375
  8
0
  6
CONTINUOUS
 62
     7
 10
3.7306703799
 20
2.2678272844
 30
0.0
  0
VERTEX
  5
376
  8
0
  6
CONTINUOUS
 62
     7
 10
3.7395388539
 20
2.2461454485
 30
0.0
  0
VERTEX
  5
377
  8
0
  6
CONTINUOUS
 62
     7
 10
3.7461453235
 20
2.2241962433
 30
0.0
  0
VERTEX
  5
378
  8
0
  6
CONTINUOUS
 62
     7
 10
3.7504661391
 20
2.2020582411
 30
0.0
  0
VERTEX
  5
379
  8
0
  6
CONTINUOUS
 62
     7
 10
3.7524858335
 20
2.1798106905
 30
0.0
  0
VERTEX
  5
37A
  8
0
  6
CONTINUOUS
 62
     7
 10
3.7521971765
 20
2.1575332317
 30
0.0
  0
VERTEX
  5
37B
  8
0
  6
CONTINUOUS
 62
     7
 10
3.7496012016
 20
2.1353056123
 30
0.0
  0
VERTEX
  5
37C
  8
0
  6
CONTINUOUS
 62
     7
 10
3.7447072016
 20
2.1132074014
 30
0.0
  0
VERTEX
  5
37D
  8
0
  6
CONTINUOUS
 62
     7
 10
3.7375326958
 20
2.091317705
 30
0.0
  0
VERTEX
  5
37E
  8
0
  6
CONTINUOUS
 62
     7
 10
3.7281033671
 20
2.0697148823
 30
0.0
  0
VERTEX
  5
37F
  8
0
  6
CONTINUOUS
 62
     7
 10
3.71645297
 20
2.0484762659
 30
0.0
  0
VERTEX
  5
380
  8
0
  6
CONTINUOUS
 62
     7
 10
3.7026232099
 20
2.0276778846
 30
0.0
  0
VERTEX
  5
381
  8
0
  6
CONTINUOUS
 62
     7
 10
3.6866635937
 20
2.0073941912
 30
0.0
  0
VERTEX
  5
382
  8
0
  6
CONTINUOUS
 62
     7
 10
3.6686312528
 20
1.9876977959
 30
0.0
  0
VERTEX
  5
383
  8
0
  6
CONTINUOUS
 62
     7
 10
3.6485907383
 20
1.9686592069
 30
0.0
  0
VERTEX
  5
384
  8
0
  6
CONTINUOUS
 62
     7
 10
3.6266137899
 20
1.9503465772
 30
0.0
  0
VERTEX
  5
385
  8
0
  6
CONTINUOUS
 62
     7
 10
3.6027790795
 20
1.9328254614
 30
0.0
  0
VERTEX
  5
386
  8
0
  6
CONTINUOUS
 62
     7
 10
3.5771719291
 20
1.9161585805
 30
0.0
  0
VERTEX
  5
387
  8
0
  6
CONTINUOUS
 62
     7
 10
3.5498840057
 20
1.9004055977
 30
0.0
  0
VERTEX
  5
388
  8
0
  6
CONTINUOUS
 62
     7
 10
3.521012993
 20
1.8856229044
 30
0.0
  0
VERTEX
  5
389
  8
0
  6
CONTINUOUS
 62
     7
 10
3.4906622416
 20
1.871863419
 30
0.0
  0
VERTEX
  5
38A
  8
0
  6
CONTINUOUS
 62
     7
 10
3.4589403995
 20
1.8591763967
 30
0.0
  0
VERTEX
  5
38B
  8
0
  6
CONTINUOUS
 62
     7
 10
3.4259610226
 20
1.8476072539
 30
0.0
  0
VERTEX
  5
38C
  8
0
  6
CONTINUOUS
 62
     7
 10
3.3918421684
 20
1.8371974051
 30
0.0
  0
VERTEX
  5
38D
  8
0
  6
CONTINUOUS
 62
     7
 10
3.3567059737
 20
1.8279841148
 30
0.0
  0
VERTEX
  5
38E
  8
0
  6
CONTINUOUS
 62
     7
 10
3.3206782169
 20
1.8200003642
 30
0.0
  0
VERTEX
  5
38F
  8
0
  6
CONTINUOUS
 62
     7
 10
3.283887868
 20
1.8132747331
 30
0.0
  0
VERTEX
  5
390
  8
0
  6
CONTINUOUS
 62
     7
 10
3.2464666269
 20
1.8078312975
 30
0.0
  0
VERTEX
  5
391
  8
0
  6
CONTINUOUS
 62
     7
 10
3.2085484519
 20
1.8036895435
 30
0.0
  0
VERTEX
  5
392
  8
0
  6
CONTINUOUS
 62
     7
 10
3.1702690803
 20
1.8008642974
 30
0.0
  0
VERTEX
  5
393
  8
0
  6
CONTINUOUS
 62
     7
 10
3.1317655422
 20
1.799365673
 30
0.0
  0
VERTEX
  5
394
  8
0
  6
CONTINUOUS
 62
     7
 10
3.0931756705
 20
1.7991990349
 30
0.0
  0
VERTEX
  5
395
  8
0
  6
CONTINUOUS
 62
     7
 10
3.0546376067
 20
1.8003649796
 30
0.0
  0
VERTEX
  5
396
  8
0
  6
CONTINUOUS
 62
     7
 10
3.0162893071
 20
1.8028593334
 30
0.0
  0
VERTEX
  5
397
  8
0
  6
CONTINUOUS
 62
     7
 10
2.9782680488
 20
1.8066731671
 30
0.0
  0
VERTEX
  5
398
  8
0
  6
CONTINUOUS
 62
     7
 10
2.9407099378
 20
1.8117928282
 30
0.0
  0
VERTEX
  5
399
  8
0
  6
CONTINUOUS
 62
     7
 10
2.9037494227
 20
1.8181999896
 30
0.0
  0
VERTEX
  5
39A
  8
0
  6
CONTINUOUS
 62
     7
 10
2.8675188123
 20
1.8258717153
 30
0.0
  0
VERTEX
  5
39B
  8
0
  6
CONTINUOUS
 62
     7
 10
2.8321478028
 20
1.8347805427
 30
0.0
  0
VERTEX
  5
39C
  8
0
  6
CONTINUOUS
 62
     7
 10
2.7977630134
 20
1.8448945803
 30
0.0
  0
VERTEX
  5
39D
  8
0
  6
CONTINUOUS
 62
     7
 10
2.7644875326
 20
1.8561776225
 30
0.0
  0
VERTEX
  5
39E
  8
0
  6
CONTINUOUS
 62
     7
 10
2.732440478
 20
1.868589279
 30
0.0
  0
VERTEX
  5
39F
  8
0
  6
CONTINUOUS
 62
     7
 10
2.7017365697
 20
1.8820851193
 30
0.0
  0
VERTEX
  5
3A0
  8
0
  6
CONTINUOUS
 62
     7
 10
2.6724857198
 20
1.8966168317
 30
0.0
  0
VERTEX
  5
3A1
  8
0
  6
CONTINUOUS
 62
     7
 10
2.6447926387
 20
1.9121323966
 30
0.0
  0
VERTEX
  5
3A2
  8
0
  6
CONTINUOUS
 62
     7
 10
2.6187564605
 20
1.9285762721
 30
0.0
  0
VERTEX
  5
3A3
  8
0
  6
CONTINUOUS
 62
     7
 10
2.5944703879
 20
1.9458895936
 30
0.0
  0
VERTEX
  5
3A4
  8
0
  6
CONTINUOUS
 62
     7
 10
2.5720213588
 20
1.9640103838
 30
0.0
  0
VERTEX
  5
3A5
  8
0
  6
CONTINUOUS
 62
     7
 10
2.5514897348
 20
1.9828737749
 30
0.0
  0
VERTEX
  5
3A6
  8
0
  6
CONTINUOUS
 62
     7
 10
2.5329490138
 20
2.002412241
 30
0.0
  0
VERTEX
  5
3A7
  8
0
  6
CONTINUOUS
 62
     7
 10
2.5164655669
 20
2.0225558394
 30
0.0
  0
VERTEX
  5
3A8
  8
0
  6
CONTINUOUS
 62
     7
 10
2.5020984004
 20
2.0432324613
 30
0.0
  0
VERTEX
  5
3A9
  8
0
  6
CONTINUOUS
 62
     7
 10
2.4898989452
 20
2.0643680896
 30
0.0
  0
VERTEX
  5
3AA
  8
0
  6
CONTINUOUS
 62
     7
 10
2.479910872
 20
2.0858870644
 30
0.0
  0
VERTEX
  5
3AB
  8
0
  6
CONTINUOUS
 62
     7
 10
2.4721699356
 20
2.1077123533
 30
0.0
  0
VERTEX
  5
3AC
  8
0
  6
CONTINUOUS
 62
     7
 10
2.4667038465
 20
2.1297658274
 30
0.0
  0
VERTEX
  5
3AD
  8
0
  6
CONTINUOUS
 62
     7
 10
2.463532172
 20
2.151968541
 30
0.0
  0
VERTEX
  5
3AE
  8
0
  6
CONTINUOUS
 62
     7
 10
2.4626662658
 20
2.1742410141
 30
0.0
  0
VERTEX
  5
3AF
  8
0
  6
CONTINUOUS
 62
     7
 10
2.4641092275
 20
2.1965035172
 30
0.0
  0
VERTEX
  5
3B0
  8
0
  6
CONTINUOUS
 62
     7
 10
2.4678558919
 20
2.2186763562
 30
0.0
  0
VERTEX
  5
3B1
  8
0
  6
CONTINUOUS
 62
     7
 10
2.4738928467
 20
2.240680158
 30
0.0
  0
VERTEX
  5
3B2
  8
0
  6
CONTINUOUS
 62
     7
 10
2.4821984813
 20
2.2624361549
 30
0.0
  0
VERTEX
  5
3B3
  8
0
  6
CONTINUOUS
 62
     7
 10
2.4927430636
 20
2.2838664659
 30
0.0
  0
VERTEX
  5
3B4
  8
0
  6
CONTINUOUS
 62
     7
 10
2.5054888468
 20
2.3048943762
 30
0.0
  0
VERTEX
  5
3B5
  8
0
  6
CONTINUOUS
 62
     7
 10
2.5203902043
 20
2.3254446112
 30
0.0
  0
VERTEX
  5
3B6
  8
0
  6
CONTINUOUS
 62
     7
 10
2.5373937931
 20
2.3454436064
 30
0.0
  0
VERTEX
  5
3B7
  8
0
  6
CONTINUOUS
 62
     7
 10
2.5564387448
 20
2.3648197707
 30
0.0
  0
VERTEX
  5
3B8
  8
0
  6
CONTINUOUS
 62
     7
 10
2.5774568833
 20
2.3835037424
 30
0.0
  0
VERTEX
  5
3B9
  8
0
  6
CONTINUOUS
 62
     7
 10
2.6003729692
 20
2.4014286377
 30
0.0
  0
VERTEX
  5
3BA
  8
0
  6
CONTINUOUS
 62
     7
 10
2.6251049688
 20
2.4185302902
 30
0.0
  0
VERTEX
  5
3BB
  8
0
  6
CONTINUOUS
 62
     7
 10
2.6515643481
 20
2.4347474804
 30
0.0
  0
SEQEND
  5
677
  8
0
  6
CONTINUOUS
 62
     7
  0
ARC
  5
165
  8
0
  6
CONTINUOUS
 62
     7
 10
3.5236007735
 20
2.1551237877
 30
0.0
 40
0.2090464963500716
 50
351.9934885618
 51
7.7470946854
  0
ARC
  5
166
  8
0
  6
CONTINUOUS
 62
     7
 10
2.6918355534
 20
2.1551275764
 30
0.0
 40
0.2091849812610329
 50
171.8746506785
 51
187.3555486116
  0
POLYLINE
  5
167
  8
0
  6
CONTINUOUS
 62
     7
 66
     1
 10
0.0
 20
0.0
 30
0.0
 70
   128
  0
VERTEX
  5
3BC
  8
0
  6
CONTINUOUS
 62
     7
 10
4.2303795171
 20
1.8370589508
 30
0.0
  0
VERTEX
  5
3BD
  8
0
  6
CONTINUOUS
 62
     7
 10
4.2246093382
 20
1.8232154309
 30
0.0
  0
VERTEX
  5
3BE
  8
0
  6
CONTINUOUS
 62
     7
 10
4.2108574439
 20
1.7944498366
 30
0.0
  0
VERTEX
  5
3BF
  8
0
  6
CONTINUOUS
 62
     7
 10
4.194883833
 20
1.7660693802
 30
0.0
  0
VERTEX
  5
3C0
  8
0
  6
CONTINUOUS
 62
     7
 10
4.1767206743
 20
1.7381312162
 30
0.0
  0
VERTEX
  5
3C1
  8
0
  6
CONTINUOUS
 62
     7
 10
4.156404546
 20
1.7106916083
 30
0.0
  0
VERTEX
  5
3C2
  8
0
  6
CONTINUOUS
 62
     7
 10
4.133976362
 20
1.6838058163
 30
0.0
  0
VERTEX
  5
3C3
  8
0
  6
CONTINUOUS
 62
     7
 10
4.1094812897
 20
1.6575279846
 30
0.0
  0
VERTEX
  5
3C4
  8
0
  6
CONTINUOUS
 62
     7
 10
4.0829686589
 20
1.6319110332
 30
0.0
  0
VERTEX
  5
3C5
  8
0
  6
CONTINUOUS
 62
     7
 10
4.0544918626
 20
1.6070065512
 30
0.0
  0
VERTEX
  5
3C6
  8
0
  6
CONTINUOUS
 62
     7
 10
4.0241082492
 20
1.5828646931
 30
0.0
  0
VERTEX
  5
3C7
  8
0
  6
CONTINUOUS
 62
     7
 10
3.9918790072
 20
1.5595340771
 30
0.0
  0
VERTEX
  5
3C8
  8
0
  6
CONTINUOUS
 62
     7
 10
3.9578690422
 20
1.5370616882
 30
0.0
  0
VERTEX
  5
3C9
  8
0
  6
CONTINUOUS
 62
     7
 10
3.9221468455
 20
1.5154927827
 30
0.0
  0
VERTEX
  5
3CA
  8
0
  6
CONTINUOUS
 62
     7
 10
3.884784357
 20
1.4948707976
 30
0.0
  0
VERTEX
  5
3CB
  8
0
  6
CONTINUOUS
 62
     7
 10
3.8458568198
 20
1.4752372626
 30
0.0
  0
VERTEX
  5
3CC
  8
0
  6
CONTINUOUS
 62
     7
 10
3.8054426287
 20
1.4566317173
 30
0.0
  0
VERTEX
  5
3CD
  8
0
  6
CONTINUOUS
 62
     7
 10
3.7636231725
 20
1.4390916306
 30
0.0
  0
VERTEX
  5
3CE
  8
0
  6
CONTINUOUS
 62
     7
 10
3.7204826701
 20
1.422652326
 30
0.0
  0
VERTEX
  5
3CF
  8
0
  6
CONTINUOUS
 62
     7
 10
3.6761080006
 20
1.4073469101
 30
0.0
  0
VERTEX
  5
3D0
  8
0
  6
CONTINUOUS
 62
     7
 10
3.6305885288
 20
1.3932062058
 30
0.0
  0
VERTEX
  5
3D1
  8
0
  6
CONTINUOUS
 62
     7
 10
3.5840159248
 20
1.3802586908
 30
0.0
  0
VERTEX
  5
3D2
  8
0
  6
CONTINUOUS
 62
     7
 10
3.5364839797
 20
1.3685304395
 30
0.0
  0
VERTEX
  5
3D3
  8
0
  6
CONTINUOUS
 62
     7
 10
3.4880884164
 20
1.3580450712
 30
0.0
  0
VERTEX
  5
3D4
  8
0
  6
CONTINUOUS
 62
     7
 10
3.4389266972
 20
1.3488237019
 30
0.0
  0
VERTEX
  5
3D5
  8
0
  6
CONTINUOUS
 62
     7
 10
3.3890978273
 20
1.3408849023
 30
0.0
  0
VERTEX
  5
3D6
  8
0
  6
CONTINUOUS
 62
     7
 10
3.3387021552
 20
1.3342446601
 30
0.0
  0
VERTEX
  5
3D7
  8
0
  6
CONTINUOUS
 62
     7
 10
3.2878411713
 20
1.3289163477
 30
0.0
  0
VERTEX
  5
3D8
  8
0
  6
CONTINUOUS
 62
     7
 10
3.2366173028
 20
1.3249106958
 30
0.0
  0
VERTEX
  5
3D9
  8
0
  6
CONTINUOUS
 62
     7
 10
3.1851337078
 20
1.3222357712
 30
0.0
  0
VERTEX
  5
3DA
  8
0
  6
CONTINUOUS
 62
     7
 10
3.1334940672
 20
1.3208969608
 30
0.0
  0
VERTEX
  5
3DB
  8
0
  6
CONTINUOUS
 62
     7
 10
3.0818023766
 20
1.3208969608
 30
0.0
  0
VERTEX
  5
3DC
  8
0
  6
CONTINUOUS
 62
     7
 10
3.0301627361
 20
1.3222357712
 30
0.0
  0
VERTEX
  5
3DD
  8
0
  6
CONTINUOUS
 62
     7
 10
2.978679141
 20
1.3249106958
 30
0.0
  0
VERTEX
  5
3DE
  8
0
  6
CONTINUOUS
 62
     7
 10
2.9274552725
 20
1.3289163477
 30
0.0
  0
VERTEX
  5
3DF
  8
0
  6
CONTINUOUS
 62
     7
 10
2.8765942886
 20
1.3342446601
 30
0.0
  0
VERTEX
  5
3E0
  8
0
  6
CONTINUOUS
 62
     7
 10
2.8261986166
 20
1.3408849023
 30
0.0
  0
VERTEX
  5
3E1
  8
0
  6
CONTINUOUS
 62
     7
 10
2.7763697466
 20
1.3488237019
 30
0.0
  0
VERTEX
  5
3E2
  8
0
  6
CONTINUOUS
 62
     7
 10
2.7272080274
 20
1.3580450712
 30
0.0
  0
VERTEX
  5
3E3
  8
0
  6
CONTINUOUS
 62
     7
 10
2.6788124642
 20
1.3685304395
 30
0.0
  0
VERTEX
  5
3E4
  8
0
  6
CONTINUOUS
 62
     7
 10
2.631280519
 20
1.3802586908
 30
0.0
  0
VERTEX
  5
3E5
  8
0
  6
CONTINUOUS
 62
     7
 10
2.584707915
 20
1.3932062058
 30
0.0
  0
VERTEX
  5
3E6
  8
0
  6
CONTINUOUS
 62
     7
 10
2.5391884432
 20
1.4073469101
 30
0.0
  0
VERTEX
  5
3E7
  8
0
  6
CONTINUOUS
 62
     7
 10
2.4948137738
 20
1.422652326
 30
0.0
  0
VERTEX
  5
3E8
  8
0
  6
CONTINUOUS
 62
     7
 10
2.4516732714
 20
1.4390916306
 30
0.0
  0
VERTEX
  5
3E9
  8
0
  6
CONTINUOUS
 62
     7
 10
2.4098538152
 20
1.4566317173
 30
0.0
  0
VERTEX
  5
3EA
  8
0
  6
CONTINUOUS
 62
     7
 10
2.3694396241
 20
1.4752372626
 30
0.0
  0
VERTEX
  5
3EB
  8
0
  6
CONTINUOUS
 62
     7
 10
2.3305120868
 20
1.4948707976
 30
0.0
  0
VERTEX
  5
3EC
  8
0
  6
CONTINUOUS
 62
     7
 10
2.2931495984
 20
1.5154927827
 30
0.0
  0
VERTEX
  5
3ED
  8
0
  6
CONTINUOUS
 62
     7
 10
2.2574274017
 20
1.5370616882
 30
0.0
  0
VERTEX
  5
3EE
  8
0
  6
CONTINUOUS
 62
     7
 10
2.2234174366
 20
1.5595340771
 30
0.0
  0
VERTEX
  5
3EF
  8
0
  6
CONTINUOUS
 62
     7
 10
2.1911881947
 20
1.5828646931
 30
0.0
  0
VERTEX
  5
3F0
  8
0
  6
CONTINUOUS
 62
     7
 10
2.1608045813
 20
1.6070065512
 30
0.0
  0
VERTEX
  5
3F1
  8
0
  6
CONTINUOUS
 62
     7
 10
2.1323277849
 20
1.6319110332
 30
0.0
  0
VERTEX
  5
3F2
  8
0
  6
CONTINUOUS
 62
     7
 10
2.1058151542
 20
1.6575279846
 30
0.0
  0
VERTEX
  5
3F3
  8
0
  6
CONTINUOUS
 62
     7
 10
2.0813200819
 20
1.6838058163
 30
0.0
  0
VERTEX
  5
3F4
  8
0
  6
CONTINUOUS
 62
     7
 10
2.0588918979
 20
1.7106916083
 30
0.0
  0
VERTEX
  5
3F5
  8
0
  6
CONTINUOUS
 62
     7
 10
2.0385757695
 20
1.7381312162
 30
0.0
  0
VERTEX
  5
3F6
  8
0
  6
CONTINUOUS
 62
     7
 10
2.0204126108
 20
1.7660693802
 30
0.0
  0
VERTEX
  5
3F7
  8
0
  6
CONTINUOUS
 62
     7
 10
2.004439
 20
1.7944498366
 30
0.0
  0
VERTEX
  5
3F8
  8
0
  6
CONTINUOUS
 62
     7
 10
1.9906871056
 20
1.8232154309
 30
0.0
  0
VERTEX
  5
3F9
  8
0
  6
CONTINUOUS
 62
     7
 10
1.9839321154
 20
1.8395601933
 30
0.0
  0
SEQEND
  5
678
  8
0
  6
CONTINUOUS
 62
     7
  0
POLYLINE
  5
168
  8
0
  6
CONTINUOUS
 62
     7
 66
     1
 10
0.0
 20
0.0
 30
0.0
 70
   128
  0
VERTEX
  5
3FA
  8
0
  6
CONTINUOUS
 62
     7
 10
4.2595232219
 20
1.8468808916
 30
0.0
  0
VERTEX
  5
3FB
  8
0
  6
CONTINUOUS
 62
     7
 10
4.2592332201
 20
1.8319604027
 30
0.0
  0
VERTEX
  5
3FC
  8
0
  6
CONTINUOUS
 62
     7
 10
4.2569140811
 20
1.8021494728
 30
0.0
  0
VERTEX
  5
3FD
  8
0
  6
CONTINUOUS
 62
     7
 10
4.2522804737
 20
1.772428626
 30
0.0
  0
VERTEX
  5
3FE
  8
0
  6
CONTINUOUS
 62
     7
 10
4.2453417293
 20
1.7428577161
 30
0.0
  0
VERTEX
  5
3FF
  8
0
  6
CONTINUOUS
 62
     7
 10
4.2361118215
 20
1.7134962951
 30
0.0
  0
VERTEX
  5
400
  8
0
  6
CONTINUOUS
 62
     7
 10
4.2246093382
 20
1.6844034929
 30
0.0
  0
VERTEX
  5
401
  8
0
  6
CONTINUOUS
 62
     7
 10
4.2108574439
 20
1.6556378986
 30
0.0
  0
VERTEX
  5
402
  8
0
  6
CONTINUOUS
 62
     7
 10
4.194883833
 20
1.6272574421
 30
0.0
  0
VERTEX
  5
403
  8
0
  6
CONTINUOUS
 62
     7
 10
4.1767206743
 20
1.5993192781
 30
0.0
  0
VERTEX
  5
404
  8
0
  6
CONTINUOUS
 62
     7
 10
4.156404546
 20
1.5718796703
 30
0.0
  0
VERTEX
  5
405
  8
0
  6
CONTINUOUS
 62
     7
 10
4.133976362
 20
1.5449938783
 30
0.0
  0
VERTEX
  5
406
  8
0
  6
CONTINUOUS
 62
     7
 10
4.1094812897
 20
1.5187160466
 30
0.0
  0
VERTEX
  5
407
  8
0
  6
CONTINUOUS
 62
     7
 10
4.0829686589
 20
1.4930990952
 30
0.0
  0
VERTEX
  5
408
  8
0
  6
CONTINUOUS
 62
     7
 10
4.0544918626
 20
1.4681946132
 30
0.0
  0
VERTEX
  5
409
  8
0
  6
CONTINUOUS
 62
     7
 10
4.0241082492
 20
1.444052755
 30
0.0
  0
VERTEX
  5
40A
  8
0
  6
CONTINUOUS
 62
     7
 10
3.9918790072
 20
1.4207221391
 30
0.0
  0
VERTEX
  5
40B
  8
0
  6
CONTINUOUS
 62
     7
 10
3.9578690422
 20
1.3982497502
 30
0.0
  0
VERTEX
  5
40C
  8
0
  6
CONTINUOUS
 62
     7
 10
3.9221468455
 20
1.3766808447
 30
0.0
  0
VERTEX
  5
40D
  8
0
  6
CONTINUOUS
 62
     7
 10
3.884784357
 20
1.3560588595
 30
0.0
  0
VERTEX
  5
40E
  8
0
  6
CONTINUOUS
 62
     7
 10
3.8458568198
 20
1.3364253246
 30
0.0
  0
VERTEX
  5
40F
  8
0
  6
CONTINUOUS
 62
     7
 10
3.8054426287
 20
1.3178197793
 30
0.0
  0
VERTEX
  5
410
  8
0
  6
CONTINUOUS
 62
     7
 10
3.7636231725
 20
1.3002796926
 30
0.0
  0
VERTEX
  5
411
  8
0
  6
CONTINUOUS
 62
     7
 10
3.7204826701
 20
1.283840388
 30
0.0
  0
VERTEX
  5
412
  8
0
  6
CONTINUOUS
 62
     7
 10
3.6761080006
 20
1.268534972
 30
0.0
  0
VERTEX
  5
413
  8
0
  6
CONTINUOUS
 62
     7
 10
3.6305885288
 20
1.2543942678
 30
0.0
  0
VERTEX
  5
414
  8
0
  6
CONTINUOUS
 62
     7
 10
3.5840159248
 20
1.2414467528
 30
0.0
  0
VERTEX
  5
415
  8
0
  6
CONTINUOUS
 62
     7
 10
3.5364839797
 20
1.2297185015
 30
0.0
  0
VERTEX
  5
416
  8
0
  6
CONTINUOUS
 62
     7
 10
3.4880884164
 20
1.2192331332
 30
0.0
  0
VERTEX
  5
417
  8
0
  6
CONTINUOUS
 62
     7
 10
3.4389266972
 20
1.2100117639
 30
0.0
  0
VERTEX
  5
418
  8
0
  6
CONTINUOUS
 62
     7
 10
3.3890978273
 20
1.2020729643
 30
0.0
  0
VERTEX
  5
419
  8
0
  6
CONTINUOUS
 62
     7
 10
3.3387021552
 20
1.1954327221
 30
0.0
  0
VERTEX
  5
41A
  8
0
  6
CONTINUOUS
 62
     7
 10
3.2878411713
 20
1.1901044097
 30
0.0
  0
VERTEX
  5
41B
  8
0
  6
CONTINUOUS
 62
     7
 10
3.2366173028
 20
1.1860987578
 30
0.0
  0
VERTEX
  5
41C
  8
0
  6
CONTINUOUS
 62
     7
 10
3.1851337078
 20
1.1834238332
 30
0.0
  0
VERTEX
  5
41D
  8
0
  6
CONTINUOUS
 62
     7
 10
3.1334940672
 20
1.1820850228
 30
0.0
  0
VERTEX
  5
41E
  8
0
  6
CONTINUOUS
 62
     7
 10
3.0818023766
 20
1.1820850228
 30
0.0
  0
VERTEX
  5
41F
  8
0
  6
CONTINUOUS
 62
     7
 10
3.0301627361
 20
1.1834238332
 30
0.0
  0
VERTEX
  5
420
  8
0
  6
CONTINUOUS
 62
     7
 10
2.978679141
 20
1.1860987578
 30
0.0
  0
VERTEX
  5
421
  8
0
  6
CONTINUOUS
 62
     7
 10
2.9274552725
 20
1.1901044097
 30
0.0
  0
VERTEX
  5
422
  8
0
  6
CONTINUOUS
 62
     7
 10
2.8765942886
 20
1.1954327221
 30
0.0
  0
VERTEX
  5
423
  8
0
  6
CONTINUOUS
 62
     7
 10
2.8261986166
 20
1.2020729643
 30
0.0
  0
VERTEX
  5
424
  8
0
  6
CONTINUOUS
 62
     7
 10
2.7763697466
 20
1.2100117639
 30
0.0
  0
VERTEX
  5
425
  8
0
  6
CONTINUOUS
 62
     7
 10
2.7272080274
 20
1.2192331332
 30
0.0
  0
VERTEX
  5
426
  8
0
  6
CONTINUOUS
 62
     7
 10
2.6788124642
 20
1.2297185015
 30
0.0
  0
VERTEX
  5
427
  8
0
  6
CONTINUOUS
 62
     7
 10
2.631280519
 20
1.2414467528
 30
0.0
  0
VERTEX
  5
428
  8
0
  6
CONTINUOUS
 62
     7
 10
2.584707915
 20
1.2543942678
 30
0.0
  0
VERTEX
  5
429
  8
0
  6
CONTINUOUS
 62
     7
 10
2.5391884432
 20
1.268534972
 30
0.0
  0
VERTEX
  5
42A
  8
0
  6
CONTINUOUS
 62
     7
 10
2.4948137738
 20
1.283840388
 30
0.0
  0
VERTEX
  5
42B
  8
0
  6
CONTINUOUS
 62
     7
 10
2.4516732714
 20
1.3002796926
 30
0.0
  0
VERTEX
  5
42C
  8
0
  6
CONTINUOUS
 62
     7
 10
2.4098538152
 20
1.3178197793
 30
0.0
  0
VERTEX
  5
42D
  8
0
  6
CONTINUOUS
 62
     7
 10
2.3694396241
 20
1.3364253246
 30
0.0
  0
VERTEX
  5
42E
  8
0
  6
CONTINUOUS
 62
     7
 10
2.3305120868
 20
1.3560588595
 30
0.0
  0
VERTEX
  5
42F
  8
0
  6
CONTINUOUS
 62
     7
 10
2.2931495984
 20
1.3766808447
 30
0.0
  0
VERTEX
  5
430
  8
0
  6
CONTINUOUS
 62
     7
 10
2.2574274017
 20
1.3982497502
 30
0.0
  0
VERTEX
  5
431
  8
0
  6
CONTINUOUS
 62
     7
 10
2.2234174366
 20
1.4207221391
 30
0.0
  0
VERTEX
  5
432
  8
0
  6
CONTINUOUS
 62
     7
 10
2.1911881947
 20
1.444052755
 30
0.0
  0
VERTEX
  5
433
  8
0
  6
CONTINUOUS
 62
     7
 10
2.1608045813
 20
1.4681946132
 30
0.0
  0
VERTEX
  5
434
  8
0
  6
CONTINUOUS
 62
     7
 10
2.1323277849
 20
1.4930990952
 30
0.0
  0
VERTEX
  5
435
  8
0
  6
CONTINUOUS
 62
     7
 10
2.1058151542
 20
1.5187160466
 30
0.0
  0
VERTEX
  5
436
  8
0
  6
CONTINUOUS
 62
     7
 10
2.0813200819
 20
1.5449938783
 30
0.0
  0
VERTEX
  5
437
  8
0
  6
CONTINUOUS
 62
     7
 10
2.0588918979
 20
1.5718796703
 30
0.0
  0
VERTEX
  5
438
  8
0
  6
CONTINUOUS
 62
     7
 10
2.0385757695
 20
1.5993192781
 30
0.0
  0
VERTEX
  5
439
  8
0
  6
CONTINUOUS
 62
     7
 10
2.0204126108
 20
1.6272574421
 30
0.0
  0
VERTEX
  5
43A
  8
0
  6
CONTINUOUS
 62
     7
 10
2.004439
 20
1.6556378986
 30
0.0
  0
VERTEX
  5
43B
  8
0
  6
CONTINUOUS
 62
     7
 10
1.9906871056
 20
1.6844034929
 30
0.0
  0
VERTEX
  5
43C
  8
0
  6
CONTINUOUS
 62
     7
 10
1.9791846224
 20
1.7134962951
 30
0.0
  0
VERTEX
  5
43D
  8
0
  6
CONTINUOUS
 62
     7
 10
1.9699547146
 20
1.7428577161
 30
0.0
  0
VERTEX
  5
43E
  8
0
  6
CONTINUOUS
 62
     7
 10
1.9630159702
 20
1.772428626
 30
0.0
  0
VERTEX
  5
43F
  8
0
  6
CONTINUOUS
 62
     7
 10
1.9583823627
 20
1.8021494728
 30
0.0
  0
VERTEX
  5
440
  8
0
  6
CONTINUOUS
 62
     7
 10
1.9560632238
 20
1.8319604027
 30
0.0
  0
VERTEX
  5
441
  8
0
  6
CONTINUOUS
 62
     7
 10
1.9557732219
 20
1.8468808916
 30
0.0
  0
SEQEND
  5
679
  8
0
  6
CONTINUOUS
 62
     7
  0
ARC
  5
169
  8
0
  6
CONTINUOUS
 62
     7
 10
3.1076482219
 20
2.9107158368
 30
0.0
 40
1.737507774816838
 50
242.567092903
 51
297.432907097
  0
POLYLINE
  5
16A
  8
0
  6
CONTINUOUS
 62
     7
 66
     1
 10
0.0
 20
0.0
 30
0.0
 70
   128
  0
VERTEX
  5
442
  8
0
  6
CONTINUOUS
 62
     7
 10
2.6515643481
 20
2.2489844457
 30
0.0
  0
VERTEX
  5
443
  8
0
  6
CONTINUOUS
 62
     7
 10
2.6796563892
 20
2.2642591202
 30
0.0
  0
VERTEX
  5
444
  8
0
  6
CONTINUOUS
 62
     7
 10
2.7092805301
 20
2.2785365997
 30
0.0
  0
VERTEX
  5
445
  8
0
  6
CONTINUOUS
 62
     7
 10
2.7403307238
 20
2.2917657745
 30
0.0
  0
VERTEX
  5
446
  8
0
  6
CONTINUOUS
 62
     7
 10
2.7726958189
 20
2.3038992876
 30
0.0
  0
VERTEX
  5
447
  8
0
  6
CONTINUOUS
 62
     7
 10
2.8062599567
 20
2.3148937041
 30
0.0
  0
VERTEX
  5
448
  8
0
  6
CONTINUOUS
 62
     7
 10
2.8409029862
 20
2.324709667
 30
0.0
  0
VERTEX
  5
449
  8
0
  6
CONTINUOUS
 62
     7
 10
2.8765008945
 20
2.3333120376
 30
0.0
  0
VERTEX
  5
44A
  8
0
  6
CONTINUOUS
 62
     7
 10
2.9129262502
 20
2.3406700216
 30
0.0
  0
VERTEX
  5
44B
  8
0
  6
CONTINUOUS
 62
     7
 10
2.95004866
 20
2.3467572794
 30
0.0
  0
VERTEX
  5
44C
  8
0
  6
CONTINUOUS
 62
     7
 10
2.9877352353
 20
2.3515520202
 30
0.0
  0
VERTEX
  5
44D
  8
0
  6
CONTINUOUS
 62
     7
 10
3.025851068
 20
2.3550370801
 30
0.0
  0
VERTEX
  5
44E
  8
0
  6
CONTINUOUS
 62
     7
 10
3.0642597133
 20
2.3571999834
 30
0.0
  0
VERTEX
  5
44F
  8
0
  6
CONTINUOUS
 62
     7
 10
3.1028236782
 20
2.3580329874
 30
0.0
  0
VERTEX
  5
450
  8
0
  6
CONTINUOUS
 62
     7
 10
3.1414049137
 20
2.3575331104
 30
0.0
  0
VERTEX
  5
451
  8
0
  6
CONTINUOUS
 62
     7
 10
3.179865309
 20
2.3557021417
 30
0.0
  0
VERTEX
  5
452
  8
0
  6
CONTINUOUS
 62
     7
 10
3.2180671859
 20
2.3525466356
 30
0.0
  0
VERTEX
  5
453
  8
0
  6
CONTINUOUS
 62
     7
 10
3.2558737915
 20
2.3480778882
 30
0.0
  0
VERTEX
  5
454
  8
0
  6
CONTINUOUS
 62
     7
 10
3.2931497881
 20
2.3423118963
 30
0.0
  0
VERTEX
  5
455
  8
0
  6
CONTINUOUS
 62
     7
 10
3.3297617372
 20
2.3352693006
 30
0.0
  0
VERTEX
  5
456
  8
0
  6
CONTINUOUS
 62
     7
 10
3.3655785776
 20
2.326975312
 30
0.0
  0
VERTEX
  5
457
  8
0
  6
CONTINUOUS
 62
     7
 10
3.4004720943
 20
2.3174596206
 30
0.0
  0
VERTEX
  5
458
  8
0
  6
CONTINUOUS
 62
     7
 10
3.4343173774
 20
2.3067562902
 30
0.0
  0
VERTEX
  5
459
  8
0
  6
CONTINUOUS
 62
     7
 10
3.4669932698
 20
2.294903636
 30
0.0
  0
VERTEX
  5
45A
  8
0
  6
CONTINUOUS
 62
     7
 10
3.4983828002
 20
2.2819440873
 30
0.0
  0
VERTEX
  5
45B
  8
0
  6
CONTINUOUS
 62
     7
 10
3.5283736022
 20
2.267924036
 30
0.0
  0
VERTEX
  5
45C
  8
0
  6
CONTINUOUS
 62
     7
 10
3.5568583165
 20
2.2528936703
 30
0.0
  0
VERTEX
  5
45D
  8
0
  6
CONTINUOUS
 62
     7
 10
3.5837349753
 20
2.2369067949
 30
0.0
  0
VERTEX
  5
45E
  8
0
  6
CONTINUOUS
 62
     7
 10
3.6089073671
 20
2.2200206387
 30
0.0
  0
VERTEX
  5
45F
  8
0
  6
CONTINUOUS
 62
     7
 10
3.6322853812
 20
2.2022956497
 30
0.0
  0
VERTEX
  5
460
  8
0
  6
CONTINUOUS
 62
     7
 10
3.6537853304
 20
2.1837952789
 30
0.0
  0
VERTEX
  5
461
  8
0
  6
CONTINUOUS
 62
     7
 10
3.6733302506
 20
2.1645857527
 30
0.0
  0
VERTEX
  5
462
  8
0
  6
CONTINUOUS
 62
     7
 10
3.6908501759
 20
2.1447358363
 30
0.0
  0
VERTEX
  5
463
  8
0
  6
CONTINUOUS
 62
     7
 10
3.7062823895
 20
2.1243165871
 30
0.0
  0
VERTEX
  5
464
  8
0
  6
CONTINUOUS
 62
     7
 10
3.7195716482
 20
2.103401101
 30
0.0
  0
VERTEX
  5
465
  8
0
  6
CONTINUOUS
 62
     7
 10
3.7227319815
 20
2.0977773216
 30
0.0
  0
SEQEND
  5
67A
  8
0
  6
CONTINUOUS
 62
     7
  0
ARC
  5
16B
  8
0
  6
CONTINUOUS
 62
     7
 10
2.8408367076
 20
1.8910336173
 30
0.0
 40
0.4049108810989629
 50
117.8683801174
 51
149.7007707906
  0
POLYLINE
  5
16C
  8
0
  6
CONTINUOUS
 62
     7
 66
     1
 10
0.0
 20
0.0
 30
0.0
 70
   128
  0
VERTEX
  5
466
  8
0
  6
CONTINUOUS
 62
     7
 10
2.6515643481
 20
2.1101725077
 30
0.0
  0
VERTEX
  5
467
  8
0
  6
CONTINUOUS
 62
     7
 10
2.6796563892
 20
2.1254471822
 30
0.0
  0
VERTEX
  5
468
  8
0
  6
CONTINUOUS
 62
     7
 10
2.7092805301
 20
2.1397246617
 30
0.0
  0
VERTEX
  5
469
  8
0
  6
CONTINUOUS
 62
     7
 10
2.7403307238
 20
2.1529538365
 30
0.0
  0
VERTEX
  5
46A
  8
0
  6
CONTINUOUS
 62
     7
 10
2.7726958189
 20
2.1650873496
 30
0.0
  0
VERTEX
  5
46B
  8
0
  6
CONTINUOUS
 62
     7
 10
2.8062599567
 20
2.1760817661
 30
0.0
  0
VERTEX
  5
46C
  8
0
  6
CONTINUOUS
 62
     7
 10
2.8409029862
 20
2.185897729
 30
0.0
  0
VERTEX
  5
46D
  8
0
  6
CONTINUOUS
 62
     7
 10
2.8765008945
 20
2.1945000996
 30
0.0
  0
VERTEX
  5
46E
  8
0
  6
CONTINUOUS
 62
     7
 10
2.9129262502
 20
2.2018580836
 30
0.0
  0
VERTEX
  5
46F
  8
0
  6
CONTINUOUS
 62
     7
 10
2.95004866
 20
2.2079453414
 30
0.0
  0
VERTEX
  5
470
  8
0
  6
CONTINUOUS
 62
     7
 10
2.9877352353
 20
2.2127400822
 30
0.0
  0
VERTEX
  5
471
  8
0
  6
CONTINUOUS
 62
     7
 10
3.025851068
 20
2.216225142
 30
0.0
  0
VERTEX
  5
472
  8
0
  6
CONTINUOUS
 62
     7
 10
3.0642597133
 20
2.2183880453
 30
0.0
  0
VERTEX
  5
473
  8
0
  6
CONTINUOUS
 62
     7
 10
3.1028236782
 20
2.2192210494
 30
0.0
  0
VERTEX
  5
474
  8
0
  6
CONTINUOUS
 62
     7
 10
3.1414049137
 20
2.2187211724
 30
0.0
  0
VERTEX
  5
475
  8
0
  6
CONTINUOUS
 62
     7
 10
3.179865309
 20
2.2168902036
 30
0.0
  0
VERTEX
  5
476
  8
0
  6
CONTINUOUS
 62
     7
 10
3.2180671859
 20
2.2137346976
 30
0.0
  0
VERTEX
  5
477
  8
0
  6
CONTINUOUS
 62
     7
 10
3.2558737915
 20
2.2092659502
 30
0.0
  0
VERTEX
  5
478
  8
0
  6
CONTINUOUS
 62
     7
 10
3.2931497881
 20
2.2034999582
 30
0.0
  0
VERTEX
  5
479
  8
0
  6
CONTINUOUS
 62
     7
 10
3.3297617372
 20
2.1964573626
 30
0.0
  0
VERTEX
  5
47A
  8
0
  6
CONTINUOUS
 62
     7
 10
3.3655785776
 20
2.188163374
 30
0.0
  0
VERTEX
  5
47B
  8
0
  6
CONTINUOUS
 62
     7
 10
3.4004720943
 20
2.1786476826
 30
0.0
  0
VERTEX
  5
47C
  8
0
  6
CONTINUOUS
 62
     7
 10
3.4343173774
 20
2.1679443522
 30
0.0
  0
VERTEX
  5
47D
  8
0
  6
CONTINUOUS
 62
     7
 10
3.4669932698
 20
2.156091698
 30
0.0
  0
VERTEX
  5
47E
  8
0
  6
CONTINUOUS
 62
     7
 10
3.4983828002
 20
2.1431321493
 30
0.0
  0
VERTEX
  5
47F
  8
0
  6
CONTINUOUS
 62
     7
 10
3.5283736022
 20
2.129112098
 30
0.0
  0
VERTEX
  5
480
  8
0
  6
CONTINUOUS
 62
     7
 10
3.5568583165
 20
2.1140817323
 30
0.0
  0
VERTEX
  5
481
  8
0
  6
CONTINUOUS
 62
     7
 10
3.5837349753
 20
2.0980948568
 30
0.0
  0
VERTEX
  5
482
  8
0
  6
CONTINUOUS
 62
     7
 10
3.6089073671
 20
2.0812087006
 30
0.0
  0
VERTEX
  5
483
  8
0
  6
CONTINUOUS
 62
     7
 10
3.6322853812
 20
2.0634837117
 30
0.0
  0
VERTEX
  5
484
  8
0
  6
CONTINUOUS
 62
     7
 10
3.6537853304
 20
2.0449833408
 30
0.0
  0
VERTEX
  5
485
  8
0
  6
CONTINUOUS
 62
     7
 10
3.6733302506
 20
2.0257738147
 30
0.0
  0
VERTEX
  5
486
  8
0
  6
CONTINUOUS
 62
     7
 10
3.6818672451
 20
2.0164674609
 30
0.0
  0
SEQEND
  5
67B
  8
0
  6
CONTINUOUS
 62
     7
  0
ARC
  5
16D
  8
0
  6
CONTINUOUS
 62
     7
 10
2.8790384604
 20
1.7020470645
 30
0.0
 40
0.4672374654685186
 50
119.133687776
 51
137.6556345899
  0
ARC
  5
16E
  8
0
  6
CONTINUOUS
 62
     7
 10
3.1076482219
 20
1.1930256373
 30
0.0
 40
1.023761576316848
 50
63.1039593923
 51
116.8960406077
  0
ARC
  5
16F
  8
0
  6
CONTINUOUS
 62
     7
 10
3.8875382135
 20
1.7978906069
 30
0.0
 40
0.391982642622463
 50
352.4253997426
 51
7.8441602742
  0
ARC
  5
170
  8
0
  6
CONTINUOUS
 62
     7
 10
2.3282632284
 20
1.7978885128
 30
0.0
 40
0.3924836188073944
 50
171.8762170417
 51
188.1119445894
  0
ARC
  5
171
  8
0
  6
CONTINUOUS
 62
     7
 10
3.8871784092
 20
1.6774926212
 30
0.0
 40
0.3923448152168464
 50
352.426277235
 51
359.9935820749
  0
ARC
  5
172
  8
0
  6
CONTINUOUS
 62
     7
 10
2.3286412403
 20
1.6775208593
 30
0.0
 40
0.3928680250433558
 50
180.0105276132
 51
188.1145776248
  0
POLYLINE
  5
173
  8
0
  6
CONTINUOUS
 62
     8
 66
     1
 10
0.0
 20
0.0
 30
0.0
 70
   128
  0
VERTEX
  5
487
  8
0
  6
CONTINUOUS
 62
     8
 10
4.2761004443
 20
2.1034572508
 30
0.0
  0
VERTEX
  5
488
  8
0
  6
CONTINUOUS
 62
     8
 10
4.2742731394
 20
2.0911598046
 30
0.0
  0
VERTEX
  5
489
  8
0
  6
CONTINUOUS
 62
     8
 10
4.2681790992
 20
2.0612219685
 30
0.0
  0
VERTEX
  5
48A
  8
0
  6
CONTINUOUS
 62
     8
 10
4.2597809323
 20
2.0314705683
 30
0.0
  0
VERTEX
  5
48B
  8
0
  6
CONTINUOUS
 62
     8
 10
4.2490953126
 20
2.0019646725
 30
0.0
  0
VERTEX
  5
48C
  8
0
  6
CONTINUOUS
 62
     8
 10
4.2361434554
 20
1.9727628626
 30
0.0
  0
VERTEX
  5
48D
  8
0
  6
CONTINUOUS
 62
     8
 10
4.2209510753
 20
1.9439231158
 30
0.0
  0
VERTEX
  5
48E
  8
0
  6
CONTINUOUS
 62
     8
 10
4.2035483354
 20
1.915502691
 30
0.0
  0
VERTEX
  5
48F
  8
0
  6
CONTINUOUS
 62
     8
 10
4.1839697874
 20
1.8875580142
 30
0.0
  0
VERTEX
  5
490
  8
0
  6
CONTINUOUS
 62
     8
 10
4.1622543024
 20
1.8601445669
 30
0.0
  0
VERTEX
  5
491
  8
0
  6
CONTINUOUS
 62
     8
 10
4.1384449948
 20
1.8333167761
 30
0.0
  0
VERTEX
  5
492
  8
0
  6
CONTINUOUS
 62
     8
 10
4.1125891355
 20
1.8071279058
 30
0.0
  0
VERTEX
  5
493
  8
0
  6
CONTINUOUS
 62
     8
 10
4.0847380591
 20
1.7816299517
 30
0.0
  0
VERTEX
  5
494
  8
0
  6
CONTINUOUS
 62
     8
 10
4.0549470613
 20
1.7568735374
 30
0.0
  0
VERTEX
  5
495
  8
0
  6
CONTINUOUS
 62
     8
 10
4.0232752893
 20
1.7329078147
 30
0.0
  0
VERTEX
  5
496
  8
0
  6
CONTINUOUS
 62
     8
 10
3.9897856245
 20
1.7097803652
 30
0.0
  0
VERTEX
  5
497
  8
0
  6
CONTINUOUS
 62
     8
 10
3.9545445575
 20
1.6875371064
 30
0.0
  0
VERTEX
  5
498
  8
0
  6
CONTINUOUS
 62
     8
 10
3.9176220563
 20
1.6662222001
 30
0.0
  0
VERTEX
  5
499
  8
0
  6
CONTINUOUS
 62
     8
 10
3.879091427
 20
1.6458779652
 30
0.0
  0
VERTEX
  5
49A
  8
0
  6
CONTINUOUS
 62
     8
 10
3.8390291686
 20
1.6265447933
 30
0.0
  0
VERTEX
  5
49B
  8
0
  6
CONTINUOUS
 62
     8
 10
3.7975148211
 20
1.6082610685
 30
0.0
  0
VERTEX
  5
49C
  8
0
  6
CONTINUOUS
 62
     8
 10
3.7546308073
 20
1.5910630915
 30
0.0
  0
VERTEX
  5
49D
  8
0
  6
CONTINUOUS
 62
     8
 10
3.7104622694
 20
1.5749850073
 30
0.0
  0
VERTEX
  5
49E
  8
0
  6
CONTINUOUS
 62
     8
 10
3.6650969001
 20
1.5600587375
 30
0.0
  0
VERTEX
  5
49F
  8
0
  6
CONTINUOUS
 62
     8
 10
3.618624768
 20
1.5463139167
 30
0.0
  0
VERTEX
  5
4A0
  8
0
  6
CONTINUOUS
 62
     8
 10
3.5711381392
 20
1.5337778341
 30
0.0
  0
VERTEX
  5
4A1
  8
0
  6
CONTINUOUS
 62
     8
 10
3.5227312942
 20
1.5224753789
 30
0.0
  0
VERTEX
  5
4A2
  8
0
  6
CONTINUOUS
 62
     8
 10
3.4735003401
 20
1.512428991
 30
0.0
  0
VERTEX
  5
4A3
  8
0
  6
CONTINUOUS
 62
     8
 10
3.4235430205
 20
1.5036586167
 30
0.0
  0
VERTEX
  5
4A4
  8
0
  6
CONTINUOUS
 62
     8
 10
3.372958521
 20
1.4961816687
 30
0.0
  0
VERTEX
  5
4A5
  8
0
  6
CONTINUOUS
 62
     8
 10
3.3218472725
 20
1.4900129917
 30
0.0
  0
VERTEX
  5
4A6
  8
0
  6
CONTINUOUS
 62
     8
 10
3.2703107516
 20
1.4851648332
 30
0.0
  0
VERTEX
  5
4A7
  8
0
  6
CONTINUOUS
 62
     8
 10
3.2184512793
 20
1.4816468186
 30
0.0
  0
VERTEX
  5
4A8
  8
0
  6
CONTINUOUS
 62
     8
 10
3.1663718178
 20
1.4794659328
 30
0.0
  0
VERTEX
  5
4A9
  8
0
  6
CONTINUOUS
 62
     8
 10
3.114175766
 20
1.4786265055
 30
0.0
  0
VERTEX
  5
4AA
  8
0
  6
CONTINUOUS
 62
     8
 10
3.0619667544
 20
1.4791302035
 30
0.0
  0
VERTEX
  5
4AB
  8
0
  6
CONTINUOUS
 62
     8
 10
3.0098484391
 20
1.4809760267
 30
0.0
  0
VERTEX
  5
4AC
  8
0
  6
CONTINUOUS
 62
     8
 10
2.9579242962
 20
1.4841603104
 30
0.0
  0
VERTEX
  5
4AD
  8
0
  6
CONTINUOUS
 62
     8
 10
2.9062974163
 20
1.4886767325
 30
0.0
  0
VERTEX
  5
4AE
  8
0
  6
CONTINUOUS
 62
     8
 10
2.8550702999
 20
1.494516326
 30
0.0
  0
VERTEX
  5
4AF
  8
0
  6
CONTINUOUS
 62
     8
 10
2.8043446535
 20
1.501667497
 30
0.0
  0
VERTEX
  5
4B0
  8
0
  6
CONTINUOUS
 62
     8
 10
2.7542211882
 20
1.5101160474
 30
0.0
  0
VERTEX
  5
4B1
  8
0
  6
CONTINUOUS
 62
     8
 10
2.7047994196
 20
1.5198452035
 30
0.0
  0
VERTEX
  5
4B2
  8
0
  6
CONTINUOUS
 62
     8
 10
2.65617747
 20
1.530835649
 30
0.0
  0
VERTEX
  5
4B3
  8
0
  6
CONTINUOUS
 62
     8
 10
2.6084518739
 20
1.5430655632
 30
0.0
  0
VERTEX
  5
4B4
  8
0
  6
CONTINUOUS
 62
     8
 10
2.5617173858
 20
1.5565106649
 30
0.0
  0
VERTEX
  5
4B5
  8
0
  6
CONTINUOUS
 62
     8
 10
2.5160667929
 20
1.5711442601
 30
0.0
  0
VERTEX
  5
4B6
  8
0
  6
CONTINUOUS
 62
     8
 10
2.4715907302
 20
1.5869372951
 30
0.0
  0
VERTEX
  5
4B7
  8
0
  6
CONTINUOUS
 62
     8
 10
2.4283775007
 20
1.6038584142
 30
0.0
  0
VERTEX
  5
4B8
  8
0
  6
CONTINUOUS
 62
     8
 10
2.3865129004
 20
1.6218740222
 30
0.0
  0
VERTEX
  5
4B9
  8
0
  6
CONTINUOUS
 62
     8
 10
2.3460800475
 20
1.6409483508
 30
0.0
  0
VERTEX
  5
4BA
  8
0
  6
CONTINUOUS
 62
     8
 10
2.3071592177
 20
1.6610435296
 30
0.0
  0
VERTEX
  5
4BB
  8
0
  6
CONTINUOUS
 62
     8
 10
2.2698276847
 20
1.6821196615
 30
0.0
  0
VERTEX
  5
4BC
  8
0
  6
CONTINUOUS
 62
     8
 10
2.2341595669
 20
1.7041349019
 30
0.0
  0
VERTEX
  5
4BD
  8
0
  6
CONTINUOUS
 62
     8
 10
2.2002256799
 20
1.7270455414
 30
0.0
  0
VERTEX
  5
4BE
  8
0
  6
CONTINUOUS
 62
     8
 10
2.1680933964
 20
1.7508060932
 30
0.0
  0
VERTEX
  5
4BF
  8
0
  6
CONTINUOUS
 62
     8
 10
2.1378265121
 20
1.7753693828
 30
0.0
  0
VERTEX
  5
4C0
  8
0
  6
CONTINUOUS
 62
     8
 10
2.109485119
 20
1.8006866422
 30
0.0
  0
VERTEX
  5
4C1
  8
0
  6
CONTINUOUS
 62
     8
 10
2.0831254863
 20
1.8267076062
 30
0.0
  0
VERTEX
  5
4C2
  8
0
  6
CONTINUOUS
 62
     8
 10
2.0587999486
 20
1.8533806126
 30
0.0
  0
VERTEX
  5
4C3
  8
0
  6
CONTINUOUS
 62
     8
 10
2.0365568022
 20
1.8806527047
 30
0.0
  0
VERTEX
  5
4C4
  8
0
  6
CONTINUOUS
 62
     8
 10
2.0164402086
 20
1.9084697362
 30
0.0
  0
VERTEX
  5
4C5
  8
0
  6
CONTINUOUS
 62
     8
 10
1.9984901075
 20
1.936776479
 30
0.0
  0
VERTEX
  5
4C6
  8
0
  6
CONTINUOUS
 62
     8
 10
1.9827421372
 20
1.9655167326
 30
0.0
  0
VERTEX
  5
4C7
  8
0
  6
CONTINUOUS
 62
     8
 10
1.9692275637
 20
1.9946334361
 30
0.0
  0
VERTEX
  5
4C8
  8
0
  6
CONTINUOUS
 62
     8
 10
1.9579732192
 20
2.0240687807
 30
0.0
  0
VERTEX
  5
4C9
  8
0
  6
CONTINUOUS
 62
     8
 10
1.9490014479
 20
2.0537643255
 30
0.0
  0
VERTEX
  5
4CA
  8
0
  6
CONTINUOUS
 62
     8
 10
1.9423300625
 20
2.0836611126
 30
0.0
  0
VERTEX
  5
4CB
  8
0
  6
CONTINUOUS
 62
     8
 10
1.9397066978
 20
2.0997426881
 30
0.0
  0
SEQEND
  5
67C
  8
0
  6
CONTINUOUS
 62
     8
  0
POLYLINE
  5
174
  8
0
  6
CONTINUOUS
 62
     8
 66
     1
 10
0.0
 20
0.0
 30
0.0
 70
   128
  0
VERTEX
  5
4CC
  8
0
  6
CONTINUOUS
 62
     8
 10
4.2761004443
 20
1.9830174811
 30
0.0
  0
VERTEX
  5
4CD
  8
0
  6
CONTINUOUS
 62
     8
 10
4.2742731394
 20
1.9707200349
 30
0.0
  0
VERTEX
  5
4CE
  8
0
  6
CONTINUOUS
 62
     8
 10
4.2681790992
 20
1.9407821988
 30
0.0
  0
VERTEX
  5
4CF
  8
0
  6
CONTINUOUS
 62
     8
 10
4.2597809323
 20
1.9110307985
 30
0.0
  0
VERTEX
  5
4D0
  8
0
  6
CONTINUOUS
 62
     8
 10
4.2490953126
 20
1.8815249028
 30
0.0
  0
VERTEX
  5
4D1
  8
0
  6
CONTINUOUS
 62
     8
 10
4.2361434554
 20
1.8523230928
 30
0.0
  0
VERTEX
  5
4D2
  8
0
  6
CONTINUOUS
 62
     8
 10
4.2209510753
 20
1.8234833461
 30
0.0
  0
VERTEX
  5
4D3
  8
0
  6
CONTINUOUS
 62
     8
 10
4.2035483354
 20
1.7950629213
 30
0.0
  0
VERTEX
  5
4D4
  8
0
  6
CONTINUOUS
 62
     8
 10
4.1839697874
 20
1.7671182444
 30
0.0
  0
VERTEX
  5
4D5
  8
0
  6
CONTINUOUS
 62
     8
 10
4.1622543024
 20
1.7397047972
 30
0.0
  0
VERTEX
  5
4D6
  8
0
  6
CONTINUOUS
 62
     8
 10
4.1384449948
 20
1.7128770063
 30
0.0
  0
VERTEX
  5
4D7
  8
0
  6
CONTINUOUS
 62
     8
 10
4.1125891355
 20
1.6866881361
 30
0.0
  0
VERTEX
  5
4D8
  8
0
  6
CONTINUOUS
 62
     8
 10
4.0847380591
 20
1.6611901819
 30
0.0
  0
VERTEX
  5
4D9
  8
0
  6
CONTINUOUS
 62
     8
 10
4.0549470613
 20
1.6364337677
 30
0.0
  0
VERTEX
  5
4DA
  8
0
  6
CONTINUOUS
 62
     8
 10
4.0232752893
 20
1.612468045
 30
0.0
  0
VERTEX
  5
4DB
  8
0
  6
CONTINUOUS
 62
     8
 10
3.9897856245
 20
1.5893405955
 30
0.0
  0
VERTEX
  5
4DC
  8
0
  6
CONTINUOUS
 62
     8
 10
3.9545445575
 20
1.5670973367
 30
0.0
  0
VERTEX
  5
4DD
  8
0
  6
CONTINUOUS
 62
     8
 10
3.9176220563
 20
1.5457824304
 30
0.0
  0
VERTEX
  5
4DE
  8
0
  6
CONTINUOUS
 62
     8
 10
3.879091427
 20
1.5254381955
 30
0.0
  0
VERTEX
  5
4DF
  8
0
  6
CONTINUOUS
 62
     8
 10
3.8390291686
 20
1.5061050235
 30
0.0
  0
VERTEX
  5
4E0
  8
0
  6
CONTINUOUS
 62
     8
 10
3.7975148211
 20
1.4878212987
 30
0.0
  0
VERTEX
  5
4E1
  8
0
  6
CONTINUOUS
 62
     8
 10
3.7546308073
 20
1.4706233217
 30
0.0
  0
VERTEX
  5
4E2
  8
0
  6
CONTINUOUS
 62
     8
 10
3.7104622694
 20
1.4545452376
 30
0.0
  0
VERTEX
  5
4E3
  8
0
  6
CONTINUOUS
 62
     8
 10
3.6650969001
 20
1.4396189677
 30
0.0
  0
VERTEX
  5
4E4
  8
0
  6
CONTINUOUS
 62
     8
 10
3.618624768
 20
1.425874147
 30
0.0
  0
VERTEX
  5
4E5
  8
0
  6
CONTINUOUS
 62
     8
 10
3.5711381392
 20
1.4133380644
 30
0.0
  0
VERTEX
  5
4E6
  8
0
  6
CONTINUOUS
 62
     8
 10
3.5227312942
 20
1.4020356091
 30
0.0
  0
VERTEX
  5
4E7
  8
0
  6
CONTINUOUS
 62
     8
 10
3.4735003401
 20
1.3919892213
 30
0.0
  0
VERTEX
  5
4E8
  8
0
  6
CONTINUOUS
 62
     8
 10
3.4235430205
 20
1.3832188469
 30
0.0
  0
VERTEX
  5
4E9
  8
0
  6
CONTINUOUS
 62
     8
 10
3.372958521
 20
1.3757418989
 30
0.0
  0
VERTEX
  5
4EA
  8
0
  6
CONTINUOUS
 62
     8
 10
3.3218472725
 20
1.3695732219
 30
0.0
  0
VERTEX
  5
4EB
  8
0
  6
CONTINUOUS
 62
     8
 10
3.2703107516
 20
1.3647250634
 30
0.0
  0
VERTEX
  5
4EC
  8
0
  6
CONTINUOUS
 62
     8
 10
3.2184512793
 20
1.3612070489
 30
0.0
  0
VERTEX
  5
4ED
  8
0
  6
CONTINUOUS
 62
     8
 10
3.1663718178
 20
1.359026163
 30
0.0
  0
VERTEX
  5
4EE
  8
0
  6
CONTINUOUS
 62
     8
 10
3.114175766
 20
1.3581867358
 30
0.0
  0
VERTEX
  5
4EF
  8
0
  6
CONTINUOUS
 62
     8
 10
3.0619667544
 20
1.3586904338
 30
0.0
  0
VERTEX
  5
4F0
  8
0
  6
CONTINUOUS
 62
     8
 10
3.0098484391
 20
1.360536257
 30
0.0
  0
VERTEX
  5
4F1
  8
0
  6
CONTINUOUS
 62
     8
 10
2.9579242962
 20
1.3637205407
 30
0.0
  0
VERTEX
  5
4F2
  8
0
  6
CONTINUOUS
 62
     8
 10
2.9062974163
 20
1.3682369627
 30
0.0
  0
VERTEX
  5
4F3
  8
0
  6
CONTINUOUS
 62
     8
 10
2.8550702999
 20
1.3740765562
 30
0.0
  0
VERTEX
  5
4F4
  8
0
  6
CONTINUOUS
 62
     8
 10
2.8043446535
 20
1.3812277272
 30
0.0
  0
VERTEX
  5
4F5
  8
0
  6
CONTINUOUS
 62
     8
 10
2.7542211882
 20
1.3896762777
 30
0.0
  0
VERTEX
  5
4F6
  8
0
  6
CONTINUOUS
 62
     8
 10
2.7047994196
 20
1.3994054338
 30
0.0
  0
VERTEX
  5
4F7
  8
0
  6
CONTINUOUS
 62
     8
 10
2.65617747
 20
1.4103958792
 30
0.0
  0
VERTEX
  5
4F8
  8
0
  6
CONTINUOUS
 62
     8
 10
2.6084518739
 20
1.4226257935
 30
0.0
  0
VERTEX
  5
4F9
  8
0
  6
CONTINUOUS
 62
     8
 10
2.5617173858
 20
1.4360708952
 30
0.0
  0
VERTEX
  5
4FA
  8
0
  6
CONTINUOUS
 62
     8
 10
2.5160667929
 20
1.4507044904
 30
0.0
  0
VERTEX
  5
4FB
  8
0
  6
CONTINUOUS
 62
     8
 10
2.4715907302
 20
1.4664975253
 30
0.0
  0
VERTEX
  5
4FC
  8
0
  6
CONTINUOUS
 62
     8
 10
2.4283775007
 20
1.4834186445
 30
0.0
  0
VERTEX
  5
4FD
  8
0
  6
CONTINUOUS
 62
     8
 10
2.3865129004
 20
1.5014342525
 30
0.0
  0
VERTEX
  5
4FE
  8
0
  6
CONTINUOUS
 62
     8
 10
2.3460800475
 20
1.5205085811
 30
0.0
  0
VERTEX
  5
4FF
  8
0
  6
CONTINUOUS
 62
     8
 10
2.3071592177
 20
1.5406037599
 30
0.0
  0
VERTEX
  5
500
  8
0
  6
CONTINUOUS
 62
     8
 10
2.2698276847
 20
1.5616798918
 30
0.0
  0
VERTEX
  5
501
  8
0
  6
CONTINUOUS
 62
     8
 10
2.2341595669
 20
1.5836951321
 30
0.0
  0
VERTEX
  5
502
  8
0
  6
CONTINUOUS
 62
     8
 10
2.2002256799
 20
1.6066057717
 30
0.0
  0
VERTEX
  5
503
  8
0
  6
CONTINUOUS
 62
     8
 10
2.1680933964
 20
1.6303663234
 30
0.0
  0
VERTEX
  5
504
  8
0
  6
CONTINUOUS
 62
     8
 10
2.1378265121
 20
1.6549296131
 30
0.0
  0
VERTEX
  5
505
  8
0
  6
CONTINUOUS
 62
     8
 10
2.109485119
 20
1.6802468724
 30
0.0
  0
VERTEX
  5
506
  8
0
  6
CONTINUOUS
 62
     8
 10
2.0831254863
 20
1.7062678364
 30
0.0
  0
VERTEX
  5
507
  8
0
  6
CONTINUOUS
 62
     8
 10
2.0587999486
 20
1.7329408428
 30
0.0
  0
VERTEX
  5
508
  8
0
  6
CONTINUOUS
 62
     8
 10
2.0365568022
 20
1.7602129349
 30
0.0
  0
VERTEX
  5
509
  8
0
  6
CONTINUOUS
 62
     8
 10
2.0164402086
 20
1.7880299664
 30
0.0
  0
VERTEX
  5
50A
  8
0
  6
CONTINUOUS
 62
     8
 10
1.9984901075
 20
1.8163367092
 30
0.0
  0
VERTEX
  5
50B
  8
0
  6
CONTINUOUS
 62
     8
 10
1.9827421372
 20
1.8450769629
 30
0.0
  0
VERTEX
  5
50C
  8
0
  6
CONTINUOUS
 62
     8
 10
1.9692275637
 20
1.8741936663
 30
0.0
  0
VERTEX
  5
50D
  8
0
  6
CONTINUOUS
 62
     8
 10
1.9579732192
 20
1.903629011
 30
0.0
  0
VERTEX
  5
50E
  8
0
  6
CONTINUOUS
 62
     8
 10
1.9490014479
 20
1.9333245557
 30
0.0
  0
VERTEX
  5
50F
  8
0
  6
CONTINUOUS
 62
     8
 10
1.9423300625
 20
1.9632213428
 30
0.0
  0
VERTEX
  5
510
  8
0
  6
CONTINUOUS
 62
     8
 10
1.9397066978
 20
1.9793029183
 30
0.0
  0
SEQEND
  5
67D
  8
0
  6
CONTINUOUS
 62
     8
  0
POLYLINE
  5
175
  8
0
  6
CONTINUOUS
 62
     8
 66
     1
 10
0.0
 20
0.0
 30
0.0
 70
   128
  0
VERTEX
  5
511
  8
0
  6
CONTINUOUS
 62
     8
 10
2.6657064837
 20
2.410252583
 30
0.0
  0
VERTEX
  5
512
  8
0
  6
CONTINUOUS
 62
     8
 10
2.6934710339
 20
2.4253316255
 30
0.0
  0
VERTEX
  5
513
  8
0
  6
CONTINUOUS
 62
     8
 10
2.7227763504
 20
2.4394054818
 30
0.0
  0
VERTEX
  5
514
  8
0
  6
CONTINUOUS
 62
     8
 10
2.7535134155
 20
2.4524217961
 30
0.0
  0
VERTEX
  5
515
  8
0
  6
CONTINUOUS
 62
     8
 10
2.7855678854
 20
2.464332147
 30
0.0
  0
VERTEX
  5
516
  8
0
  6
CONTINUOUS
 62
     8
 10
2.8188205154
 20
2.4750922273
 30
0.0
  0
VERTEX
  5
517
  8
0
  6
CONTINUOUS
 62
     8
 10
2.8531476033
 20
2.4846620086
 30
0.0
  0
VERTEX
  5
518
  8
0
  6
CONTINUOUS
 62
     8
 10
2.8884214503
 20
2.4930058907
 30
0.0
  0
VERTEX
  5
519
  8
0
  6
CONTINUOUS
 62
     8
 10
2.9245108352
 20
2.5000928339
 30
0.0
  0
VERTEX
  5
51A
  8
0
  6
CONTINUOUS
 62
     8
 10
2.9612815033
 20
2.5058964744
 30
0.0
  0
VERTEX
  5
51B
  8
0
  6
CONTINUOUS
 62
     8
 10
2.9985966651
 20
2.510395222
 30
0.0
  0
VERTEX
  5
51C
  8
0
  6
CONTINUOUS
 62
     8
 10
3.036317506
 20
2.5135723413
 30
0.0
  0
VERTEX
  5
51D
  8
0
  6
CONTINUOUS
 62
     8
 10
3.0743037017
 20
2.5154160131
 30
0.0
  0
VERTEX
  5
51E
  8
0
  6
CONTINUOUS
 62
     8
 10
3.1124139413
 20
2.5159193789
 30
0.0
  0
VERTEX
  5
51F
  8
0
  6
CONTINUOUS
 62
     8
 10
3.1505064521
 20
2.515080566
 30
0.0
  0
VERTEX
  5
520
  8
0
  6
CONTINUOUS
 62
     8
 10
3.1884395274
 20
2.512902695
 30
0.0
  0
VERTEX
  5
521
  8
0
  6
CONTINUOUS
 62
     8
 10
3.2260720538
 20
2.5093938676
 30
0.0
  0
VERTEX
  5
522
  8
0
  6
CONTINUOUS
 62
     8
 10
3.2632640358
 20
2.504567137
 30
0.0
  0
VERTEX
  5
523
  8
0
  6
CONTINUOUS
 62
     8
 10
3.2998771167
 20
2.4984404588
 30
0.0
  0
VERTEX
  5
524
  8
0
  6
CONTINUOUS
 62
     8
 10
3.3357750935
 20
2.4910366248
 30
0.0
  0
VERTEX
  5
525
  8
0
  6
CONTINUOUS
 62
     8
 10
3.3708244233
 20
2.4823831776
 30
0.0
  0
VERTEX
  5
526
  8
0
  6
CONTINUOUS
 62
     8
 10
3.4048947204
 20
2.4725123087
 30
0.0
  0
VERTEX
  5
527
  8
0
  6
CONTINUOUS
 62
     8
 10
3.437859241
 20
2.4614607384
 30
0.0
  0
VERTEX
  5
528
  8
0
  6
CONTINUOUS
 62
     8
 10
3.4695953549
 20
2.4492695791
 30
0.0
  0
VERTEX
  5
529
  8
0
  6
CONTINUOUS
 62
     8
 10
3.4999850018
 20
2.4359841829
 30
0.0
  0
VERTEX
  5
52A
  8
0
  6
CONTINUOUS
 62
     8
 10
3.52891513
 20
2.4216539722
 30
0.0
  0
VERTEX
  5
52B
  8
0
  6
CONTINUOUS
 62
     8
 10
3.5562781176
 20
2.4063322565
 30
0.0
  0
VERTEX
  5
52C
  8
0
  6
CONTINUOUS
 62
     8
 10
3.5819721726
 20
2.3900760334
 30
0.0
  0
VERTEX
  5
52D
  8
0
  6
CONTINUOUS
 62
     8
 10
3.6059017113
 20
2.3729457772
 30
0.0
  0
VERTEX
  5
52E
  8
0
  6
CONTINUOUS
 62
     8
 10
3.6279777144
 20
2.3550052137
 30
0.0
  0
VERTEX
  5
52F
  8
0
  6
CONTINUOUS
 62
     8
 10
3.6481180575
 20
2.3363210827
 30
0.0
  0
VERTEX
  5
530
  8
0
  6
CONTINUOUS
 62
     8
 10
3.6662478173
 20
2.3169628906
 30
0.0
  0
VERTEX
  5
531
  8
0
  6
CONTINUOUS
 62
     8
 10
3.68229955
 20
2.2970026512
 30
0.0
  0
VERTEX
  5
532
  8
0
  6
CONTINUOUS
 62
     8
 10
3.696213542
 20
2.2765146177
 30
0.0
  0
VERTEX
  5
533
  8
0
  6
CONTINUOUS
 62
     8
 10
3.7079380323
 20
2.255575007
 30
0.0
  0
VERTEX
  5
534
  8
0
  6
CONTINUOUS
 62
     8
 10
3.7174294051
 20
2.2342617159
 30
0.0
  0
VERTEX
  5
535
  8
0
  6
CONTINUOUS
 62
     8
 10
3.7246523519
 20
2.2126540312
 30
0.0
  0
VERTEX
  5
536
  8
0
  6
CONTINUOUS
 62
     8
 10
3.7295800027
 20
2.1908323349
 30
0.0
  0
VERTEX
  5
537
  8
0
  6
CONTINUOUS
 62
     8
 10
3.7307392469
 20
2.1833033988
 30
0.0
  0
SEQEND
  5
67E
  8
0
  6
CONTINUOUS
 62
     8
  0
ARC
  5
176
  8
0
  6
CONTINUOUS
 62
     8
 10
2.8072030731
 20
2.1113701988
 30
0.0
 40
0.3306840854899045
 50
115.3337623314
 51
167.1891861411
  0
POLYLINE
  5
177
  8
0
  6
CONTINUOUS
 62
     8
 66
     1
 10
0.0
 20
0.0
 30
0.0
 70
   128
  0
VERTEX
  5
538
  8
0
  6
CONTINUOUS
 62
     8
 10
2.6657064837
 20
2.2898128133
 30
0.0
  0
VERTEX
  5
539
  8
0
  6
CONTINUOUS
 62
     8
 10
2.6934710339
 20
2.3048918558
 30
0.0
  0
VERTEX
  5
53A
  8
0
  6
CONTINUOUS
 62
     8
 10
2.7227763504
 20
2.318965712
 30
0.0
  0
VERTEX
  5
53B
  8
0
  6
CONTINUOUS
 62
     8
 10
2.7535134155
 20
2.3319820264
 30
0.0
  0
VERTEX
  5
53C
  8
0
  6
CONTINUOUS
 62
     8
 10
2.7855678854
 20
2.3438923773
 30
0.0
  0
VERTEX
  5
53D
  8
0
  6
CONTINUOUS
 62
     8
 10
2.8188205154
 20
2.3546524575
 30
0.0
  0
VERTEX
  5
53E
  8
0
  6
CONTINUOUS
 62
     8
 10
2.8531476033
 20
2.3642222388
 30
0.0
  0
VERTEX
  5
53F
  8
0
  6
CONTINUOUS
 62
     8
 10
2.8884214503
 20
2.372566121
 30
0.0
  0
VERTEX
  5
540
  8
0
  6
CONTINUOUS
 62
     8
 10
2.9245108352
 20
2.3796530642
 30
0.0
  0
VERTEX
  5
541
  8
0
  6
CONTINUOUS
 62
     8
 10
2.9612815033
 20
2.3854567046
 30
0.0
  0
VERTEX
  5
542
  8
0
  6
CONTINUOUS
 62
     8
 10
2.9985966651
 20
2.3899554523
 30
0.0
  0
VERTEX
  5
543
  8
0
  6
CONTINUOUS
 62
     8
 10
3.036317506
 20
2.3931325716
 30
0.0
  0
VERTEX
  5
544
  8
0
  6
CONTINUOUS
 62
     8
 10
3.0743037017
 20
2.3949762434
 30
0.0
  0
VERTEX
  5
545
  8
0
  6
CONTINUOUS
 62
     8
 10
3.1124139413
 20
2.3954796091
 30
0.0
  0
VERTEX
  5
546
  8
0
  6
CONTINUOUS
 62
     8
 10
3.1505064521
 20
2.3946407963
 30
0.0
  0
VERTEX
  5
547
  8
0
  6
CONTINUOUS
 62
     8
 10
3.1884395274
 20
2.3924629253
 30
0.0
  0
VERTEX
  5
548
  8
0
  6
CONTINUOUS
 62
     8
 10
3.2260720538
 20
2.3889540979
 30
0.0
  0
VERTEX
  5
549
  8
0
  6
CONTINUOUS
 62
     8
 10
3.2632640358
 20
2.3841273672
 30
0.0
  0
VERTEX
  5
54A
  8
0
  6
CONTINUOUS
 62
     8
 10
3.2998771167
 20
2.3780006891
 30
0.0
  0
VERTEX
  5
54B
  8
0
  6
CONTINUOUS
 62
     8
 10
3.3357750935
 20
2.370596855
 30
0.0
  0
VERTEX
  5
54C
  8
0
  6
CONTINUOUS
 62
     8
 10
3.3708244233
 20
2.3619434079
 30
0.0
  0
VERTEX
  5
54D
  8
0
  6
CONTINUOUS
 62
     8
 10
3.4048947204
 20
2.352072539
 30
0.0
  0
VERTEX
  5
54E
  8
0
  6
CONTINUOUS
 62
     8
 10
3.437859241
 20
2.3410209686
 30
0.0
  0
VERTEX
  5
54F
  8
0
  6
CONTINUOUS
 62
     8
 10
3.4695953549
 20
2.3288298094
 30
0.0
  0
VERTEX
  5
550
  8
0
  6
CONTINUOUS
 62
     8
 10
3.4999850018
 20
2.3155444131
 30
0.0
  0
VERTEX
  5
551
  8
0
  6
CONTINUOUS
 62
     8
 10
3.52891513
 20
2.3012142025
 30
0.0
  0
VERTEX
  5
552
  8
0
  6
CONTINUOUS
 62
     8
 10
3.5562781176
 20
2.2858924867
 30
0.0
  0
VERTEX
  5
553
  8
0
  6
CONTINUOUS
 62
     8
 10
3.5819721726
 20
2.2696362637
 30
0.0
  0
VERTEX
  5
554
  8
0
  6
CONTINUOUS
 62
     8
 10
3.6059017113
 20
2.2525060075
 30
0.0
  0
VERTEX
  5
555
  8
0
  6
CONTINUOUS
 62
     8
 10
3.6279777144
 20
2.2345654439
 30
0.0
  0
VERTEX
  5
556
  8
0
  6
CONTINUOUS
 62
     8
 10
3.6481180575
 20
2.215881313
 30
0.0
  0
VERTEX
  5
557
  8
0
  6
CONTINUOUS
 62
     8
 10
3.6662478173
 20
2.1965231209
 30
0.0
  0
VERTEX
  5
558
  8
0
  6
CONTINUOUS
 62
     8
 10
3.68229955
 20
2.1765628814
 30
0.0
  0
VERTEX
  5
559
  8
0
  6
CONTINUOUS
 62
     8
 10
3.696213542
 20
2.1560748479
 30
0.0
  0
VERTEX
  5
55A
  8
0
  6
CONTINUOUS
 62
     8
 10
3.7079380323
 20
2.1351352373
 30
0.0
  0
VERTEX
  5
55B
  8
0
  6
CONTINUOUS
 62
     8
 10
3.7174294051
 20
2.1138219462
 30
0.0
  0
VERTEX
  5
55C
  8
0
  6
CONTINUOUS
 62
     8
 10
3.7234785801
 20
2.0962631544
 30
0.0
  0
SEQEND
  5
67F
  8
0
  6
CONTINUOUS
 62
     8
  0
ARC
  5
178
  8
0
  6
CONTINUOUS
 62
     8
 10
2.8257208959
 20
1.9713754964
 30
0.0
 40
0.3563803261865647
 50
116.6794793399
 51
159.7628087441
  0
POLYLINE
  5
179
  8
0
  6
CONTINUOUS
 62
     8
 66
     1
 10
0.0
 20
0.0
 30
0.0
 70
   128
  0
VERTEX
  5
55D
  8
0
  6
CONTINUOUS
 62
     8
 10
4.2591757967
 20
1.8305500754
 30
0.0
  0
VERTEX
  5
55E
  8
0
  6
CONTINUOUS
 62
     8
 10
4.2592332201
 20
1.829139748
 30
0.0
  0
VERTEX
  5
55F
  8
0
  6
CONTINUOUS
 62
     8
 10
4.2592332201
 20
1.7992987702
 30
0.0
  0
VERTEX
  5
560
  8
0
  6
CONTINUOUS
 62
     8
 10
4.2569140811
 20
1.7694878403
 30
0.0
  0
VERTEX
  5
561
  8
0
  6
CONTINUOUS
 62
     8
 10
4.2522804737
 20
1.7397669935
 30
0.0
  0
VERTEX
  5
562
  8
0
  6
CONTINUOUS
 62
     8
 10
4.2453417293
 20
1.7101960836
 30
0.0
  0
VERTEX
  5
563
  8
0
  6
CONTINUOUS
 62
     8
 10
4.2361118215
 20
1.6808346626
 30
0.0
  0
VERTEX
  5
564
  8
0
  6
CONTINUOUS
 62
     8
 10
4.2246093382
 20
1.6517418604
 30
0.0
  0
VERTEX
  5
565
  8
0
  6
CONTINUOUS
 62
     8
 10
4.2108574439
 20
1.6229762661
 30
0.0
  0
VERTEX
  5
566
  8
0
  6
CONTINUOUS
 62
     8
 10
4.194883833
 20
1.5945958097
 30
0.0
  0
VERTEX
  5
567
  8
0
  6
CONTINUOUS
 62
     8
 10
4.1767206743
 20
1.5666576457
 30
0.0
  0
VERTEX
  5
568
  8
0
  6
CONTINUOUS
 62
     8
 10
4.156404546
 20
1.5392180378
 30
0.0
  0
VERTEX
  5
569
  8
0
  6
CONTINUOUS
 62
     8
 10
4.133976362
 20
1.5123322458
 30
0.0
  0
VERTEX
  5
56A
  8
0
  6
CONTINUOUS
 62
     8
 10
4.1094812897
 20
1.4860544141
 30
0.0
  0
VERTEX
  5
56B
  8
0
  6
CONTINUOUS
 62
     8
 10
4.0829686589
 20
1.4604374627
 30
0.0
  0
VERTEX
  5
56C
  8
0
  6
CONTINUOUS
 62
     8
 10
4.0544918626
 20
1.4355329807
 30
0.0
  0
VERTEX
  5
56D
  8
0
  6
CONTINUOUS
 62
     8
 10
4.0241082492
 20
1.4113911226
 30
0.0
  0
VERTEX
  5
56E
  8
0
  6
CONTINUOUS
 62
     8
 10
3.9918790072
 20
1.3880605066
 30
0.0
  0
VERTEX
  5
56F
  8
0
  6
CONTINUOUS
 62
     8
 10
3.9578690422
 20
1.3655881177
 30
0.0
  0
VERTEX
  5
570
  8
0
  6
CONTINUOUS
 62
     8
 10
3.9221468455
 20
1.3440192122
 30
0.0
  0
VERTEX
  5
571
  8
0
  6
CONTINUOUS
 62
     8
 10
3.884784357
 20
1.3233972271
 30
0.0
  0
VERTEX
  5
572
  8
0
  6
CONTINUOUS
 62
     8
 10
3.8458568198
 20
1.3037636921
 30
0.0
  0
VERTEX
  5
573
  8
0
  6
CONTINUOUS
 62
     8
 10
3.8054426287
 20
1.2851581468
 30
0.0
  0
VERTEX
  5
574
  8
0
  6
CONTINUOUS
 62
     8
 10
3.7636231725
 20
1.2676180601
 30
0.0
  0
VERTEX
  5
575
  8
0
  6
CONTINUOUS
 62
     8
 10
3.7204826701
 20
1.2511787555
 30
0.0
  0
VERTEX
  5
576
  8
0
  6
CONTINUOUS
 62
     8
 10
3.6761080006
 20
1.2358733396
 30
0.0
  0
VERTEX
  5
577
  8
0
  6
CONTINUOUS
 62
     8
 10
3.6305885288
 20
1.2217326353
 30
0.0
  0
VERTEX
  5
578
  8
0
  6
CONTINUOUS
 62
     8
 10
3.5840159248
 20
1.2087851203
 30
0.0
  0
VERTEX
  5
579
  8
0
  6
CONTINUOUS
 62
     8
 10
3.5364839797
 20
1.197056869
 30
0.0
  0
VERTEX
  5
57A
  8
0
  6
CONTINUOUS
 62
     8
 10
3.4880884164
 20
1.1865715007
 30
0.0
  0
VERTEX
  5
57B
  8
0
  6
CONTINUOUS
 62
     8
 10
3.4389266972
 20
1.1773501314
 30
0.0
  0
VERTEX
  5
57C
  8
0
  6
CONTINUOUS
 62
     8
 10
3.3890978273
 20
1.1694113318
 30
0.0
  0
VERTEX
  5
57D
  8
0
  6
CONTINUOUS
 62
     8
 10
3.3387021552
 20
1.1627710896
 30
0.0
  0
VERTEX
  5
57E
  8
0
  6
CONTINUOUS
 62
     8
 10
3.2878411713
 20
1.1574427772
 30
0.0
  0
VERTEX
  5
57F
  8
0
  6
CONTINUOUS
 62
     8
 10
3.2366173028
 20
1.1534371253
 30
0.0
  0
VERTEX
  5
580
  8
0
  6
CONTINUOUS
 62
     8
 10
3.1851337078
 20
1.1507622007
 30
0.0
  0
VERTEX
  5
581
  8
0
  6
CONTINUOUS
 62
     8
 10
3.1334940672
 20
1.1494233903
 30
0.0
  0
VERTEX
  5
582
  8
0
  6
CONTINUOUS
 62
     8
 10
3.0818023766
 20
1.1494233903
 30
0.0
  0
VERTEX
  5
583
  8
0
  6
CONTINUOUS
 62
     8
 10
3.0301627361
 20
1.1507622007
 30
0.0
  0
VERTEX
  5
584
  8
0
  6
CONTINUOUS
 62
     8
 10
2.978679141
 20
1.1534371253
 30
0.0
  0
VERTEX
  5
585
  8
0
  6
CONTINUOUS
 62
     8
 10
2.9274552725
 20
1.1574427772
 30
0.0
  0
VERTEX
  5
586
  8
0
  6
CONTINUOUS
 62
     8
 10
2.8765942886
 20
1.1627710896
 30
0.0
  0
VERTEX
  5
587
  8
0
  6
CONTINUOUS
 62
     8
 10
2.8261986166
 20
1.1694113318
 30
0.0
  0
VERTEX
  5
588
  8
0
  6
CONTINUOUS
 62
     8
 10
2.7763697466
 20
1.1773501314
 30
0.0
  0
VERTEX
  5
589
  8
0
  6
CONTINUOUS
 62
     8
 10
2.7272080274
 20
1.1865715007
 30
0.0
  0
VERTEX
  5
58A
  8
0
  6
CONTINUOUS
 62
     8
 10
2.6788124642
 20
1.197056869
 30
0.0
  0
VERTEX
  5
58B
  8
0
  6
CONTINUOUS
 62
     8
 10
2.631280519
 20
1.2087851203
 30
0.0
  0
VERTEX
  5
58C
  8
0
  6
CONTINUOUS
 62
     8
 10
2.584707915
 20
1.2217326353
 30
0.0
  0
VERTEX
  5
58D
  8
0
  6
CONTINUOUS
 62
     8
 10
2.5391884432
 20
1.2358733396
 30
0.0
  0
VERTEX
  5
58E
  8
0
  6
CONTINUOUS
 62
     8
 10
2.4948137738
 20
1.2511787555
 30
0.0
  0
VERTEX
  5
58F
  8
0
  6
CONTINUOUS
 62
     8
 10
2.4516732714
 20
1.2676180601
 30
0.0
  0
VERTEX
  5
590
  8
0
  6
CONTINUOUS
 62
     8
 10
2.4098538152
 20
1.2851581468
 30
0.0
  0
VERTEX
  5
591
  8
0
  6
CONTINUOUS
 62
     8
 10
2.3694396241
 20
1.3037636921
 30
0.0
  0
VERTEX
  5
592
  8
0
  6
CONTINUOUS
 62
     8
 10
2.3305120868
 20
1.3233972271
 30
0.0
  0
VERTEX
  5
593
  8
0
  6
CONTINUOUS
 62
     8
 10
2.2931495984
 20
1.3440192122
 30
0.0
  0
VERTEX
  5
594
  8
0
  6
CONTINUOUS
 62
     8
 10
2.2574274017
 20
1.3655881177
 30
0.0
  0
VERTEX
  5
595
  8
0
  6
CONTINUOUS
 62
     8
 10
2.2234174366
 20
1.3880605066
 30
0.0
  0
VERTEX
  5
596
  8
0
  6
CONTINUOUS
 62
     8
 10
2.1911881947
 20
1.4113911226
 30
0.0
  0
VERTEX
  5
597
  8
0
  6
CONTINUOUS
 62
     8
 10
2.1608045813
 20
1.4355329807
 30
0.0
  0
VERTEX
  5
598
  8
0
  6
CONTINUOUS
 62
     8
 10
2.1323277849
 20
1.4604374627
 30
0.0
  0
VERTEX
  5
599
  8
0
  6
CONTINUOUS
 62
     8
 10
2.1058151542
 20
1.4860544141
 30
0.0
  0
VERTEX
  5
59A
  8
0
  6
CONTINUOUS
 62
     8
 10
2.0813200819
 20
1.5123322458
 30
0.0
  0
VERTEX
  5
59B
  8
0
  6
CONTINUOUS
 62
     8
 10
2.0588918979
 20
1.5392180378
 30
0.0
  0
VERTEX
  5
59C
  8
0
  6
CONTINUOUS
 62
     8
 10
2.0385757695
 20
1.5666576457
 30
0.0
  0
VERTEX
  5
59D
  8
0
  6
CONTINUOUS
 62
     8
 10
2.0204126108
 20
1.5945958097
 30
0.0
  0
VERTEX
  5
59E
  8
0
  6
CONTINUOUS
 62
     8
 10
2.004439
 20
1.6229762661
 30
0.0
  0
VERTEX
  5
59F
  8
0
  6
CONTINUOUS
 62
     8
 10
1.9906871056
 20
1.6517418604
 30
0.0
  0
VERTEX
  5
5A0
  8
0
  6
CONTINUOUS
 62
     8
 10
1.9791846224
 20
1.6808346626
 30
0.0
  0
VERTEX
  5
5A1
  8
0
  6
CONTINUOUS
 62
     8
 10
1.9699547146
 20
1.7101960836
 30
0.0
  0
VERTEX
  5
5A2
  8
0
  6
CONTINUOUS
 62
     8
 10
1.9630159702
 20
1.7397669935
 30
0.0
  0
VERTEX
  5
5A3
  8
0
  6
CONTINUOUS
 62
     8
 10
1.9583823627
 20
1.7694878403
 30
0.0
  0
VERTEX
  5
5A4
  8
0
  6
CONTINUOUS
 62
     8
 10
1.9560632238
 20
1.7992987702
 30
0.0
  0
VERTEX
  5
5A5
  8
0
  6
CONTINUOUS
 62
     8
 10
1.9560632238
 20
1.829139748
 30
0.0
  0
VERTEX
  5
5A6
  8
0
  6
CONTINUOUS
 62
     8
 10
1.9561206471
 20
1.8305500754
 30
0.0
  0
SEQEND
  5
680
  8
0
  6
CONTINUOUS
 62
     8
  0
POLYLINE
  5
17A
  8
0
  6
CONTINUOUS
 62
     8
 66
     1
 10
0.0
 20
0.0
 30
0.0
 70
   128
  0
VERTEX
  5
5A7
  8
0
  6
CONTINUOUS
 62
     8
 10
4.2761004443
 20
1.7462206456
 30
0.0
  0
VERTEX
  5
5A8
  8
0
  6
CONTINUOUS
 62
     8
 10
4.2742731394
 20
1.7339231994
 30
0.0
  0
VERTEX
  5
5A9
  8
0
  6
CONTINUOUS
 62
     8
 10
4.2681790992
 20
1.7039853633
 30
0.0
  0
VERTEX
  5
5AA
  8
0
  6
CONTINUOUS
 62
     8
 10
4.2597809323
 20
1.6742339631
 30
0.0
  0
VERTEX
  5
5AB
  8
0
  6
CONTINUOUS
 62
     8
 10
4.2490953126
 20
1.6447280673
 30
0.0
  0
VERTEX
  5
5AC
  8
0
  6
CONTINUOUS
 62
     8
 10
4.2361434554
 20
1.6155262574
 30
0.0
  0
VERTEX
  5
5AD
  8
0
  6
CONTINUOUS
 62
     8
 10
4.2209510753
 20
1.5866865106
 30
0.0
  0
VERTEX
  5
5AE
  8
0
  6
CONTINUOUS
 62
     8
 10
4.2035483354
 20
1.5582660858
 30
0.0
  0
VERTEX
  5
5AF
  8
0
  6
CONTINUOUS
 62
     8
 10
4.1839697874
 20
1.530321409
 30
0.0
  0
VERTEX
  5
5B0
  8
0
  6
CONTINUOUS
 62
     8
 10
4.1622543024
 20
1.5029079617
 30
0.0
  0
VERTEX
  5
5B1
  8
0
  6
CONTINUOUS
 62
     8
 10
4.1384449948
 20
1.4760801709
 30
0.0
  0
VERTEX
  5
5B2
  8
0
  6
CONTINUOUS
 62
     8
 10
4.1125891355
 20
1.4498913006
 30
0.0
  0
VERTEX
  5
5B3
  8
0
  6
CONTINUOUS
 62
     8
 10
4.0847380591
 20
1.4243933465
 30
0.0
  0
VERTEX
  5
5B4
  8
0
  6
CONTINUOUS
 62
     8
 10
4.0549470613
 20
1.3996369322
 30
0.0
  0
VERTEX
  5
5B5
  8
0
  6
CONTINUOUS
 62
     8
 10
4.0232752893
 20
1.3756712095
 30
0.0
  0
VERTEX
  5
5B6
  8
0
  6
CONTINUOUS
 62
     8
 10
3.9897856245
 20
1.35254376
 30
0.0
  0
VERTEX
  5
5B7
  8
0
  6
CONTINUOUS
 62
     8
 10
3.9545445575
 20
1.3303005012
 30
0.0
  0
VERTEX
  5
5B8
  8
0
  6
CONTINUOUS
 62
     8
 10
3.9176220563
 20
1.3089855949
 30
0.0
  0
VERTEX
  5
5B9
  8
0
  6
CONTINUOUS
 62
     8
 10
3.879091427
 20
1.28864136
 30
0.0
  0
VERTEX
  5
5BA
  8
0
  6
CONTINUOUS
 62
     8
 10
3.8390291686
 20
1.2693081881
 30
0.0
  0
VERTEX
  5
5BB
  8
0
  6
CONTINUOUS
 62
     8
 10
3.7975148211
 20
1.2510244633
 30
0.0
  0
VERTEX
  5
5BC
  8
0
  6
CONTINUOUS
 62
     8
 10
3.7546308073
 20
1.2338264863
 30
0.0
  0
VERTEX
  5
5BD
  8
0
  6
CONTINUOUS
 62
     8
 10
3.7104622694
 20
1.2177484021
 30
0.0
  0
VERTEX
  5
5BE
  8
0
  6
CONTINUOUS
 62
     8
 10
3.6650969001
 20
1.2028221323
 30
0.0
  0
VERTEX
  5
5BF
  8
0
  6
CONTINUOUS
 62
     8
 10
3.618624768
 20
1.1890773115
 30
0.0
  0
VERTEX
  5
5C0
  8
0
  6
CONTINUOUS
 62
     8
 10
3.5711381392
 20
1.1765412289
 30
0.0
  0
VERTEX
  5
5C1
  8
0
  6
CONTINUOUS
 62
     8
 10
3.5227312942
 20
1.1652387737
 30
0.0
  0
VERTEX
  5
5C2
  8
0
  6
CONTINUOUS
 62
     8
 10
3.4735003401
 20
1.1551923858
 30
0.0
  0
VERTEX
  5
5C3
  8
0
  6
CONTINUOUS
 62
     8
 10
3.4235430205
 20
1.1464220115
 30
0.0
  0
VERTEX
  5
5C4
  8
0
  6
CONTINUOUS
 62
     8
 10
3.372958521
 20
1.1389450635
 30
0.0
  0
VERTEX
  5
5C5
  8
0
  6
CONTINUOUS
 62
     8
 10
3.3218472725
 20
1.1327763865
 30
0.0
  0
VERTEX
  5
5C6
  8
0
  6
CONTINUOUS
 62
     8
 10
3.2703107516
 20
1.127928228
 30
0.0
  0
VERTEX
  5
5C7
  8
0
  6
CONTINUOUS
 62
     8
 10
3.2184512793
 20
1.1244102134
 30
0.0
  0
VERTEX
  5
5C8
  8
0
  6
CONTINUOUS
 62
     8
 10
3.1663718178
 20
1.1222293276
 30
0.0
  0
VERTEX
  5
5C9
  8
0
  6
CONTINUOUS
 62
     8
 10
3.114175766
 20
1.1213899003
 30
0.0
  0
VERTEX
  5
5CA
  8
0
  6
CONTINUOUS
 62
     8
 10
3.0619667544
 20
1.1218935983
 30
0.0
  0
VERTEX
  5
5CB
  8
0
  6
CONTINUOUS
 62
     8
 10
3.0098484391
 20
1.1237394215
 30
0.0
  0
VERTEX
  5
5CC
  8
0
  6
CONTINUOUS
 62
     8
 10
2.9579242962
 20
1.1269237052
 30
0.0
  0
VERTEX
  5
5CD
  8
0
  6
CONTINUOUS
 62
     8
 10
2.9062974163
 20
1.1314401273
 30
0.0
  0
VERTEX
  5
5CE
  8
0
  6
CONTINUOUS
 62
     8
 10
2.8550702999
 20
1.1372797208
 30
0.0
  0
VERTEX
  5
5CF
  8
0
  6
CONTINUOUS
 62
     8
 10
2.8043446535
 20
1.1444308918
 30
0.0
  0
VERTEX
  5
5D0
  8
0
  6
CONTINUOUS
 62
     8
 10
2.7542211882
 20
1.1528794422
 30
0.0
  0
VERTEX
  5
5D1
  8
0
  6
CONTINUOUS
 62
     8
 10
2.7047994196
 20
1.1626085983
 30
0.0
  0
VERTEX
  5
5D2
  8
0
  6
CONTINUOUS
 62
     8
 10
2.65617747
 20
1.1735990438
 30
0.0
  0
VERTEX
  5
5D3
  8
0
  6
CONTINUOUS
 62
     8
 10
2.6084518739
 20
1.185828958
 30
0.0
  0
VERTEX
  5
5D4
  8
0
  6
CONTINUOUS
 62
     8
 10
2.5617173858
 20
1.1992740597
 30
0.0
  0
VERTEX
  5
5D5
  8
0
  6
CONTINUOUS
 62
     8
 10
2.5160667929
 20
1.2139076549
 30
0.0
  0
VERTEX
  5
5D6
  8
0
  6
CONTINUOUS
 62
     8
 10
2.4715907302
 20
1.2297006899
 30
0.0
  0
VERTEX
  5
5D7
  8
0
  6
CONTINUOUS
 62
     8
 10
2.4283775007
 20
1.246621809
 30
0.0
  0
VERTEX
  5
5D8
  8
0
  6
CONTINUOUS
 62
     8
 10
2.3865129004
 20
1.264637417
 30
0.0
  0
VERTEX
  5
5D9
  8
0
  6
CONTINUOUS
 62
     8
 10
2.3460800475
 20
1.2837117456
 30
0.0
  0
VERTEX
  5
5DA
  8
0
  6
CONTINUOUS
 62
     8
 10
2.3071592177
 20
1.3038069244
 30
0.0
  0
VERTEX
  5
5DB
  8
0
  6
CONTINUOUS
 62
     8
 10
2.2698276847
 20
1.3248830563
 30
0.0
  0
VERTEX
  5
5DC
  8
0
  6
CONTINUOUS
 62
     8
 10
2.2341595669
 20
1.3468982967
 30
0.0
  0
VERTEX
  5
5DD
  8
0
  6
CONTINUOUS
 62
     8
 10
2.2002256799
 20
1.3698089362
 30
0.0
  0
VERTEX
  5
5DE
  8
0
  6
CONTINUOUS
 62
     8
 10
2.1680933964
 20
1.393569488
 30
0.0
  0
VERTEX
  5
5DF
  8
0
  6
CONTINUOUS
 62
     8
 10
2.1378265121
 20
1.4181327776
 30
0.0
  0
VERTEX
  5
5E0
  8
0
  6
CONTINUOUS
 62
     8
 10
2.109485119
 20
1.443450037
 30
0.0
  0
VERTEX
  5
5E1
  8
0
  6
CONTINUOUS
 62
     8
 10
2.0831254863
 20
1.469471001
 30
0.0
  0
VERTEX
  5
5E2
  8
0
  6
CONTINUOUS
 62
     8
 10
2.0587999486
 20
1.4961440074
 30
0.0
  0
VERTEX
  5
5E3
  8
0
  6
CONTINUOUS
 62
     8
 10
2.0365568022
 20
1.5234160995
 30
0.0
  0
VERTEX
  5
5E4
  8
0
  6
CONTINUOUS
 62
     8
 10
2.0164402086
 20
1.551233131
 30
0.0
  0
VERTEX
  5
5E5
  8
0
  6
CONTINUOUS
 62
     8
 10
1.9984901075
 20
1.5795398738
 30
0.0
  0
VERTEX
  5
5E6
  8
0
  6
CONTINUOUS
 62
     8
 10
1.9827421372
 20
1.6082801274
 30
0.0
  0
VERTEX
  5
5E7
  8
0
  6
CONTINUOUS
 62
     8
 10
1.9692275637
 20
1.6373968309
 30
0.0
  0
VERTEX
  5
5E8
  8
0
  6
CONTINUOUS
 62
     8
 10
1.9579732192
 20
1.6668321755
 30
0.0
  0
VERTEX
  5
5E9
  8
0
  6
CONTINUOUS
 62
     8
 10
1.9490014479
 20
1.6965277203
 30
0.0
  0
VERTEX
  5
5EA
  8
0
  6
CONTINUOUS
 62
     8
 10
1.9423300625
 20
1.7264245074
 30
0.0
  0
VERTEX
  5
5EB
  8
0
  6
CONTINUOUS
 62
     8
 10
1.9397066978
 20
1.7425060829
 30
0.0
  0
SEQEND
  5
681
  8
0
  6
CONTINUOUS
 62
     8
  0
POLYLINE
  5
17B
  8
0
  6
CONTINUOUS
 62
     8
 66
     1
 10
0.0
 20
0.0
 30
0.0
 70
   128
  0
VERTEX
  5
5EC
  8
0
  6
CONTINUOUS
 62
     8
 10
4.2761004443
 20
1.6257808759
 30
0.0
  0
VERTEX
  5
5ED
  8
0
  6
CONTINUOUS
 62
     8
 10
4.2742731394
 20
1.6134834297
 30
0.0
  0
VERTEX
  5
5EE
  8
0
  6
CONTINUOUS
 62
     8
 10
4.2681790992
 20
1.5835455936
 30
0.0
  0
VERTEX
  5
5EF
  8
0
  6
CONTINUOUS
 62
     8
 10
4.2597809323
 20
1.5537941933
 30
0.0
  0
VERTEX
  5
5F0
  8
0
  6
CONTINUOUS
 62
     8
 10
4.2490953126
 20
1.5242882976
 30
0.0
  0
VERTEX
  5
5F1
  8
0
  6
CONTINUOUS
 62
     8
 10
4.2361434554
 20
1.4950864876
 30
0.0
  0
VERTEX
  5
5F2
  8
0
  6
CONTINUOUS
 62
     8
 10
4.2209510753
 20
1.4662467409
 30
0.0
  0
VERTEX
  5
5F3
  8
0
  6
CONTINUOUS
 62
     8
 10
4.2035483354
 20
1.4378263161
 30
0.0
  0
VERTEX
  5
5F4
  8
0
  6
CONTINUOUS
 62
     8
 10
4.1839697874
 20
1.4098816392
 30
0.0
  0
VERTEX
  5
5F5
  8
0
  6
CONTINUOUS
 62
     8
 10
4.1622543024
 20
1.382468192
 30
0.0
  0
VERTEX
  5
5F6
  8
0
  6
CONTINUOUS
 62
     8
 10
4.1384449948
 20
1.3556404011
 30
0.0
  0
VERTEX
  5
5F7
  8
0
  6
CONTINUOUS
 62
     8
 10
4.1125891355
 20
1.3294515309
 30
0.0
  0
VERTEX
  5
5F8
  8
0
  6
CONTINUOUS
 62
     8
 10
4.0847380591
 20
1.3039535767
 30
0.0
  0
VERTEX
  5
5F9
  8
0
  6
CONTINUOUS
 62
     8
 10
4.0549470613
 20
1.2791971625
 30
0.0
  0
VERTEX
  5
5FA
  8
0
  6
CONTINUOUS
 62
     8
 10
4.0232752893
 20
1.2552314398
 30
0.0
  0
VERTEX
  5
5FB
  8
0
  6
CONTINUOUS
 62
     8
 10
3.9897856245
 20
1.2321039903
 30
0.0
  0
VERTEX
  5
5FC
  8
0
  6
CONTINUOUS
 62
     8
 10
3.9545445575
 20
1.2098607315
 30
0.0
  0
VERTEX
  5
5FD
  8
0
  6
CONTINUOUS
 62
     8
 10
3.9176220563
 20
1.1885458252
 30
0.0
  0
VERTEX
  5
5FE
  8
0
  6
CONTINUOUS
 62
     8
 10
3.879091427
 20
1.1682015903
 30
0.0
  0
VERTEX
  5
5FF
  8
0
  6
CONTINUOUS
 62
     8
 10
3.8390291686
 20
1.1488684183
 30
0.0
  0
VERTEX
  5
600
  8
0
  6
CONTINUOUS
 62
     8
 10
3.7975148211
 20
1.1305846935
 30
0.0
  0
VERTEX
  5
601
  8
0
  6
CONTINUOUS
 62
     8
 10
3.7546308073
 20
1.1133867165
 30
0.0
  0
VERTEX
  5
602
  8
0
  6
CONTINUOUS
 62
     8
 10
3.7104622694
 20
1.0973086324
 30
0.0
  0
VERTEX
  5
603
  8
0
  6
CONTINUOUS
 62
     8
 10
3.6650969001
 20
1.0823823625
 30
0.0
  0
VERTEX
  5
604
  8
0
  6
CONTINUOUS
 62
     8
 10
3.618624768
 20
1.0686375418
 30
0.0
  0
VERTEX
  5
605
  8
0
  6
CONTINUOUS
 62
     8
 10
3.5711381392
 20
1.0561014592
 30
0.0
  0
VERTEX
  5
606
  8
0
  6
CONTINUOUS
 62
     8
 10
3.5227312942
 20
1.0447990039
 30
0.0
  0
VERTEX
  5
607
  8
0
  6
CONTINUOUS
 62
     8
 10
3.4735003401
 20
1.0347526161
 30
0.0
  0
VERTEX
  5
608
  8
0
  6
CONTINUOUS
 62
     8
 10
3.4235430205
 20
1.0259822417
 30
0.0
  0
VERTEX
  5
609
  8
0
  6
CONTINUOUS
 62
     8
 10
3.372958521
 20
1.0185052937
 30
0.0
  0
VERTEX
  5
60A
  8
0
  6
CONTINUOUS
 62
     8
 10
3.3218472725
 20
1.0123366167
 30
0.0
  0
VERTEX
  5
60B
  8
0
  6
CONTINUOUS
 62
     8
 10
3.2703107516
 20
1.0074884582
 30
0.0
  0
VERTEX
  5
60C
  8
0
  6
CONTINUOUS
 62
     8
 10
3.2184512793
 20
1.0039704437
 30
0.0
  0
VERTEX
  5
60D
  8
0
  6
CONTINUOUS
 62
     8
 10
3.1663718178
 20
1.0017895578
 30
0.0
  0
VERTEX
  5
60E
  8
0
  6
CONTINUOUS
 62
     8
 10
3.114175766
 20
1.0009501306
 30
0.0
  0
VERTEX
  5
60F
  8
0
  6
CONTINUOUS
 62
     8
 10
3.0619667544
 20
1.0014538286
 30
0.0
  0
VERTEX
  5
610
  8
0
  6
CONTINUOUS
 62
     8
 10
3.0098484391
 20
1.0032996518
 30
0.0
  0
VERTEX
  5
611
  8
0
  6
CONTINUOUS
 62
     8
 10
2.9579242962
 20
1.0064839355
 30
0.0
  0
VERTEX
  5
612
  8
0
  6
CONTINUOUS
 62
     8
 10
2.9062974163
 20
1.0110003575
 30
0.0
  0
VERTEX
  5
613
  8
0
  6
CONTINUOUS
 62
     8
 10
2.8550702999
 20
1.016839951
 30
0.0
  0
VERTEX
  5
614
  8
0
  6
CONTINUOUS
 62
     8
 10
2.8043446535
 20
1.023991122
 30
0.0
  0
VERTEX
  5
615
  8
0
  6
CONTINUOUS
 62
     8
 10
2.7542211882
 20
1.0324396725
 30
0.0
  0
VERTEX
  5
616
  8
0
  6
CONTINUOUS
 62
     8
 10
2.7047994196
 20
1.0421688286
 30
0.0
  0
VERTEX
  5
617
  8
0
  6
CONTINUOUS
 62
     8
 10
2.65617747
 20
1.053159274
 30
0.0
  0
VERTEX
  5
618
  8
0
  6
CONTINUOUS
 62
     8
 10
2.6084518739
 20
1.0653891883
 30
0.0
  0
VERTEX
  5
619
  8
0
  6
CONTINUOUS
 62
     8
 10
2.5617173858
 20
1.07883429
 30
0.0
  0
VERTEX
  5
61A
  8
0
  6
CONTINUOUS
 62
     8
 10
2.5160667929
 20
1.0934678852
 30
0.0
  0
VERTEX
  5
61B
  8
0
  6
CONTINUOUS
 62
     8
 10
2.4715907302
 20
1.1092609201
 30
0.0
  0
VERTEX
  5
61C
  8
0
  6
CONTINUOUS
 62
     8
 10
2.4283775007
 20
1.1261820393
 30
0.0
  0
VERTEX
  5
61D
  8
0
  6
CONTINUOUS
 62
     8
 10
2.3865129004
 20
1.1441976473
 30
0.0
  0
VERTEX
  5
61E
  8
0
  6
CONTINUOUS
 62
     8
 10
2.3460800475
 20
1.1632719759
 30
0.0
  0
VERTEX
  5
61F
  8
0
  6
CONTINUOUS
 62
     8
 10
2.3071592177
 20
1.1833671547
 30
0.0
  0
VERTEX
  5
620
  8
0
  6
CONTINUOUS
 62
     8
 10
2.2698276847
 20
1.2044432866
 30
0.0
  0
VERTEX
  5
621
  8
0
  6
CONTINUOUS
 62
     8
 10
2.2341595669
 20
1.2264585269
 30
0.0
  0
VERTEX
  5
622
  8
0
  6
CONTINUOUS
 62
     8
 10
2.2002256799
 20
1.2493691665
 30
0.0
  0
VERTEX
  5
623
  8
0
  6
CONTINUOUS
 62
     8
 10
2.1680933964
 20
1.2731297182
 30
0.0
  0
VERTEX
  5
624
  8
0
  6
CONTINUOUS
 62
     8
 10
2.1378265121
 20
1.2976930079
 30
0.0
  0
VERTEX
  5
625
  8
0
  6
CONTINUOUS
 62
     8
 10
2.109485119
 20
1.3230102672
 30
0.0
  0
VERTEX
  5
626
  8
0
  6
CONTINUOUS
 62
     8
 10
2.0831254863
 20
1.3490312312
 30
0.0
  0
VERTEX
  5
627
  8
0
  6
CONTINUOUS
 62
     8
 10
2.0587999486
 20
1.3757042376
 30
0.0
  0
VERTEX
  5
628
  8
0
  6
CONTINUOUS
 62
     8
 10
2.0365568022
 20
1.4029763297
 30
0.0
  0
VERTEX
  5
629
  8
0
  6
CONTINUOUS
 62
     8
 10
2.0164402086
 20
1.4307933612
 30
0.0
  0
VERTEX
  5
62A
  8
0
  6
CONTINUOUS
 62
     8
 10
1.9984901075
 20
1.459100104
 30
0.0
  0
VERTEX
  5
62B
  8
0
  6
CONTINUOUS
 62
     8
 10
1.9827421372
 20
1.4878403577
 30
0.0
  0
VERTEX
  5
62C
  8
0
  6
CONTINUOUS
 62
     8
 10
1.9692275637
 20
1.5169570611
 30
0.0
  0
VERTEX
  5
62D
  8
0
  6
CONTINUOUS
 62
     8
 10
1.9579732192
 20
1.5463924058
 30
0.0
  0
VERTEX
  5
62E
  8
0
  6
CONTINUOUS
 62
     8
 10
1.9490014479
 20
1.5760879505
 30
0.0
  0
VERTEX
  5
62F
  8
0
  6
CONTINUOUS
 62
     8
 10
1.9423300625
 20
1.6059847376
 30
0.0
  0
VERTEX
  5
630
  8
0
  6
CONTINUOUS
 62
     8
 10
1.9397066978
 20
1.6220663131
 30
0.0
  0
SEQEND
  5
682
  8
0
  6
CONTINUOUS
 62
     8
  0
POLYLINE
  5
17C
  8
0
  6
CONTINUOUS
 62
     8
 66
     1
 10
0.0
 20
0.0
 30
0.0
 70
   128
  0
VERTEX
  5
631
  8
0
  6
CONTINUOUS
 62
     8
 10
2.6515643481
 20
2.0775108752
 30
0.0
  0
VERTEX
  5
632
  8
0
  6
CONTINUOUS
 62
     8
 10
2.6796563892
 20
2.0927855497
 30
0.0
  0
VERTEX
  5
633
  8
0
  6
CONTINUOUS
 62
     8
 10
2.7092805301
 20
2.1070630292
 30
0.0
  0
VERTEX
  5
634
  8
0
  6
CONTINUOUS
 62
     8
 10
2.7403307238
 20
2.120292204
 30
0.0
  0
VERTEX
  5
635
  8
0
  6
CONTINUOUS
 62
     8
 10
2.7726958189
 20
2.1324257171
 30
0.0
  0
VERTEX
  5
636
  8
0
  6
CONTINUOUS
 62
     8
 10
2.8062599567
 20
2.1434201337
 30
0.0
  0
VERTEX
  5
637
  8
0
  6
CONTINUOUS
 62
     8
 10
2.8409029862
 20
2.1532360965
 30
0.0
  0
VERTEX
  5
638
  8
0
  6
CONTINUOUS
 62
     8
 10
2.8765008945
 20
2.1618384671
 30
0.0
  0
VERTEX
  5
639
  8
0
  6
CONTINUOUS
 62
     8
 10
2.9129262502
 20
2.1691964511
 30
0.0
  0
VERTEX
  5
63A
  8
0
  6
CONTINUOUS
 62
     8
 10
2.95004866
 20
2.1752837089
 30
0.0
  0
VERTEX
  5
63B
  8
0
  6
CONTINUOUS
 62
     8
 10
2.9877352353
 20
2.1800784497
 30
0.0
  0
VERTEX
  5
63C
  8
0
  6
CONTINUOUS
 62
     8
 10
3.025851068
 20
2.1835635096
 30
0.0
  0
VERTEX
  5
63D
  8
0
  6
CONTINUOUS
 62
     8
 10
3.0642597133
 20
2.1857264129
 30
0.0
  0
VERTEX
  5
63E
  8
0
  6
CONTINUOUS
 62
     8
 10
3.1028236782
 20
2.1865594169
 30
0.0
  0
VERTEX
  5
63F
  8
0
  6
CONTINUOUS
 62
     8
 10
3.1414049137
 20
2.1860595399
 30
0.0
  0
VERTEX
  5
640
  8
0
  6
CONTINUOUS
 62
     8
 10
3.179865309
 20
2.1842285712
 30
0.0
  0
VERTEX
  5
641
  8
0
  6
CONTINUOUS
 62
     8
 10
3.2180671859
 20
2.1810730651
 30
0.0
  0
VERTEX
  5
642
  8
0
  6
CONTINUOUS
 62
     8
 10
3.2558737915
 20
2.1766043177
 30
0.0
  0
VERTEX
  5
643
  8
0
  6
CONTINUOUS
 62
     8
 10
3.2931497881
 20
2.1708383258
 30
0.0
  0
VERTEX
  5
644
  8
0
  6
CONTINUOUS
 62
     8
 10
3.3297617372
 20
2.1637957301
 30
0.0
  0
VERTEX
  5
645
  8
0
  6
CONTINUOUS
 62
     8
 10
3.3655785776
 20
2.1555017415
 30
0.0
  0
VERTEX
  5
646
  8
0
  6
CONTINUOUS
 62
     8
 10
3.4004720943
 20
2.1459860501
 30
0.0
  0
VERTEX
  5
647
  8
0
  6
CONTINUOUS
 62
     8
 10
3.4343173774
 20
2.1352827197
 30
0.0
  0
VERTEX
  5
648
  8
0
  6
CONTINUOUS
 62
     8
 10
3.4669932698
 20
2.1234300655
 30
0.0
  0
VERTEX
  5
649
  8
0
  6
CONTINUOUS
 62
     8
 10
3.4983828002
 20
2.1104705168
 30
0.0
  0
VERTEX
  5
64A
  8
0
  6
CONTINUOUS
 62
     8
 10
3.5283736022
 20
2.0964504655
 30
0.0
  0
VERTEX
  5
64B
  8
0
  6
CONTINUOUS
 62
     8
 10
3.5568583165
 20
2.0814200998
 30
0.0
  0
VERTEX
  5
64C
  8
0
  6
CONTINUOUS
 62
     8
 10
3.5837349753
 20
2.0654332244
 30
0.0
  0
VERTEX
  5
64D
  8
0
  6
CONTINUOUS
 62
     8
 10
3.6089073671
 20
2.0485470682
 30
0.0
  0
VERTEX
  5
64E
  8
0
  6
CONTINUOUS
 62
     8
 10
3.6322853812
 20
2.0308220792
 30
0.0
  0
VERTEX
  5
64F
  8
0
  6
CONTINUOUS
 62
     8
 10
3.6537853304
 20
2.0123217084
 30
0.0
  0
VERTEX
  5
650
  8
0
  6
CONTINUOUS
 62
     8
 10
3.6675717678
 20
1.9990510831
 30
0.0
  0
SEQEND
  5
683
  8
0
  6
CONTINUOUS
 62
     8
  0
ARC
  5
17D
  8
0
  6
CONTINUOUS
 62
     8
 10
2.8924368866
 20
1.6507749433
 30
0.0
 40
0.4900236069781105
 50
119.4427021927
 51
134.7010271126
  0
POLYLINE
  5
17E
  8
0
  6
CONTINUOUS
 62
     8
 66
     1
 10
0.0
 20
0.0
 30
0.0
 70
   128
  0
VERTEX
  5
651
  8
0
  6
CONTINUOUS
 62
     8
 10
2.6657064837
 20
2.0530159778
 30
0.0
  0
VERTEX
  5
652
  8
0
  6
CONTINUOUS
 62
     8
 10
2.6934710339
 20
2.0680950203
 30
0.0
  0
VERTEX
  5
653
  8
0
  6
CONTINUOUS
 62
     8
 10
2.7227763504
 20
2.0821688766
 30
0.0
  0
VERTEX
  5
654
  8
0
  6
CONTINUOUS
 62
     8
 10
2.7535134155
 20
2.0951851909
 30
0.0
  0
VERTEX
  5
655
  8
0
  6
CONTINUOUS
 62
     8
 10
2.7855678854
 20
2.1070955418
 30
0.0
  0
VERTEX
  5
656
  8
0
  6
CONTINUOUS
 62
     8
 10
2.8188205154
 20
2.1178556221
 30
0.0
  0
VERTEX
  5
657
  8
0
  6
CONTINUOUS
 62
     8
 10
2.8531476033
 20
2.1274254034
 30
0.0
  0
VERTEX
  5
658
  8
0
  6
CONTINUOUS
 62
     8
 10
2.8884214503
 20
2.1357692855
 30
0.0
  0
VERTEX
  5
659
  8
0
  6
CONTINUOUS
 62
     8
 10
2.9245108352
 20
2.1428562287
 30
0.0
  0
VERTEX
  5
65A
  8
0
  6
CONTINUOUS
 62
     8
 10
2.9612815033
 20
2.1486598692
 30
0.0
  0
VERTEX
  5
65B
  8
0
  6
CONTINUOUS
 62
     8
 10
2.9985966651
 20
2.1531586168
 30
0.0
  0
VERTEX
  5
65C
  8
0
  6
CONTINUOUS
 62
     8
 10
3.036317506
 20
2.1563357361
 30
0.0
  0
VERTEX
  5
65D
  8
0
  6
CONTINUOUS
 62
     8
 10
3.0743037017
 20
2.1581794079
 30
0.0
  0
VERTEX
  5
65E
  8
0
  6
CONTINUOUS
 62
     8
 10
3.1124139413
 20
2.1586827737
 30
0.0
  0
VERTEX
  5
65F
  8
0
  6
CONTINUOUS
 62
     8
 10
3.1505064521
 20
2.1578439608
 30
0.0
  0
VERTEX
  5
660
  8
0
  6
CONTINUOUS
 62
     8
 10
3.1884395274
 20
2.1556660898
 30
0.0
  0
VERTEX
  5
661
  8
0
  6
CONTINUOUS
 62
     8
 10
3.2260720538
 20
2.1521572624
 30
0.0
  0
VERTEX
  5
662
  8
0
  6
CONTINUOUS
 62
     8
 10
3.2632640358
 20
2.1473305318
 30
0.0
  0
VERTEX
  5
663
  8
0
  6
CONTINUOUS
 62
     8
 10
3.2998771167
 20
2.1412038536
 30
0.0
  0
VERTEX
  5
664
  8
0
  6
CONTINUOUS
 62
     8
 10
3.3357750935
 20
2.1338000196
 30
0.0
  0
VERTEX
  5
665
  8
0
  6
CONTINUOUS
 62
     8
 10
3.3708244233
 20
2.1251465724
 30
0.0
  0
VERTEX
  5
666
  8
0
  6
CONTINUOUS
 62
     8
 10
3.4048947204
 20
2.1152757035
 30
0.0
  0
VERTEX
  5
667
  8
0
  6
CONTINUOUS
 62
     8
 10
3.437859241
 20
2.1042241332
 30
0.0
  0
VERTEX
  5
668
  8
0
  6
CONTINUOUS
 62
     8
 10
3.4695953549
 20
2.0920329739
 30
0.0
  0
VERTEX
  5
669
  8
0
  6
CONTINUOUS
 62
     8
 10
3.4999850018
 20
2.0787475777
 30
0.0
  0
VERTEX
  5
66A
  8
0
  6
CONTINUOUS
 62
     8
 10
3.52891513
 20
2.064417367
 30
0.0
  0
VERTEX
  5
66B
  8
0
  6
CONTINUOUS
 62
     8
 10
3.5562781176
 20
2.0490956513
 30
0.0
  0
VERTEX
  5
66C
  8
0
  6
CONTINUOUS
 62
     8
 10
3.5819721726
 20
2.0328394282
 30
0.0
  0
VERTEX
  5
66D
  8
0
  6
CONTINUOUS
 62
     8
 10
3.6059017113
 20
2.015709172
 30
0.0
  0
VERTEX
  5
66E
  8
0
  6
CONTINUOUS
 62
     8
 10
3.6279777144
 20
1.9977686085
 30
0.0
  0
VERTEX
  5
66F
  8
0
  6
CONTINUOUS
 62
     8
 10
3.6480931881
 20
1.9791091966
 30
0.0
  0
SEQEND
  5
684
  8
0
  6
CONTINUOUS
 62
     8
  0
ARC
  5
17F
  8
0
  6
CONTINUOUS
 62
     8
 10
2.8995770036
 20
1.638733799
 30
0.0
 40
0.4757364226240891
 50
119.445591079
 51
134.3552176046
  0
ARC
  5
180
  8
0
  6
CONTINUOUS
 62
     8
 10
3.1076460082
 20
1.0958811612
 30
0.0
 40
0.9450892991760429
 50
60.6450115636
 51
119.3523744458
  0
ENDSEC
  0
EOF
