  0
SECTION
  2
HEADER
  9
$ACADVER
  1
AC1009
  9
$DWGCODEPAGE
  3
ansi_1252
  9
$INSBASE
 10
0.0
 20
0.0
 30
0.0
  9
$EXTMIN
 10
0.0
 20
0.0
 30
0.0
  9
$EXTMAX
 10
11.0
 20
8.5
 30
0.0
  9
$LIMMIN
 10
0.0
 20
0.0
  9
$LIMMAX
 10
11.0
 20
8.5
  9
$ORTHOMODE
 70
     0
  9
$REGENMODE
 70
     1
  9
$FILLMODE
 70
     1
  9
$QTEXTMODE
 70
     0
  9
$MIRRTEXT
 70
     1
  9
$DRAGMODE
 70
     2
  9
$LTSCALE
 40
1.0
  9
$OSMODE
 70
    37
  9
$ATTMODE
 70
     1
  9
$TEXTSIZE
 40
0.094
  9
$TRACEWID
 40
0.05
  9
$TEXTSTYLE
  7
STANDARD
  9
$CLAYER
  8
0
  9
$CELTYPE
  6
BYLAYER
  9
$CECOLOR
 62
   256
  9
$DIMSCALE
 40
1.0
  9
$DIMASZ
 40
0.094
  9
$DIMEXO
 40
0.05
  9
$DIMDLI
 40
0.38
  9
$DIMRND
 40
0.0
  9
$DIMDLE
 40
0.0
  9
$DIMEXE
 40
0.125
  9
$DIMTP
 40
0.0
  9
$DIMTM
 40
0.0
  9
$DIMTXT
 40
0.094
  9
$DIMCEN
 40
0.09
  9
$DIMTSZ
 40
0.0
  9
$DIMTOL
 70
     0
  9
$DIMLIM
 70
     0
  9
$DIMTIH
 70
     1
  9
$DIMTOH
 70
     1
  9
$DIMSE1
 70
     0
  9
$DIMSE2
 70
     0
  9
$DIMTAD
 70
     0
  9
$DIMZIN
 70
     0
  9
$DIMBLK
  1

  9
$DIMASO
 70
     1
  9
$DIMSHO
 70
     1
  9
$DIMPOST
  1

  9
$DIMAPOST
  1

  9
$DIMALT
 70
     0
  9
$DIMALTD
 70
     2
  9
$DIMALTF
 40
25.4
  9
$DIMLFAC
 40
2.0
  9
$DIMTOFL
 70
     0
  9
$DIMTVP
 40
0.0
  9
$DIMTIX
 70
     0
  9
$DIMSOXD
 70
     0
  9
$DIMSAH
 70
     0
  9
$DIMBLK1
  1

  9
$DIMBLK2
  1

  9
$DIMSTYLE
  2
STANDARD
  9
$DIMCLRD
 70
     0
  9
$DIMCLRE
 70
     0
  9
$DIMCLRT
 70
     0
  9
$DIMTFAC
 40
1.0
  9
$DIMGAP
 40
0.06
  9
$LUNITS
 70
     2
  9
$LUPREC
 70
     3
  9
$SKETCHINC
 40
0.1
  9
$FILLETRAD
 40
0.5
  9
$AUNITS
 70
     0
  9
$AUPREC
 70
     0
  9
$MENU
  1
.
  9
$ELEVATION
 40
0.0
  9
$PELEVATION
 40
0.0
  9
$THICKNESS
 40
0.0
  9
$LIMCHECK
 70
     0
  9
$CHAMFERA
 40
0.0
  9
$CHAMFERB
 40
0.0
  9
$SKPOLY
 70
     0
  9
$TDCREATE
 40
2457742.444449479
  9
$TDUPDATE
 40
2457742.44445169
  9
$TDINDWG
 40
0.0000000116
  9
$TDUSRTIMER
 40
0.0000000116
  9
$USRTIMER
 70
     1
  9
$ANGBASE
 50
0.0
  9
$ANGDIR
 70
     0
  9
$PDMODE
 70
     0
  9
$PDSIZE
 40
-1.0
  9
$PLINEWID
 40
0.0
  9
$COORDS
 70
     1
  9
$SPLFRAME
 70
     0
  9
$SPLINETYPE
 70
     6
  9
$SPLINESEGS
 70
     8
  9
$ATTDIA
 70
     0
  9
$ATTREQ
 70
     1
  9
$HANDLING
 70
     1
  9
$HANDSEED
  5
70C
  9
$SURFTAB1
 70
     6
  9
$SURFTAB2
 70
     6
  9
$SURFTYPE
 70
     6
  9
$SURFU
 70
     6
  9
$SURFV
 70
     6
  9
$UCSNAME
  2

  9
$UCSORG
 10
0.0
 20
0.0
 30
0.0
  9
$UCSXDIR
 10
1.0
 20
0.0
 30
0.0
  9
$UCSYDIR
 10
0.0
 20
1.0
 30
0.0
  9
$PUCSNAME
  2

  9
$PUCSORG
 10
0.0
 20
0.0
 30
0.0
  9
$PUCSXDIR
 10
1.0
 20
0.0
 30
0.0
  9
$PUCSYDIR
 10
0.0
 20
1.0
 30
0.0
  9
$USERI1
 70
     0
  9
$USERI2
 70
     0
  9
$USERI3
 70
     0
  9
$USERI4
 70
     0
  9
$USERI5
 70
     0
  9
$USERR1
 40
0.0
  9
$USERR2
 40
0.0
  9
$USERR3
 40
0.0
  9
$USERR4
 40
0.0
  9
$USERR5
 40
0.0
  9
$WORLDVIEW
 70
     1
  9
$SHADEDGE
 70
     3
  9
$SHADEDIF
 70
    70
  9
$TILEMODE
 70
     1
  9
$MAXACTVP
 70
    64
  9
$PLIMCHECK
 70
     0
  9
$PEXTMIN
 10
1.0000000000E+20
 20
1.0000000000E+20
 30
1.0000000000E+20
  9
$PEXTMAX
 10
-1.0000000000E+20
 20
-1.0000000000E+20
 30
-1.0000000000E+20
  9
$PLIMMIN
 10
0.0
 20
0.0
  9
$PLIMMAX
 10
12.0
 20
9.0
  9
$UNITMODE
 70
     0
  9
$VISRETAIN
 70
     1
  9
$PLINEGEN
 70
     0
  9
$PSLTSCALE
 70
     1
  0
ENDSEC
  0
SECTION
  2
TABLES
  0
TABLE
  2
VPORT
 70
     1
  0
VPORT
  2
*ACTIVE
 70
     0
 10
0.0
 20
0.0
 11
1.0
 21
1.0
 12
5.5
 22
4.25
 13
0.0
 23
0.0
 14
0.5
 24
0.5
 15
0.5
 25
0.5
 16
0.0
 26
0.0
 36
1.0
 17
0.0
 27
0.0
 37
0.0
 40
8.5
 41
1.2941176471
 42
50.0
 43
0.0
 44
0.0
 50
0.0
 51
0.0
 71
     0
 72
  2000
 73
     1
 74
     3
 75
     0
 76
     0
 77
     0
 78
     0
  0
ENDTAB
  0
TABLE
  2
LTYPE
 70
     6
  0
LTYPE
  2
CONTINUOUS
 70
     0
  3
Solid line
 72
    65
 73
     0
 40
0.0
  0
LTYPE
  2
HIDDEN
 70
     0
  3
Hidden __ __ __ __ __ __ __ __ __ __ __ __ __ __
 72
    65
 73
     2
 40
0.075
 49
0.05
 49
-0.025
  0
LTYPE
  2
PHANTOM
 70
     0
  3
Phantom ______  __  __  ______  __  __  ______
 72
    65
 73
     6
 40
0.5
 49
0.25
 49
-0.05
 49
0.05
 49
-0.05
 49
0.05
 49
-0.05
  0
LTYPE
  2
CENTER
 70
     0
  3
Center ____ _ ____ _ ____ _ ____ _ ____ _ ____
 72
    65
 73
     4
 40
0.4
 49
0.25
 49
-0.05
 49
0.05
 49
-0.05
  0
LTYPE
  2
CENTERX2
 70
     0
  3
Center (2x) ________  __  ________  __  _____
 72
    65
 73
     4
 40
0.8
 49
0.5
 49
-0.1
 49
0.1
 49
-0.1
  0
LTYPE
  2
DOT2
 70
     0
  3
Dot (.5x) ........................................
 72
    65
 73
     2
 40
0.025
 49
0.0
 49
-0.025
  0
ENDTAB
  0
TABLE
  2
LAYER
 70
     2
  0
LAYER
  2
0
 70
     0
 62
     7
  6
CONTINUOUS
  0
LAYER
  2
FORMAT
 70
     0
 62
     7
  6
CONTINUOUS
  0
ENDTAB
  0
TABLE
  2
STYLE
 70
     1
  0
STYLE
  2
STANDARD
 70
     0
 40
0.0
 41
1.0
 50
0.0
 71
     0
 42
0.094
  3
txt
  4

  0
ENDTAB
  0
TABLE
  2
VIEW
 70
     0
  0
ENDTAB
  0
TABLE
  2
UCS
 70
     0
  0
ENDTAB
  0
TABLE
  2
APPID
 70
     1
  0
APPID
  2
ACAD
 70
     0
  0
ENDTAB
  0
TABLE
  2
DIMSTYLE
 70
     4
  0
DIMSTYLE
  2
STANDARD
 70
     0
  3

  4

  5

  6

  7

 40
1.0
 41
0.18
 42
0.0625
 43
0.38
 44
0.18
 45
0.0
 46
0.0
 47
0.0
 48
0.0
140
0.18
141
0.09
142
0.0
143
25.4
144
1.0
145
0.0
146
1.0
147
0.09
 71
     0
 72
     0
 73
     1
 74
     1
 75
     0
 76
     0
 77
     0
 78
     0
170
     0
171
     2
172
     0
173
     0
174
     0
175
     0
176
     0
177
     0
178
     0
  0
DIMSTYLE
  2
SLDDIMSTYLE0
 70
     0
  3

  4

  5

  6

  7

 40
1.0
 41
0.094
 42
0.0625
 43
0.38
 44
0.0
 45
0.000000001
 46
0.0
 47
0.0
 48
0.0
140
0.094
141
0.09
142
0.0
143
25.4
144
1.0
145
0.0
146
1.0
147
0.0235
 71
     0
 72
     0
 73
     1
 74
     1
 75
     0
 76
     0
 77
     0
 78
    12
170
     0
171
     2
172
     0
173
     1
174
     0
175
     0
176
     0
177
     0
178
     0
  0
DIMSTYLE
  2
SLDDIMSTYLE1
 70
     0
  3

  4

  5

  6

  7

 40
1.0
 41
0.094
 42
0.0625
 43
0.38
 44
0.0
 45
0.000000001
 46
0.0
 47
0.0
 48
0.0
140
0.094
141
0.09
142
0.0
143
25.4
144
1.0
145
0.0
146
1.0
147
0.0235
 71
     0
 72
     0
 73
     1
 74
     1
 75
     0
 76
     0
 77
     0
 78
     4
170
     0
171
     2
172
     0
173
     1
174
     0
175
     0
176
     0
177
     0
178
     0
  0
DIMSTYLE
  2
SLDDIMSTYLE2
 70
     0
  3

  4

  5

  6

  7

 40
1.0
 41
0.094
 42
0.0625
 43
0.38
 44
0.0
 45
0.000000001
 46
0.0
 47
0.0
 48
0.0
140
0.094
141
0.09
142
0.0
143
25.4
144
1.0
145
0.0
146
1.0
147
0.0235
 71
     0
 72
     0
 73
     1
 74
     1
 75
     0
 76
     0
 77
     0
 78
    12
170
     0
171
     2
172
     1
173
     1
174
     0
175
     0
176
     0
177
     0
178
     0
  0
ENDTAB
  0
ENDSEC
  0
SECTION
  2
BLOCKS
  0
BLOCK
  8
0
  2
$MODEL_SPACE
 70
     0
 10
0.0
 20
0.0
 30
0.0
  3
$MODEL_SPACE
  1

  0
ENDBLK
  5
21
  8
0
  0
BLOCK
 67
     1
  8
0
  2
$PAPER_SPACE
 70
     0
 10
0.0
 20
0.0
 30
0.0
  3
$PAPER_SPACE
  1

  0
ENDBLK
  5
1D
 67
     1
  8
0
  0
BLOCK
  8
0
  2
SW_NOTE_0
 70
     0
 10
0.0
 20
0.0
 30
0.0
  3
SW_NOTE_0
  1

  0
TEXT
  5
90
  8
0
  6
CONTINUOUS
 62
     0
 10
0.0
 20
0.0735958462
 30
0.0
 40
0.2083333333
  1
Auburn Bearing
 41
0.7
 11
0.0
 21
0.0
 31
0.0
 73
     1
  0
TEXT
  5
91
  8
0
  6
CONTINUOUS
 62
     0
 10
0.3324845058
 20
-0.1225091592
 30
0.0
 40
0.125
  1
& MANUFACTURING
 41
0.7
 11
0.3324845058
 21
-0.1666666669
 31
0.0
 73
     1
  0
TEXT
  5
92
  8
0
  6
CONTINUOUS
 62
     0
 10
0.2038966512
 20
-0.268757631
 30
0.0
 40
0.1041666667
  1
Made in the USA since 1898
 41
0.6326923077
 11
0.2038966512
 21
-0.3055555542
 31
0.0
 73
     1
  0
ENDBLK
  5
8F
  8
0
  0
BLOCK
  8
0
  2
SW_NOTE_1
 70
     0
 10
0.0
 20
0.0
 30
0.0
  3
SW_NOTE_1
  1

  0
TEXT
  5
99
  8
0
  6
CONTINUOUS
 62
     0
 10
0.0
 20
0.0176630031
 30
0.0
 40
0.05
  1
THE INFORMATION CONTAINED IN THIS DRAWING IS THE SOLE PROPERTY OF AUBURN BALL BEARING.  ANY 
 41
0.6391304348
 11
0.0
 21
0.0
 31
0.0
 73
     1
  0
TEXT
  5
9A
  8
0
  6
CONTINUOUS
 62
     0
 10
-0.1618921698
 20
-0.0717070778
 30
0.0
 40
0.05
  1
REPRODUCTION IN WHOLE OR IN PART WITHOUT THE WRITTEN PERMISSION OF AUBURN BALL BEARING IS PROHIBITED.
 41
0.648019802
 11
-0.1618921698
 21
-0.0893700809
 31
0.0
 73
     1
  0
ENDBLK
  5
98
  8
0
  0
BLOCK
  8
0
  2
_D
 70
     0
 10
0.0
 20
0.0
 30
0.0
  3
_D
  1

  0
SOLID
  5
A5
  8
0
  6
CONTINUOUS
 62
     7
 10
6.6650946008
 20
7.3086629947
 30
0.0
 11
6.7590946008
 21
7.2942014562
 31
0.0
 12
6.7590946008
 22
7.3231245331
 32
0.0
 13
6.7590946008
 23
7.3231245331
 33
0.0
  0
SOLID
  5
A6
  8
0
  6
CONTINUOUS
 62
     7
 10
9.2588446008
 20
7.3086629947
 30
0.0
 11
9.1648446008
 21
7.3231245331
 31
0.0
 12
9.1648446008
 22
7.2942014562
 32
0.0
 13
9.1648446008
 23
7.2942014562
 33
0.0
  0
LINE
  5
A7
  8
0
  6
CONTINUOUS
 62
     7
 10
6.6650946008
 20
5.4362959355
 30
0.0
 11
6.6650946008
 21
7.4336629947
 31
0.0
  0
LINE
  5
A8
  8
0
  6
CONTINUOUS
 62
     7
 10
9.2588446008
 20
5.4362959355
 30
0.0
 11
9.2588446008
 21
7.4336629947
 31
0.0
  0
LINE
  5
A9
  8
0
  6
CONTINUOUS
 62
     7
 10
6.6650946008
 20
7.3086629947
 30
0.0
 11
7.7382423918
 21
7.3086629947
 31
0.0
  0
LINE
  5
AA
  8
0
  6
CONTINUOUS
 62
     7
 10
9.2588446008
 20
7.3086629947
 30
0.0
 11
8.1925561002
 21
7.3086629947
 31
0.0
  0
TEXT
  5
AB
  8
0
  6
CONTINUOUS
 62
     7
 10
7.7382423918
 20
7.2665388847
 30
0.0
 40
0.094
  1
%%c
 41
0.7
 11
7.7382423918
 21
7.2333324389
 31
0.0
 73
     1
  0
TEXT
  5
AC
  8
0
  6
CONTINUOUS
 62
     7
 10
7.8800061417
 20
7.267974996
 30
0.0
 40
0.094
  1
2.594
 41
0.7
 11
7.8800061417
 21
7.2347685502
 31
0.0
 73
     1
  0
ENDBLK
  5
A4
  8
0
  0
BLOCK
  8
0
  2
_D_1
 70
     0
 10
0.0
 20
0.0
 30
0.0
  3
_D_1
  1

  0
SOLID
  5
B2
  8
0
  6
CONTINUOUS
 62
     7
 10
7.2119696008
 20
3.5054437865
 30
0.0
 11
7.3059696008
 21
3.4909822481
 31
0.0
 12
7.3059696008
 22
3.519905325
 32
0.0
 13
7.3059696008
 23
3.519905325
 33
0.0
  0
SOLID
  5
B3
  8
0
  6
CONTINUOUS
 62
     7
 10
8.7119696008
 20
3.5054437865
 30
0.0
 11
8.6179696008
 21
3.519905325
 31
0.0
 12
8.6179696008
 22
3.4909822481
 32
0.0
 13
8.6179696008
 23
3.4909822481
 33
0.0
  0
LINE
  5
B4
  8
0
  6
CONTINUOUS
 62
     7
 10
7.2119696008
 20
5.3362959355
 30
0.0
 11
7.2119696008
 21
3.3804437865
 31
0.0
  0
LINE
  5
B5
  8
0
  6
CONTINUOUS
 62
     7
 10
8.7119696008
 20
5.3362959355
 30
0.0
 11
8.7119696008
 21
3.3804437865
 31
0.0
  0
LINE
  5
B6
  8
0
  6
CONTINUOUS
 62
     7
 10
7.2119696008
 20
3.5054437865
 30
0.0
 11
7.7709098174
 21
3.5054437865
 31
0.0
  0
LINE
  5
B7
  8
0
  6
CONTINUOUS
 62
     7
 10
8.7119696008
 20
3.5054437865
 30
0.0
 11
8.2252235258
 21
3.5054437865
 31
0.0
  0
TEXT
  5
B8
  8
0
  6
CONTINUOUS
 62
     7
 10
7.7709098174
 20
3.4633196765
 30
0.0
 40
0.094
  1
%%c
 41
0.7
 11
7.7709098174
 21
3.4301132307
 31
0.0
 73
     1
  0
TEXT
  5
B9
  8
0
  6
CONTINUOUS
 62
     7
 10
7.9126735673
 20
3.4647557878
 30
0.0
 40
0.094
  1
1.500
 41
0.7
 11
7.9126735673
 21
3.431549342
 31
0.0
 73
     1
  0
ENDBLK
  5
B1
  8
0
  0
BLOCK
  8
0
  2
SW_CENTERMARKSYMBOL_0
 70
     0
 10
0.0
 20
0.0
 30
0.0
  3
SW_CENTERMARKSYMBOL_0
  1

  0
LINE
  5
BD
  8
0
  6
CONTINUOUS
 62
     0
 10
0.0
 20
0.0
 30
0.0
 11
0.0
 21
0.1
 31
0.0
  0
LINE
  5
BE
  8
0
  6
CONTINUOUS
 62
     0
 10
0.0
 20
0.0
 30
0.0
 11
-0.1
 21
0.0
 31
0.0
  0
LINE
  5
BF
  8
0
  6
CONTINUOUS
 62
     0
 10
0.0
 20
0.0
 30
0.0
 11
0.0
 21
-0.1
 31
0.0
  0
LINE
  5
C0
  8
0
  6
CONTINUOUS
 62
     0
 10
0.0
 20
0.0
 30
0.0
 11
0.1
 21
0.0
 31
0.0
  0
LINE
  5
C1
  8
0
  6
CONTINUOUS
 62
     0
 10
0.0
 20
0.2
 30
0.0
 11
0.0
 21
1.396875
 31
0.0
  0
LINE
  5
C2
  8
0
  6
CONTINUOUS
 62
     0
 10
-0.2
 20
0.0
 30
0.0
 11
-1.396875
 21
0.0
 31
0.0
  0
LINE
  5
C3
  8
0
  6
CONTINUOUS
 62
     0
 10
0.0
 20
-0.2
 30
0.0
 11
0.0
 21
-1.396875
 31
0.0
  0
LINE
  5
C4
  8
0
  6
CONTINUOUS
 62
     0
 10
0.2
 20
0.0
 30
0.0
 11
1.396875
 21
0.0
 31
0.0
  0
ENDBLK
  5
BC
  8
0
  0
BLOCK
  8
0
  2
_D_2
 70
     0
 10
0.0
 20
0.0
 30
0.0
  3
_D_2
  1

  0
SOLID
  5
14A
  8
0
  6
CONTINUOUS
 62
     7
 10
3.9268734665
 20
7.5493126677
 30
0.0
 11
3.8328734665
 21
7.5637742062
 31
0.0
 12
3.8328734665
 22
7.5348511293
 32
0.0
 13
3.8328734665
 23
7.5348511293
 33
0.0
  0
SOLID
  5
14B
  8
0
  6
CONTINUOUS
 62
     7
 10
3.3018734665
 20
7.5493126677
 30
0.0
 11
3.3958734665
 21
7.5348511293
 31
0.0
 12
3.3958734665
 22
7.5637742062
 32
0.0
 13
3.3958734665
 23
7.5637742062
 33
0.0
  0
LINE
  5
14C
  8
0
  6
CONTINUOUS
 62
     7
 10
3.9268734665
 20
6.7131709355
 30
0.0
 11
3.9268734665
 21
7.6743126677
 31
0.0
  0
LINE
  5
14D
  8
0
  6
CONTINUOUS
 62
     7
 10
3.3018734665
 20
6.7131709355
 30
0.0
 11
3.3018734665
 21
7.6743126677
 31
0.0
  0
LINE
  5
14E
  8
0
  6
CONTINUOUS
 62
     7
 10
3.9268734665
 20
7.5493126677
 30
0.0
 11
3.7359206873
 21
7.5493126677
 31
0.0
  0
LINE
  5
14F
  8
0
  6
CONTINUOUS
 62
     7
 10
3.3018734665
 20
7.5493126677
 30
0.0
 11
3.4928262456
 21
7.5493126677
 31
0.0
  0
TEXT
  5
150
  8
0
  6
CONTINUOUS
 62
     7
 10
3.4928262456
 20
7.5079066157
 30
0.586
 40
0.094
  1
.625
 41
0.7
 11
3.4928262456
 21
7.4747001699
 31
0.586
 73
     1
  0
ENDBLK
  5
149
  8
0
  0
ENDSEC
  0
SECTION
  2
ENTITIES
  0
LINE
  5
75
  8
0
  6
CONTINUOUS
 62
     7
 10
0.2588915831
 20
8.1920731707
 30
0.0
 11
10.629927
 21
8.1920731707
 31
0.0
  0
LINE
  5
76
  8
0
  6
CONTINUOUS
 62
     7
 10
0.2588915831
 20
8.1920731707
 30
0.0
 11
0.2588915831
 21
0.3920731707
 31
0.0
  0
LINE
  5
77
  8
0
  6
CONTINUOUS
 62
     7
 10
10.629927
 20
0.3920731707
 30
0.0
 11
0.2588915831
 21
0.3920731707
 31
0.0
  0
LINE
  5
78
  8
0
  6
CONTINUOUS
 62
     7
 10
10.629927
 20
0.3920731707
 30
0.0
 11
10.629927
 21
8.1920731707
 31
0.0
  0
LINE
  5
79
  8
0
  6
CONTINUOUS
 62
     7
 10
6.895369671
 20
0.6920731707
 30
0.0
 11
6.895369671
 21
0.3920731707
 31
0.0
  0
LINE
  5
7A
  8
0
  6
CONTINUOUS
 62
     7
 10
6.895369671
 20
2.2538646663
 30
0.0
 11
6.895369671
 21
0.6920731707
 31
0.0
  0
LINE
  5
7B
  8
0
  6
CONTINUOUS
 62
     7
 10
6.895369671
 20
0.6920731707
 30
0.0
 11
10.629927
 21
0.6920731707
 31
0.0
  0
LINE
  5
7C
  8
0
  6
CONTINUOUS
 62
     7
 10
6.895369671
 20
1.2938884062
 30
0.0
 11
10.629927
 21
1.2938884062
 31
0.0
  0
LINE
  5
7D
  8
0
  6
CONTINUOUS
 62
     7
 10
7.4789412454
 20
1.0420731707
 30
0.0
 11
10.629927
 21
1.0420731707
 31
0.0
  0
LINE
  5
7E
  8
0
  6
CONTINUOUS
 62
     7
 10
7.4789412454
 20
1.0420731707
 30
0.0
 11
6.895369671
 21
1.0420731707
 31
0.0
  0
LINE
  5
7F
  8
0
  6
CONTINUOUS
 62
     7
 10
10.629927
 20
2.2538646663
 30
0.0
 11
5.7428859
 21
2.2538646663
 31
0.0
  0
LINE
  5
80
  8
0
  6
CONTINUOUS
 62
     7
 10
6.7188368717
 20
0.6155953096
 30
0.0
 11
6.4188368717
 21
0.6155953096
 31
0.0
  0
LINE
  5
81
  8
0
  6
CONTINUOUS
 62
     7
 10
5.9688368717
 20
0.7405953096
 30
0.0
 11
5.9688368717
 21
0.4905953096
 31
0.0
  0
LINE
  5
82
  8
0
  6
CONTINUOUS
 62
     7
 10
5.9688368717
 20
0.7405953096
 30
0.0
 11
6.2688368717
 21
0.6780953096
 31
0.0
  0
LINE
  5
83
  8
0
  6
CONTINUOUS
 62
     7
 10
6.2688368717
 20
0.6780953096
 30
0.0
 11
6.2688368717
 21
0.5530953096
 31
0.0
  0
LINE
  5
84
  8
0
  6
CONTINUOUS
 62
     7
 10
6.2688368717
 20
0.5530953096
 30
0.0
 11
5.9688368717
 21
0.4905953096
 31
0.0
  0
LINE
  5
85
  8
0
  6
CONTINUOUS
 62
     7
 10
6.5688368717
 20
0.7655953096
 30
0.0
 11
6.5688368717
 21
0.4655953096
 31
0.0
  0
LINE
  5
86
  8
0
  6
CONTINUOUS
 62
     7
 10
6.2938368717
 20
0.6155953096
 30
0.0
 11
5.9438368717
 21
0.6155953096
 31
0.0
  0
LINE
  5
87
  8
0
  6
CONTINUOUS
 62
     7
 10
6.895369671
 20
0.8670731707
 30
0.0
 11
5.7428859
 21
0.8670731707
 31
0.0
  0
LINE
  5
88
  8
0
  6
CONTINUOUS
 62
     7
 10
5.7428859
 20
0.3920731707
 30
0.0
 11
5.7428859
 21
2.2538646663
 31
0.0
  0
CIRCLE
  5
89
  8
0
  6
CONTINUOUS
 62
     7
 10
6.5688368717
 20
0.6155953096
 30
0.0
 40
0.1250000000000005
  0
CIRCLE
  5
8A
  8
0
  6
CONTINUOUS
 62
     7
 10
6.5688368717
 20
0.6155953096
 30
0.0
 40
0.0624999999999998
  0
TEXT
  5
8B
  8
0
  6
CONTINUOUS
 62
     7
 10
9.8946199287
 20
0.7778772066
 30
0.0
 40
0.1875
  1
AE-28
 41
0.7
 11
9.8946199287
 21
0.711640945
 31
0.0
 73
     1
  0
TEXT
  5
8C
  8
0
  6
CONTINUOUS
 62
     7
 10
6.9454407988
 20
0.9373362189
 30
0.0
 40
0.0833333333
  1
ITEM NUMBER
 41
0.7
 11
6.9454407988
 21
0.9078978804
 31
0.0
 73
     1
  0
INSERT
  5
93
  8
0
  6
CONTINUOUS
 62
     7
  2
SW_NOTE_0
 10
7.6846410003
 20
1.7911336193
 30
0.0
  0
TEXT
  5
94
  8
0
  6
CONTINUOUS
 62
     7
 10
7.4927057892
 20
1.1264966581
 30
0.0
 40
0.1041666667
  1
Roller Thrust Bearing, AE-28,  1.500 x 2.594 x .625
 41
0.6382352941
 11
7.4927057892
 21
1.089698735
 31
0.0
 73
     1
  0
TEXT
  5
95
  8
0
  6
CONTINUOUS
 62
     7
 10
6.9585720202
 20
1.2053935902
 30
0.0
 40
0.065
  1
DESCRIPTION
 41
0.7
 11
6.9585720202
 21
1.1824316862
 31
0.0
 73
     1
  0
INSERT
  5
9B
  8
0
  6
CONTINUOUS
 62
     7
  2
SW_NOTE_1
 10
7.1289909583
 20
0.5372783317
 30
0.0
  0
CIRCLE
  5
9C
  8
0
  6
CONTINUOUS
 62
     7
 10
7.9619696008
 20
5.3862959355
 30
0.0
 40
0.75
  0
CIRCLE
  5
9D
  8
0
  6
CONTINUOUS
 62
     7
 10
7.9619696008
 20
5.3862959355
 30
0.0
 40
0.7699999999999996
  0
CIRCLE
  5
9E
  8
0
  6
CONTINUOUS
 62
     7
 10
7.9619696008
 20
5.3862959355
 30
0.0
 40
1.276875
  0
CIRCLE
  5
9F
  8
0
  6
CONTINUOUS
 62
     7
 10
7.9619696008
 20
5.3862959355
 30
0.0
 40
1.296875
  0
DIMENSION
  5
A0
  8
0
  6
CONTINUOUS
 62
     7
  2
_D
 10
9.2588446008
 20
7.3086629947
 30
0.0
 11
7.965399246
 21
7.3086629947
 31
0.0
 70
   160
  1
%%c<>
  3
SLDDIMSTYLE0
 13
6.6650946008
 23
5.3862959355
 33
0.0
 14
9.2588446008
 24
5.3862959355
 34
0.0
  0
DIMENSION
  5
AD
  8
0
  6
CONTINUOUS
 62
     7
  2
_D_1
 10
8.7119696008
 20
3.5054437865
 30
0.0
 11
7.9980666716
 21
3.5054437865
 31
0.0
 70
   160
  1
%%c<>
  3
SLDDIMSTYLE1
 13
7.2119696008
 23
5.3862959355
 33
0.0
 14
8.7119696008
 24
5.3862959355
 34
0.0
  0
INSERT
  5
C5
  8
0
  6
CONTINUOUS
 62
     7
  2
SW_CENTERMARKSYMBOL_0
 10
7.9619696008
 20
5.3862959355
 30
0.0
  0
LINE
  5
C6
  8
0
  6
HIDDEN
 62
     7
 10
7.9619696008
 20
6.8395759355
 30
0.0
 11
7.9619696008
 21
3.9330159355
 31
0.0
  0
LINE
  5
C7
  8
0
  6
CONTINUOUS
 62
     7
 10
7.9619696008
 20
6.8395759355
 30
0.0
 11
8.1519696008
 21
6.8395759355
 31
0.0
  0
SOLID
  5
C8
  8
0
  6
CONTINUOUS
 62
     7
 10
8.1519696008
 20
6.8395759355
 30
0.0
 11
8.0269696008
 21
6.8595759355
 31
0.0
 12
8.0269696008
 22
6.8195759355
 32
0.0
 13
8.0269696008
 23
6.8195759355
 33
0.0
  0
LINE
  5
C9
  8
0
  6
CONTINUOUS
 62
     7
 10
7.9619696008
 20
3.9330159355
 30
0.0
 11
8.1519696008
 21
3.9330159355
 31
0.0
  0
SOLID
  5
CA
  8
0
  6
CONTINUOUS
 62
     7
 10
8.1519696008
 20
3.9330159355
 30
0.0
 11
8.0269696008
 21
3.9530159355
 31
0.0
 12
8.0269696008
 22
3.9130159355
 32
0.0
 13
8.0269696008
 23
3.9130159355
 33
0.0
  0
TEXT
  5
CB
  8
0
  6
CONTINUOUS
 62
     7
 10
8.1802499989
 20
6.8201936996
 30
0.0
 40
0.094
  1
A
 41
0.7
 11
8.1802499989
 21
6.9141936996
 31
0.0
 73
     3
  0
TEXT
  5
CC
  8
0
  6
CONTINUOUS
 62
     7
 10
8.1802499989
 20
3.9136336996
 30
0.0
 40
0.094
  1
A
 41
0.7
 11
8.1802499989
 21
4.0076336996
 31
0.0
 73
     3
  0
LINE
  5
CD
  8
0
  6
CONTINUOUS
 62
     7
 10
3.3018734665
 20
4.5434658496
 30
0.0
 11
3.3947035523
 21
4.6362959355
 31
0.0
  0
LINE
  5
CE
  8
0
  6
CONTINUOUS
 62
     7
 10
3.3018734665
 20
4.3666891543
 30
0.0
 11
3.4893734665
 21
4.5541891543
 31
0.0
  0
LINE
  5
CF
  8
0
  6
CONTINUOUS
 62
     7
 10
3.3018734665
 20
4.189912459
 30
0.0
 11
3.4893734665
 21
4.377412459
 31
0.0
  0
LINE
  5
D0
  8
0
  6
CONTINUOUS
 62
     7
 10
3.3781586382
 20
4.0894209355
 30
0.0
 11
3.4893734665
 21
4.2006357637
 31
0.0
  0
LINE
  5
D1
  8
0
  6
CONTINUOUS
 62
     7
 10
3.3019446996
 20
6.6648574263
 30
0.0
 11
3.3201869757
 21
6.6830997023
 31
0.0
  0
LINE
  5
D2
  8
0
  6
CONTINUOUS
 62
     7
 10
3.3018734665
 20
6.4880094978
 30
0.0
 11
3.4868176196
 21
6.6729536509
 31
0.0
  0
LINE
  5
D3
  8
0
  6
CONTINUOUS
 62
     7
 10
3.3018734665
 20
6.3112328025
 30
0.0
 11
3.4893734665
 21
6.4987328025
 31
0.0
  0
LINE
  5
D4
  8
0
  6
CONTINUOUS
 62
     7
 10
3.3086811958
 20
6.1412638366
 30
0.0
 11
3.4893734665
 21
6.3219561072
 31
0.0
  0
LINE
  5
D5
  8
0
  6
CONTINUOUS
 62
     7
 10
3.6038115994
 20
6.6131709355
 30
0.0
 11
3.6538115994
 21
6.6631709355
 31
0.0
  0
LINE
  5
D6
  8
0
  6
CONTINUOUS
 62
     7
 10
3.5093734665
 20
4.5741891543
 30
0.0
 11
3.5514802476
 21
4.6162959355
 31
0.0
  0
LINE
  5
D7
  8
0
  6
CONTINUOUS
 62
     7
 10
3.6782569429
 20
4.5662959355
 30
0.0
 11
3.7138152047
 21
4.6018541972
 31
0.0
  0
LINE
  5
D8
  8
0
  6
CONTINUOUS
 62
     7
 10
3.5749353335
 20
4.1094209355
 30
0.0
 11
3.6249353335
 21
4.1594209355
 31
0.0
  0
LINE
  5
D9
  8
0
  6
CONTINUOUS
 62
     7
 10
3.5149317282
 20
6.1707376737
 30
0.0
 11
3.55048999
 21
6.2062959355
 31
0.0
  0
LINE
  5
DA
  8
0
  6
CONTINUOUS
 62
     7
 10
3.6772666853
 20
6.1562959355
 30
0.0
 11
3.7193734665
 21
6.1984027166
 31
0.0
  0
LINE
  5
DB
  8
0
  6
CONTINUOUS
 62
     7
 10
3.4977703771
 20
6.210005806
 30
0.0
 11
3.493083337
 21
6.2146928461
 31
0.0
  0
LINE
  5
DC
  8
0
  6
CONTINUOUS
 62
     7
 10
3.5898685953
 20
6.2062959355
 30
0.0
 11
3.4893734665
 21
6.3067910643
 31
0.0
  0
LINE
  5
DD
  8
0
  6
CONTINUOUS
 62
     7
 10
3.6782569429
 20
6.2062959355
 30
0.0
 11
3.4893734665
 21
6.3951794119
 31
0.0
  0
LINE
  5
DE
  8
0
  6
CONTINUOUS
 62
     7
 10
3.7393734665
 20
6.2335677596
 30
0.0
 11
3.4893734665
 21
6.4835677596
 31
0.0
  0
LINE
  5
DF
  8
0
  6
CONTINUOUS
 62
     7
 10
3.7393734665
 20
6.3219561072
 30
0.0
 11
3.4893734665
 21
6.5719561072
 31
0.0
  0
LINE
  5
E0
  8
0
  6
CONTINUOUS
 62
     7
 10
3.7393734665
 20
6.4103444549
 30
0.0
 11
3.5365469859
 21
6.6131709355
 31
0.0
  0
LINE
  5
E1
  8
0
  6
CONTINUOUS
 62
     7
 10
3.7393734665
 20
6.4987328025
 30
0.0
 11
3.6249353335
 21
6.6131709355
 31
0.0
  0
LINE
  5
E2
  8
0
  6
CONTINUOUS
 62
     7
 10
3.7393734665
 20
6.5871211502
 30
0.0
 11
3.7133236812
 21
6.6131709355
 31
0.0
  0
LINE
  5
E3
  8
0
  6
CONTINUOUS
 62
     7
 10
3.5154232517
 20
4.1594209355
 30
0.0
 11
3.4893734665
 21
4.1854707207
 31
0.0
  0
LINE
  5
E4
  8
0
  6
CONTINUOUS
 62
     7
 10
3.6038115994
 20
4.1594209355
 30
0.0
 11
3.4893734665
 21
4.2738590684
 31
0.0
  0
LINE
  5
E5
  8
0
  6
CONTINUOUS
 62
     7
 10
3.692199947
 20
4.1594209355
 30
0.0
 11
3.4893734665
 21
4.362247416
 31
0.0
  0
LINE
  5
E6
  8
0
  6
CONTINUOUS
 62
     7
 10
3.7393734665
 20
4.2006357637
 30
0.0
 11
3.4893734665
 21
4.4506357637
 31
0.0
  0
LINE
  5
E7
  8
0
  6
CONTINUOUS
 62
     7
 10
3.7393734665
 20
4.2890241113
 30
0.0
 11
3.4893734665
 21
4.5390241113
 31
0.0
  0
LINE
  5
E8
  8
0
  6
CONTINUOUS
 62
     7
 10
3.7393734665
 20
4.377412459
 30
0.0
 11
3.55048999
 21
4.5662959355
 31
0.0
  0
LINE
  5
E9
  8
0
  6
CONTINUOUS
 62
     7
 10
3.7393734665
 20
4.4658008066
 30
0.0
 11
3.6388783376
 21
4.5662959355
 31
0.0
  0
LINE
  5
EA
  8
0
  6
CONTINUOUS
 62
     7
 10
3.7356635959
 20
4.5578990248
 30
0.0
 11
3.7309765559
 21
4.5625860649
 31
0.0
  0
LINE
  5
EB
  8
0
  6
CONTINUOUS
 62
     7
 10
3.7393734665
 20
4.4506357637
 30
0.0
 11
3.9200657371
 21
4.6313280343
 31
0.0
  0
LINE
  5
EC
  8
0
  6
CONTINUOUS
 62
     7
 10
3.7393734665
 20
4.2738590684
 30
0.0
 11
3.9268734665
 21
4.4613590684
 31
0.0
  0
LINE
  5
ED
  8
0
  6
CONTINUOUS
 62
     7
 10
3.7419293133
 20
4.09963822
 30
0.0
 11
3.9268734665
 21
4.2845823731
 31
0.0
  0
LINE
  5
EE
  8
0
  6
CONTINUOUS
 62
     7
 10
3.9085599573
 20
4.0894921686
 30
0.0
 11
3.9268022333
 21
4.1077344446
 31
0.0
  0
LINE
  5
EF
  8
0
  6
CONTINUOUS
 62
     7
 10
3.7393734665
 20
6.5719561072
 30
0.0
 11
3.8505882947
 21
6.6831709355
 31
0.0
  0
LINE
  5
F0
  8
0
  6
CONTINUOUS
 62
     7
 10
3.7393734665
 20
6.3951794119
 30
0.0
 11
3.9268734665
 21
6.5826794119
 31
0.0
  0
LINE
  5
F1
  8
0
  6
CONTINUOUS
 62
     7
 10
3.7393734665
 20
6.2184027166
 30
0.0
 11
3.9268734665
 21
6.4059027166
 31
0.0
  0
LINE
  5
F2
  8
0
  6
CONTINUOUS
 62
     7
 10
3.8340433806
 20
6.1362959355
 30
0.0
 11
3.9268734665
 21
6.2291260213
 31
0.0
  0
ARC
  5
F3
  8
0
  6
CONTINUOUS
 62
     7
 10
3.7593734665
 20
4.1094209355
 30
0.0
 40
0.02
 50
180.0
 51
270.0
  0
LINE
  5
F4
  8
0
  6
CONTINUOUS
 62
     7
 10
3.7393734665
 20
4.1094209355
 30
0.0
 11
3.7393734665
 21
4.6162959355
 31
0.0
  0
ARC
  5
F5
  8
0
  6
CONTINUOUS
 62
     7
 10
3.7593734665
 20
4.6162959355
 30
0.0
 40
0.02
 50
90.0
 51
180.0
  0
LINE
  5
F6
  8
0
  6
CONTINUOUS
 62
     7
 10
3.9068734665
 20
4.6362959355
 30
0.0
 11
3.7593734665
 21
4.6362959355
 31
0.0
  0
ARC
  5
F7
  8
0
  6
CONTINUOUS
 62
     7
 10
3.9068734665
 20
4.6162959355
 30
0.0
 40
0.0200000000000005
 50
0.0
 51
90.0
  0
LINE
  5
F8
  8
0
  6
CONTINUOUS
 62
     7
 10
3.9268734665
 20
4.1094209355
 30
0.0
 11
3.9268734665
 21
4.6162959355
 31
0.0
  0
ARC
  5
F9
  8
0
  6
CONTINUOUS
 62
     7
 10
3.9068734665
 20
4.1094209355
 30
0.0
 40
0.0200000000000005
 50
270.0
 51
0.0
  0
LINE
  5
FA
  8
0
  6
CONTINUOUS
 62
     7
 10
3.9068734665
 20
4.0894209355
 30
0.0
 11
3.7593734665
 21
4.0894209355
 31
0.0
  0
ARC
  5
FB
  8
0
  6
CONTINUOUS
 62
     7
 10
3.9068734665
 20
6.6631709355
 30
0.0
 40
0.0200000000000005
 50
0.0
 51
90.0
  0
ARC
  5
FC
  8
0
  6
CONTINUOUS
 62
     7
 10
3.9068734665
 20
6.1562959355
 30
0.0
 40
0.0200000000000005
 50
270.0
 51
0.0
  0
LINE
  5
FD
  8
0
  6
CONTINUOUS
 62
     7
 10
3.9068734665
 20
6.1362959355
 30
0.0
 11
3.9068734665
 21
4.6362959355
 31
0.0
  0
LINE
  5
FE
  8
0
  6
CONTINUOUS
 62
     7
 10
3.9268734665
 20
6.1562959355
 30
0.0
 11
3.9268734665
 21
4.6162959355
 31
0.0
  0
LINE
  5
FF
  8
0
  6
CONTINUOUS
 62
     7
 10
3.7593734665
 20
6.1362959355
 30
0.0
 11
3.7593734665
 21
4.6362959355
 31
0.0
  0
LINE
  5
100
  8
0
  6
CONTINUOUS
 62
     7
 10
3.7593734665
 20
6.1362959355
 30
0.0
 11
3.9068734665
 21
6.1362959355
 31
0.0
  0
LINE
  5
101
  8
0
  6
CONTINUOUS
 62
     7
 10
3.7393734665
 20
6.1562959355
 30
0.0
 11
3.7393734665
 21
4.6162959355
 31
0.0
  0
ARC
  5
102
  8
0
  6
CONTINUOUS
 62
     7
 10
3.7593734665
 20
6.1562959355
 30
0.0
 40
0.02
 50
180.0
 51
270.0
  0
ARC
  5
103
  8
0
  6
CONTINUOUS
 62
     7
 10
3.7593734665
 20
6.6631709355
 30
0.0
 40
0.02
 50
90.0
 51
180.0
  0
LINE
  5
104
  8
0
  6
CONTINUOUS
 62
     7
 10
3.7593734665
 20
6.6831709355
 30
0.0
 11
3.9068734665
 21
6.6831709355
 31
0.0
  0
LINE
  5
105
  8
0
  6
CONTINUOUS
 62
     7
 10
3.7393734665
 20
6.1562959355
 30
0.0
 11
3.7393734665
 21
6.6631709355
 31
0.0
  0
LINE
  5
106
  8
0
  6
CONTINUOUS
 62
     7
 10
3.9268734665
 20
6.1562959355
 30
0.0
 11
3.9268734665
 21
6.6631709355
 31
0.0
  0
ARC
  5
107
  8
0
  6
CONTINUOUS
 62
     7
 10
3.5093734665
 20
4.5462959355
 30
0.0
 40
0.0200000000000005
 50
90.0
 51
180.0
  0
ARC
  5
108
  8
0
  6
CONTINUOUS
 62
     7
 10
3.7193734665
 20
4.5462959355
 30
0.0
 40
0.0200000000000005
 50
0.0
 51
90.0
  0
LINE
  5
109
  8
0
  6
CONTINUOUS
 62
     7
 10
3.4893734665
 20
4.5462959355
 30
0.0
 11
3.4893734665
 21
4.1794209355
 31
0.0
  0
LINE
  5
10A
  8
0
  6
CONTINUOUS
 62
     7
 10
3.7393734665
 20
4.1794209355
 30
0.0
 11
3.7393734665
 21
4.5462959355
 31
0.0
  0
ARC
  5
10B
  8
0
  6
CONTINUOUS
 62
     7
 10
3.5093734665
 20
4.1794209355
 30
0.0
 40
0.0199999999999996
 50
180.0
 51
270.0
  0
ARC
  5
10C
  8
0
  6
CONTINUOUS
 62
     7
 10
3.7193734665
 20
4.1794209355
 30
0.0
 40
0.0199999999999996
 50
270.0
 51
0.0
  0
LINE
  5
10D
  8
0
  6
CONTINUOUS
 62
     7
 10
3.5093734665
 20
4.5662959355
 30
0.0
 11
3.7193734665
 21
4.5662959355
 31
0.0
  0
LINE
  5
10E
  8
0
  6
CONTINUOUS
 62
     7
 10
3.5093734665
 20
4.1594209355
 30
0.0
 11
3.7193734665
 21
4.1594209355
 31
0.0
  0
ARC
  5
10F
  8
0
  6
CONTINUOUS
 62
     7
 10
3.7193734665
 20
6.2262959355
 30
0.0
 40
0.0199999999999996
 50
270.0
 51
0.0
  0
ARC
  5
110
  8
0
  6
CONTINUOUS
 62
     7
 10
3.5093734665
 20
6.2262959355
 30
0.0
 40
0.0199999999999996
 50
180.0
 51
270.0
  0
LINE
  5
111
  8
0
  6
CONTINUOUS
 62
     7
 10
3.7393734665
 20
6.2262959355
 30
0.0
 11
3.7393734665
 21
6.5931709355
 31
0.0
  0
LINE
  5
112
  8
0
  6
CONTINUOUS
 62
     7
 10
3.4893734665
 20
6.5931709355
 30
0.0
 11
3.4893734665
 21
6.2262959355
 31
0.0
  0
ARC
  5
113
  8
0
  6
CONTINUOUS
 62
     7
 10
3.7193734665
 20
6.5931709355
 30
0.0
 40
0.0200000000000005
 50
0.0
 51
90.0
  0
ARC
  5
114
  8
0
  6
CONTINUOUS
 62
     7
 10
3.5093734665
 20
6.5931709355
 30
0.0
 40
0.0200000000000005
 50
90.0
 51
180.0
  0
LINE
  5
115
  8
0
  6
CONTINUOUS
 62
     7
 10
3.7193734665
 20
6.2062959355
 30
0.0
 11
3.5093734665
 21
6.2062959355
 31
0.0
  0
LINE
  5
116
  8
0
  6
CONTINUOUS
 62
     7
 10
3.7193734665
 20
6.6131709355
 30
0.0
 11
3.5093734665
 21
6.6131709355
 31
0.0
  0
LINE
  5
117
  8
0
  6
CONTINUOUS
 62
     7
 10
3.5093734665
 20
6.6131709355
 30
0.0
 11
3.5093734665
 21
6.6431709355
 31
0.0
  0
LINE
  5
118
  8
0
  6
CONTINUOUS
 62
     7
 10
3.5293734665
 20
6.6631709355
 30
0.0
 11
3.5093734665
 21
6.6431709355
 31
0.0
  0
LINE
  5
119
  8
0
  6
CONTINUOUS
 62
     7
 10
3.6993734665
 20
6.6631709355
 30
0.0
 11
3.5293734665
 21
6.6631709355
 31
0.0
  0
LINE
  5
11A
  8
0
  6
CONTINUOUS
 62
     7
 10
3.7193734665
 20
6.6431709355
 30
0.0
 11
3.6993734665
 21
6.6631709355
 31
0.0
  0
LINE
  5
11B
  8
0
  6
CONTINUOUS
 62
     7
 10
3.7193734665
 20
6.6131709355
 30
0.0
 11
3.7193734665
 21
6.6431709355
 31
0.0
  0
LINE
  5
11C
  8
0
  6
CONTINUOUS
 62
     7
 10
3.5293734665
 20
4.6162959355
 30
0.0
 11
3.6993734665
 21
4.6162959355
 31
0.0
  0
LINE
  5
11D
  8
0
  6
CONTINUOUS
 62
     7
 10
3.7193734665
 20
4.5962959355
 30
0.0
 11
3.6993734665
 21
4.6162959355
 31
0.0
  0
LINE
  5
11E
  8
0
  6
CONTINUOUS
 62
     7
 10
3.5093734665
 20
4.5962959355
 30
0.0
 11
3.5293734665
 21
4.6162959355
 31
0.0
  0
LINE
  5
11F
  8
0
  6
CONTINUOUS
 62
     7
 10
3.7193734665
 20
4.5662959355
 30
0.0
 11
3.7193734665
 21
4.5962959355
 31
0.0
  0
LINE
  5
120
  8
0
  6
CONTINUOUS
 62
     7
 10
3.5093734665
 20
4.5662959355
 30
0.0
 11
3.5093734665
 21
4.5962959355
 31
0.0
  0
LINE
  5
121
  8
0
  6
CONTINUOUS
 62
     7
 10
3.5093734665
 20
4.1294209355
 30
0.0
 11
3.5293734665
 21
4.1094209355
 31
0.0
  0
LINE
  5
122
  8
0
  6
CONTINUOUS
 62
     7
 10
3.6993734665
 20
4.1094209355
 30
0.0
 11
3.7193734665
 21
4.1294209355
 31
0.0
  0
LINE
  5
123
  8
0
  6
CONTINUOUS
 62
     7
 10
3.5293734665
 20
4.1094209355
 30
0.0
 11
3.6993734665
 21
4.1094209355
 31
0.0
  0
LINE
  5
124
  8
0
  6
CONTINUOUS
 62
     7
 10
3.7193734665
 20
4.1294209355
 30
0.0
 11
3.7193734665
 21
4.1594209355
 31
0.0
  0
LINE
  5
125
  8
0
  6
CONTINUOUS
 62
     7
 10
3.5093734665
 20
4.1294209355
 30
0.0
 11
3.5093734665
 21
4.1594209355
 31
0.0
  0
LINE
  5
126
  8
0
  6
CONTINUOUS
 62
     7
 10
3.6993734665
 20
6.1562959355
 30
0.0
 11
3.6993734665
 21
4.6162959355
 31
0.0
  0
LINE
  5
127
  8
0
  6
CONTINUOUS
 62
     7
 10
3.6993734665
 20
6.1562959355
 30
0.0
 11
3.7193734665
 21
6.1762959355
 31
0.0
  0
LINE
  5
128
  8
0
  6
CONTINUOUS
 62
     7
 10
3.7193734665
 20
6.1762959355
 30
0.0
 11
3.7193734665
 21
4.5962959355
 31
0.0
  0
LINE
  5
129
  8
0
  6
CONTINUOUS
 62
     7
 10
3.6993734665
 20
6.1562959355
 30
0.0
 11
3.5293734665
 21
6.1562959355
 31
0.0
  0
LINE
  5
12A
  8
0
  6
CONTINUOUS
 62
     7
 10
3.5293734665
 20
6.1562959355
 30
0.0
 11
3.5293734665
 21
4.6162959355
 31
0.0
  0
LINE
  5
12B
  8
0
  6
CONTINUOUS
 62
     7
 10
3.5293734665
 20
6.1562959355
 30
0.0
 11
3.5093734665
 21
6.1762959355
 31
0.0
  0
LINE
  5
12C
  8
0
  6
CONTINUOUS
 62
     7
 10
3.5093734665
 20
6.1762959355
 30
0.0
 11
3.5093734665
 21
4.5962959355
 31
0.0
  0
LINE
  5
12D
  8
0
  6
CONTINUOUS
 62
     7
 10
3.7193734665
 20
6.1762959355
 30
0.0
 11
3.7193734665
 21
6.2062959355
 31
0.0
  0
LINE
  5
12E
  8
0
  6
CONTINUOUS
 62
     7
 10
3.5093734665
 20
6.1762959355
 30
0.0
 11
3.5093734665
 21
6.2062959355
 31
0.0
  0
LINE
  5
12F
  8
0
  6
CONTINUOUS
 62
     7
 10
3.3218734665
 20
6.6831709355
 30
0.0
 11
3.4693734665
 21
6.6831709355
 31
0.0
  0
LINE
  5
130
  8
0
  6
CONTINUOUS
 62
     7
 10
3.4693734665
 20
4.0894209355
 30
0.0
 11
3.3218734665
 21
4.0894209355
 31
0.0
  0
ARC
  5
131
  8
0
  6
CONTINUOUS
 62
     7
 10
3.4693734665
 20
6.6631709355
 30
0.0
 40
0.0200000000000005
 50
0.0
 51
90.0
  0
LINE
  5
132
  8
0
  6
CONTINUOUS
 62
     7
 10
3.4893734665
 20
6.1562959355
 30
0.0
 11
3.4893734665
 21
6.6631709355
 31
0.0
  0
ARC
  5
133
  8
0
  6
CONTINUOUS
 62
     7
 10
3.4693734665
 20
6.1562959355
 30
0.0
 40
0.0200000000000005
 50
270.0
 51
0.0
  0
LINE
  5
134
  8
0
  6
CONTINUOUS
 62
     7
 10
3.3218734665
 20
6.1362959355
 30
0.0
 11
3.4693734665
 21
6.1362959355
 31
0.0
  0
ARC
  5
135
  8
0
  6
CONTINUOUS
 62
     7
 10
3.3218734665
 20
6.1562959355
 30
0.0
 40
0.02
 50
180.0
 51
270.0
  0
LINE
  5
136
  8
0
  6
CONTINUOUS
 62
     7
 10
3.3018734665
 20
6.1562959355
 30
0.0
 11
3.3018734665
 21
6.6631709355
 31
0.0
  0
ARC
  5
137
  8
0
  6
CONTINUOUS
 62
     7
 10
3.3218734665
 20
6.6631709355
 30
0.0
 40
0.02
 50
90.0
 51
180.0
  0
LINE
  5
138
  8
0
  6
CONTINUOUS
 62
     7
 10
3.3218734665
 20
6.1362959355
 30
0.0
 11
3.3218734665
 21
4.6362959355
 31
0.0
  0
LINE
  5
139
  8
0
  6
CONTINUOUS
 62
     7
 10
3.4693734665
 20
6.1362959355
 30
0.0
 11
3.4693734665
 21
4.6362959355
 31
0.0
  0
LINE
  5
13A
  8
0
  6
CONTINUOUS
 62
     7
 10
3.4693734665
 20
4.6362959355
 30
0.0
 11
3.3218734665
 21
4.6362959355
 31
0.0
  0
ARC
  5
13B
  8
0
  6
CONTINUOUS
 62
     7
 10
3.4693734665
 20
4.6162959355
 30
0.0
 40
0.0200000000000005
 50
0.0
 51
90.0
  0
LINE
  5
13C
  8
0
  6
CONTINUOUS
 62
     7
 10
3.4893734665
 20
6.1562959355
 30
0.0
 11
3.4893734665
 21
4.6162959355
 31
0.0
  0
ARC
  5
13D
  8
0
  6
CONTINUOUS
 62
     7
 10
3.3218734665
 20
4.1094209355
 30
0.0
 40
0.0200000000000005
 50
180.0
 51
270.0
  0
LINE
  5
13E
  8
0
  6
CONTINUOUS
 62
     7
 10
3.3018734665
 20
4.1094209355
 30
0.0
 11
3.3018734665
 21
4.6162959355
 31
0.0
  0
ARC
  5
13F
  8
0
  6
CONTINUOUS
 62
     7
 10
3.3218734665
 20
4.6162959355
 30
0.0
 40
0.02
 50
90.0
 51
180.0
  0
ARC
  5
140
  8
0
  6
CONTINUOUS
 62
     7
 10
3.4693734665
 20
4.1094209355
 30
0.0
 40
0.0200000000000005
 50
270.0
 51
0.0
  0
LINE
  5
141
  8
0
  6
CONTINUOUS
 62
     7
 10
3.4893734665
 20
4.1094209355
 30
0.0
 11
3.4893734665
 21
4.6162959355
 31
0.0
  0
LINE
  5
142
  8
0
  6
CONTINUOUS
 62
     7
 10
3.3018734665
 20
6.1562959355
 30
0.0
 11
3.3018734665
 21
4.6162959355
 31
0.0
  0
ARC
  5
143
  8
0
  6
CONTINUOUS
 62
     7
 10
3.6143734665
 20
5.3862959355
 30
0.0
 40
0.1250000000000005
 50
327.1401196211
 51
32.8598803789
  0
ARC
  5
144
  8
0
  6
CONTINUOUS
 62
     7
 10
3.6143734665
 20
5.3862959355
 30
0.0
 40
0.1250000000000002
 50
147.1401196211
 51
212.8598803789
  0
DIMENSION
  5
145
  8
0
  6
CONTINUOUS
 62
     7
  2
_D_2
 10
3.3018734665
 20
7.5493126677
 30
0.0
 11
3.6143734665
 21
7.5493126677
 31
0.0
 70
   160
  1
<>
  3
SLDDIMSTYLE2
 13
3.9268734665
 23
6.6631709355
 33
0.0
 14
3.3018734665
 24
6.6631709355
 34
0.0
  0
TEXT
  5
151
  8
0
  6
CONTINUOUS
 62
     7
 10
3.2261012351
 20
3.6138573045
 30
0.0
 40
0.094
  1
SECTION A-A
 41
0.7
 11
3.2261012351
 21
3.5806508587
 31
0.0
 73
     1
  0
POLYLINE
  5
152
  8
0
  6
CONTINUOUS
 62
     7
 66
     1
 10
0.0
 20
0.0
 30
0.0
 70
   128
  0
VERTEX
  5
186
  8
0
  6
CONTINUOUS
 62
     7
 10
4.3994932075
 20
2.2209498186
 30
0.0
  0
VERTEX
  5
187
  8
0
  6
CONTINUOUS
 62
     7
 10
4.3988443708
 20
2.2261780115
 30
0.0
  0
VERTEX
  5
188
  8
0
  6
CONTINUOUS
 62
     7
 10
4.392611634
 20
2.2578992888
 30
0.0
  0
VERTEX
  5
189
  8
0
  6
CONTINUOUS
 62
     7
 10
4.3841088369
 20
2.2894364273
 30
0.0
  0
VERTEX
  5
18A
  8
0
  6
CONTINUOUS
 62
     7
 10
4.3733475663
 20
2.3207384024
 30
0.0
  0
VERTEX
  5
18B
  8
0
  6
CONTINUOUS
 62
     7
 10
4.3603423627
 20
2.3517529088
 30
0.0
  0
VERTEX
  5
18C
  8
0
  6
CONTINUOUS
 62
     7
 10
4.3451115267
 20
2.3824261855
 30
0.0
  0
VERTEX
  5
18D
  8
0
  6
CONTINUOUS
 62
     7
 10
4.3276778492
 20
2.4127031949
 30
0.0
  0
VERTEX
  5
18E
  8
0
  6
CONTINUOUS
 62
     7
 10
4.3080691358
 20
2.4425280812
 30
0.0
  0
VERTEX
  5
18F
  8
0
  6
CONTINUOUS
 62
     7
 10
4.2863184613
 20
2.471844794
 30
0.0
  0
VERTEX
  5
190
  8
0
  6
CONTINUOUS
 62
     7
 10
4.2624641563
 20
2.5005977517
 30
0.0
  0
VERTEX
  5
191
  8
0
  6
CONTINUOUS
 62
     7
 10
4.2365495801
 20
2.5287324467
 30
0.0
  0
VERTEX
  5
192
  8
0
  6
CONTINUOUS
 62
     7
 10
4.2086227553
 20
2.5561959262
 30
0.0
  0
VERTEX
  5
193
  8
0
  6
CONTINUOUS
 62
     7
 10
4.1787359429
 20
2.5829371295
 30
0.0
  0
VERTEX
  5
194
  8
0
  6
CONTINUOUS
 62
     7
 10
4.1469452192
 20
2.6089070867
 30
0.0
  0
VERTEX
  5
195
  8
0
  6
CONTINUOUS
 62
     7
 10
4.1133100941
 20
2.6340590074
 30
0.0
  0
VERTEX
  5
196
  8
0
  6
CONTINUOUS
 62
     7
 10
4.0778931894
 20
2.6583482918
 30
0.0
  0
VERTEX
  5
197
  8
0
  6
CONTINUOUS
 62
     7
 10
4.0407599802
 20
2.681732495
 30
0.0
  0
VERTEX
  5
198
  8
0
  6
CONTINUOUS
 62
     7
 10
4.0019788646
 20
2.7041711204
 30
0.0
  0
VERTEX
  5
199
  8
0
  6
CONTINUOUS
 62
     7
 10
3.961620985
 20
2.725625632
 30
0.0
  0
VERTEX
  5
19A
  8
0
  6
CONTINUOUS
 62
     7
 10
3.9197591814
 20
2.7460598766
 30
0.0
  0
VERTEX
  5
19B
  8
0
  6
CONTINUOUS
 62
     7
 10
3.8764685555
 20
2.7654396151
 30
0.0
  0
VERTEX
  5
19C
  8
0
  6
CONTINUOUS
 62
     7
 10
3.8318263787
 20
2.783732505
 30
0.0
  0
VERTEX
  5
19D
  8
0
  6
CONTINUOUS
 62
     7
 10
3.7859120013
 20
2.8009080973
 30
0.0
  0
VERTEX
  5
19E
  8
0
  6
CONTINUOUS
 62
     7
 10
3.7388067585
 20
2.816937847
 30
0.0
  0
VERTEX
  5
19F
  8
0
  6
CONTINUOUS
 62
     7
 10
3.6905938699
 20
2.831795132
 30
0.0
  0
VERTEX
  5
1A0
  8
0
  6
CONTINUOUS
 62
     7
 10
3.6413583326
 20
2.8454552796
 30
0.0
  0
VERTEX
  5
1A1
  8
0
  6
CONTINUOUS
 62
     7
 10
3.591186805
 20
2.8578955975
 30
0.0
  0
VERTEX
  5
1A2
  8
0
  6
CONTINUOUS
 62
     7
 10
3.540167484
 20
2.8690954071
 30
0.0
  0
VERTEX
  5
1A3
  8
0
  6
CONTINUOUS
 62
     7
 10
3.4883899739
 20
2.8790360773
 30
0.0
  0
VERTEX
  5
1A4
  8
0
  6
CONTINUOUS
 62
     7
 10
3.4359451487
 20
2.8877010579
 30
0.0
  0
VERTEX
  5
1A5
  8
0
  6
CONTINUOUS
 62
     7
 10
3.3829250083
 20
2.8950759108
 30
0.0
  0
VERTEX
  5
1A6
  8
0
  6
CONTINUOUS
 62
     7
 10
3.3294225287
 20
2.9011483387
 30
0.0
  0
VERTEX
  5
1A7
  8
0
  6
CONTINUOUS
 62
     7
 10
3.2755315086
 20
2.9059082104
 30
0.0
  0
VERTEX
  5
1A8
  8
0
  6
CONTINUOUS
 62
     7
 10
3.2213464113
 20
2.9093475816
 30
0.0
  0
VERTEX
  5
1A9
  8
0
  6
CONTINUOUS
 62
     7
 10
3.1669622037
 20
2.911460712
 30
0.0
  0
VERTEX
  5
1AA
  8
0
  6
CONTINUOUS
 62
     7
 10
3.1124741934
 20
2.9122440778
 30
0.0
  0
VERTEX
  5
1AB
  8
0
  6
CONTINUOUS
 62
     7
 10
3.057977864
 20
2.9116963788
 30
0.0
  0
VERTEX
  5
1AC
  8
0
  6
CONTINUOUS
 62
     7
 10
3.003568828
 20
2.9098185466
 30
0.0
  0
VERTEX
  5
1AD
  8
0
  6
CONTINUOUS
 62
     7
 10
2.9493425908
 20
2.9066137518
 30
0.0
  0
VERTEX
  5
1AE
  8
0
  6
CONTINUOUS
 62
     7
 10
2.8953941615
 20
2.9020873811
 30
0.0
  0
VERTEX
  5
1AF
  8
0
  6
CONTINUOUS
 62
     7
 10
2.8418180595
 20
2.8962470243
 30
0.0
  0
VERTEX
  5
1B0
  8
0
  6
CONTINUOUS
 62
     7
 10
2.788708151
 20
2.8891024565
 30
0.0
  0
VERTEX
  5
1B1
  8
0
  6
CONTINUOUS
 62
     7
 10
2.7361574887
 20
2.8806656152
 30
0.0
  0
VERTEX
  5
1B2
  8
0
  6
CONTINUOUS
 62
     7
 10
2.684258154
 20
2.8709505729
 30
0.0
  0
VERTEX
  5
1B3
  8
0
  6
CONTINUOUS
 62
     7
 10
2.6331011032
 20
2.8599735054
 30
0.0
  0
VERTEX
  5
1B4
  8
0
  6
CONTINUOUS
 62
     7
 10
2.582776019
 20
2.8477526557
 30
0.0
  0
VERTEX
  5
1B5
  8
0
  6
CONTINUOUS
 62
     7
 10
2.5333711665
 20
2.8343082948
 30
0.0
  0
VERTEX
  5
1B6
  8
0
  6
CONTINUOUS
 62
     7
 10
2.4849732566
 20
2.8196626791
 30
0.0
  0
VERTEX
  5
1B7
  8
0
  6
CONTINUOUS
 62
     7
 10
2.4376673163
 20
2.8038400068
 30
0.0
  0
VERTEX
  5
1B8
  8
0
  6
CONTINUOUS
 62
     7
 10
2.3915365673
 20
2.7868663731
 30
0.0
  0
VERTEX
  5
1B9
  8
0
  6
CONTINUOUS
 62
     7
 10
2.3466623143
 20
2.7687697263
 30
0.0
  0
VERTEX
  5
1BA
  8
0
  6
CONTINUOUS
 62
     7
 10
2.3031238417
 20
2.7495798281
 30
0.0
  0
VERTEX
  5
1BB
  8
0
  6
CONTINUOUS
 62
     7
 10
2.2609983222
 20
2.7293282187
 30
0.0
  0
VERTEX
  5
1BC
  8
0
  6
CONTINUOUS
 62
     7
 10
2.2203607335
 20
2.7080481913
 30
0.0
  0
VERTEX
  5
1BD
  8
0
  6
CONTINUOUS
 62
     7
 10
2.1947620634
 20
2.6936715792
 30
0.0
  0
SEQEND
  5
6F4
  8
0
  6
CONTINUOUS
 62
     7
  0
POLYLINE
  5
153
  8
0
  6
CONTINUOUS
 62
     7
 66
     1
 10
0.0
 20
0.0
 30
0.0
 70
   128
  0
VERTEX
  5
1BE
  8
0
  6
CONTINUOUS
 62
     7
 10
2.1947620634
 20
2.6936715792
 30
0.0
  0
VERTEX
  5
1BF
  8
0
  6
CONTINUOUS
 62
     7
 10
2.1745238056
 20
2.6817248545
 30
0.0
  0
VERTEX
  5
1C0
  8
0
  6
CONTINUOUS
 62
     7
 10
2.1373772468
 20
2.6583312016
 30
0.0
  0
VERTEX
  5
1C1
  8
0
  6
CONTINUOUS
 62
     7
 10
2.1019382884
 20
2.634024594
 30
0.0
  0
VERTEX
  5
1C2
  8
0
  6
CONTINUOUS
 62
     7
 10
2.0682757649
 20
2.6088481193
 30
0.0
  0
VERTEX
  5
1C3
  8
0
  6
CONTINUOUS
 62
     7
 10
2.0364525037
 20
2.5828448185
 30
0.0
  0
VERTEX
  5
1C4
  8
0
  6
CONTINUOUS
 62
     7
 10
2.0065283608
 20
2.5560596386
 30
0.0
  0
VERTEX
  5
1C5
  8
0
  6
CONTINUOUS
 62
     7
 10
1.9785602918
 20
2.5285397209
 30
0.0
  0
VERTEX
  5
1C6
  8
0
  6
CONTINUOUS
 62
     7
 10
1.9526021106
 20
2.5003345215
 30
0.0
  0
VERTEX
  5
1C7
  8
0
  6
CONTINUOUS
 62
     7
 10
1.9287041688
 20
2.4714959017
 30
0.0
  0
VERTEX
  5
1C8
  8
0
  6
CONTINUOUS
 62
     7
 10
1.9069129561
 20
2.4420781503
 30
0.0
  0
VERTEX
  5
1C9
  8
0
  6
CONTINUOUS
 62
     7
 10
1.8872706303
 20
2.4121378918
 30
0.0
  0
VERTEX
  5
1CA
  8
0
  6
CONTINUOUS
 62
     7
 10
1.8698145126
 20
2.3817338355
 30
0.0
  0
VERTEX
  5
1CB
  8
0
  6
CONTINUOUS
 62
     7
 10
1.8545766109
 20
2.3509263315
 30
0.0
  0
VERTEX
  5
1CC
  8
0
  6
CONTINUOUS
 62
     7
 10
1.8415832524
 20
2.3197767306
 30
0.0
  0
VERTEX
  5
1CD
  8
0
  6
CONTINUOUS
 62
     7
 10
1.8308549222
 20
2.2883465895
 30
0.0
  0
VERTEX
  5
1CE
  8
0
  6
CONTINUOUS
 62
     7
 10
1.8224063821
 20
2.2566968121
 30
0.0
  0
VERTEX
  5
1CF
  8
0
  6
CONTINUOUS
 62
     7
 10
1.8162471022
 20
2.2248868616
 30
0.0
  0
VERTEX
  5
1D0
  8
0
  6
CONTINUOUS
 62
     7
 10
1.8161605668
 20
2.2241723777
 30
0.0
  0
SEQEND
  5
6F5
  8
0
  6
CONTINUOUS
 62
     7
  0
LINE
  5
154
  8
0
  6
CONTINUOUS
 62
     7
 10
4.4045232219
 20
2.0346852783
 30
0.0
 11
4.4045232219
 21
2.1551250481
 31
0.0
  0
LINE
  5
155
  8
0
  6
CONTINUOUS
 62
     7
 10
1.8107732219
 20
2.1551250481
 30
0.0
 11
1.8107732219
 21
2.0346852783
 31
0.0
  0
POLYLINE
  5
156
  8
0
  6
CONTINUOUS
 62
     7
 66
     1
 10
0.0
 20
0.0
 30
0.0
 70
   128
  0
VERTEX
  5
1D1
  8
0
  6
CONTINUOUS
 62
     7
 10
1.8165409786
 20
1.9647712554
 30
0.0
  0
VERTEX
  5
1D2
  8
0
  6
CONTINUOUS
 62
     7
 10
1.8198452644
 20
1.9449416185
 30
0.0
  0
VERTEX
  5
1D3
  8
0
  6
CONTINUOUS
 62
     7
 10
1.8274154293
 20
1.9133226066
 30
0.0
  0
VERTEX
  5
1D4
  8
0
  6
CONTINUOUS
 62
     7
 10
1.8372491474
 20
1.8819176343
 30
0.0
  0
VERTEX
  5
1D5
  8
0
  6
CONTINUOUS
 62
     7
 10
1.8493331897
 20
1.8507784379
 30
0.0
  0
VERTEX
  5
1D6
  8
0
  6
CONTINUOUS
 62
     7
 10
1.8636508988
 20
1.819958182
 30
0.0
  0
VERTEX
  5
1D7
  8
0
  6
CONTINUOUS
 62
     7
 10
1.8801814084
 20
1.7895114209
 30
0.0
  0
VERTEX
  5
1D8
  8
0
  6
CONTINUOUS
 62
     7
 10
1.8988990229
 20
1.7594937426
 30
0.0
  0
VERTEX
  5
1D9
  8
0
  6
CONTINUOUS
 62
     7
 10
1.9197728481
 20
1.7299611984
 30
0.0
  0
VERTEX
  5
1DA
  8
0
  6
CONTINUOUS
 62
     7
 10
1.9427666986
 20
1.7009696411
 30
0.0
  0
VERTEX
  5
1DB
  8
0
  6
CONTINUOUS
 62
     7
 10
1.9678392457
 20
1.6725740864
 30
0.0
  0
VERTEX
  5
1DC
  8
0
  6
CONTINUOUS
 62
     7
 10
1.9949443357
 20
1.6448281757
 30
0.0
  0
VERTEX
  5
1DD
  8
0
  6
CONTINUOUS
 62
     7
 10
2.0240313986
 20
1.6177837798
 30
0.0
  0
VERTEX
  5
1DE
  8
0
  6
CONTINUOUS
 62
     7
 10
2.0550458786
 20
1.591490745
 30
0.0
  0
VERTEX
  5
1DF
  8
0
  6
CONTINUOUS
 62
     7
 10
2.0879296357
 20
1.5659967632
 30
0.0
  0
VERTEX
  5
1E0
  8
0
  6
CONTINUOUS
 62
     7
 10
2.1226212936
 20
1.5413473332
 30
0.0
  0
VERTEX
  5
1E1
  8
0
  6
CONTINUOUS
 62
     7
 10
2.1590565236
 20
1.5175857802
 30
0.0
  0
VERTEX
  5
1E2
  8
0
  6
CONTINUOUS
 62
     7
 10
2.1971682688
 20
1.4947533064
 30
0.0
  0
VERTEX
  5
1E3
  8
0
  6
CONTINUOUS
 62
     7
 10
2.2368861634
 20
1.4728894486
 30
0.0
  0
VERTEX
  5
1E4
  8
0
  6
CONTINUOUS
 62
     7
 10
2.2781382272
 20
1.452031218
 30
0.0
  0
VERTEX
  5
1E5
  8
0
  6
CONTINUOUS
 62
     7
 10
2.3208502776
 20
1.4322136378
 30
0.0
  0
VERTEX
  5
1E6
  8
0
  6
CONTINUOUS
 62
     7
 10
2.3649459249
 20
1.4134698299
 30
0.0
  0
VERTEX
  5
1E7
  8
0
  6
CONTINUOUS
 62
     7
 10
2.4103466628
 20
1.3958310227
 30
0.0
  0
VERTEX
  5
1E8
  8
0
  6
CONTINUOUS
 62
     7
 10
2.456971961
 20
1.3793265464
 30
0.0
  0
VERTEX
  5
1E9
  8
0
  6
CONTINUOUS
 62
     7
 10
2.5047393625
 20
1.363983817
 30
0.0
  0
VERTEX
  5
1EA
  8
0
  6
CONTINUOUS
 62
     7
 10
2.5535645879
 20
1.3498283127
 30
0.0
  0
VERTEX
  5
1EB
  8
0
  6
CONTINUOUS
 62
     7
 10
2.603361648
 20
1.3368835445
 30
0.0
  0
VERTEX
  5
1EC
  8
0
  6
CONTINUOUS
 62
     7
 10
2.6540429632
 20
1.3251710235
 30
0.0
  0
VERTEX
  5
1ED
  8
0
  6
CONTINUOUS
 62
     7
 10
2.705519492
 20
1.3147102273
 30
0.0
  0
VERTEX
  5
1EE
  8
0
  6
CONTINUOUS
 62
     7
 10
2.7577008655
 20
1.3055185661
 30
0.0
  0
VERTEX
  5
1EF
  8
0
  6
CONTINUOUS
 62
     7
 10
2.8104955293
 20
1.2976113504
 30
0.0
  0
VERTEX
  5
1F0
  8
0
  6
CONTINUOUS
 62
     7
 10
2.8638108905
 20
1.2910017615
 30
0.0
  0
VERTEX
  5
1F1
  8
0
  6
CONTINUOUS
 62
     7
 10
2.91755347
 20
1.2857008246
 30
0.0
  0
VERTEX
  5
1F2
  8
0
  6
CONTINUOUS
 62
     7
 10
2.9716290587
 20
1.281717386
 30
0.0
  0
VERTEX
  5
1F3
  8
0
  6
CONTINUOUS
 62
     7
 10
3.025942877
 20
1.2790580944
 30
0.0
  0
VERTEX
  5
1F4
  8
0
  6
CONTINUOUS
 62
     7
 10
3.0803997378
 20
1.2777273866
 30
0.0
  0
VERTEX
  5
1F5
  8
0
  6
CONTINUOUS
 62
     7
 10
3.1349042097
 20
1.2777274783
 30
0.0
  0
VERTEX
  5
1F6
  8
0
  6
CONTINUOUS
 62
     7
 10
3.1893607835
 20
1.2790583592
 30
0.0
  0
VERTEX
  5
1F7
  8
0
  6
CONTINUOUS
 62
     7
 10
3.2436737484
 20
1.281717776
 30
0.0
  0
VERTEX
  5
1F8
  8
0
  6
CONTINUOUS
 62
     7
 10
3.2977479417
 20
1.2857012524
 30
0.0
  0
VERTEX
  5
1F9
  8
0
  6
CONTINUOUS
 62
     7
 10
3.3514886225
 20
1.2910021029
 30
0.0
  0
VERTEX
  5
1FA
  8
0
  6
CONTINUOUS
 62
     7
 10
3.4048016363
 20
1.2976114491
 30
0.0
  0
VERTEX
  5
1FB
  8
0
  6
CONTINUOUS
 62
     7
 10
3.4575935766
 20
1.30551824
 30
0.0
  0
VERTEX
  5
1FC
  8
0
  6
CONTINUOUS
 62
     7
 10
3.5097719434
 20
1.3147092778
 30
0.0
  0
VERTEX
  5
1FD
  8
0
  6
CONTINUOUS
 62
     7
 10
3.5612452994
 20
1.3251692478
 30
0.0
  0
VERTEX
  5
1FE
  8
0
  6
CONTINUOUS
 62
     7
 10
3.61192342
 20
1.336880753
 30
0.0
  0
VERTEX
  5
1FF
  8
0
  6
CONTINUOUS
 62
     7
 10
3.6617174402
 20
1.3498243516
 30
0.0
  0
VERTEX
  5
200
  8
0
  6
CONTINUOUS
 62
     7
 10
3.7105399933
 20
1.3639785987
 30
0.0
  0
VERTEX
  5
201
  8
0
  6
CONTINUOUS
 62
     7
 10
3.7583053447
 20
1.3793200896
 30
0.0
  0
VERTEX
  5
202
  8
0
  6
CONTINUOUS
 62
     7
 10
3.8049295156
 20
1.3958235041
 30
0.0
  0
VERTEX
  5
203
  8
0
  6
CONTINUOUS
 62
     7
 10
3.8503303999
 20
1.4134616513
 30
0.0
  0
VERTEX
  5
204
  8
0
  6
CONTINUOUS
 62
     7
 10
3.8944278702
 20
1.4322055107
 30
0.0
  0
VERTEX
  5
205
  8
0
  6
CONTINUOUS
 62
     7
 10
3.9371438745
 20
1.4520242702
 30
0.0
  0
VERTEX
  5
206
  8
0
  6
CONTINUOUS
 62
     7
 10
3.9784025227
 20
1.4728853555
 30
0.0
  0
VERTEX
  5
207
  8
0
  6
CONTINUOUS
 62
     7
 10
4.0181301638
 20
1.4947544484
 30
0.0
  0
VERTEX
  5
208
  8
0
  6
CONTINUOUS
 62
     7
 10
4.0562554551
 20
1.51759549
 30
0.0
  0
VERTEX
  5
209
  8
0
  6
CONTINUOUS
 62
     7
 10
4.0927094279
 20
1.5413706641
 30
0.0
  0
VERTEX
  5
20A
  8
0
  6
CONTINUOUS
 62
     7
 10
4.1274254634
 20
1.5660402901
 30
0.0
  0
VERTEX
  5
20B
  8
0
  6
CONTINUOUS
 62
     7
 10
4.1603387496
 20
1.5915622229
 30
0.0
  0
VERTEX
  5
20C
  8
0
  6
CONTINUOUS
 62
     7
 10
4.1913878108
 20
1.6178927484
 30
0.0
  0
VERTEX
  5
20D
  8
0
  6
CONTINUOUS
 62
     7
 10
4.2205139591
 20
1.6449860322
 30
0.0
  0
VERTEX
  5
20E
  8
0
  6
CONTINUOUS
 62
     7
 10
4.2476614979
 20
1.6727939943
 30
0.0
  0
VERTEX
  5
20F
  8
0
  6
CONTINUOUS
 62
     7
 10
4.2727779945
 20
1.7012661971
 30
0.0
  0
VERTEX
  5
210
  8
0
  6
CONTINUOUS
 62
     7
 10
4.295814633
 20
1.7303497781
 30
0.0
  0
VERTEX
  5
211
  8
0
  6
CONTINUOUS
 62
     7
 10
4.316726646
 20
1.7599894682
 30
0.0
  0
VERTEX
  5
212
  8
0
  6
CONTINUOUS
 62
     7
 10
4.3354738042
 20
1.7901277444
 30
0.0
  0
VERTEX
  5
213
  8
0
  6
CONTINUOUS
 62
     7
 10
4.3520209185
 20
1.8207051572
 30
0.0
  0
VERTEX
  5
214
  8
0
  6
CONTINUOUS
 62
     7
 10
4.3663382835
 20
1.8516608569
 30
0.0
  0
VERTEX
  5
215
  8
0
  6
CONTINUOUS
 62
     7
 10
4.3784019702
 20
1.8829333055
 30
0.0
  0
VERTEX
  5
216
  8
0
  6
CONTINUOUS
 62
     7
 10
4.3881938804
 20
1.9144611117
 30
0.0
  0
VERTEX
  5
217
  8
0
  6
CONTINUOUS
 62
     7
 10
4.3957014988
 20
1.946183878
 30
0.0
  0
VERTEX
  5
218
  8
0
  6
CONTINUOUS
 62
     7
 10
4.3994216232
 20
1.9689068854
 30
0.0
  0
SEQEND
  5
6F6
  8
0
  6
CONTINUOUS
 62
     7
  0
POLYLINE
  5
157
  8
0
  6
CONTINUOUS
 62
     7
 66
     1
 10
0.0
 20
0.0
 30
0.0
 70
   128
  0
VERTEX
  5
219
  8
0
  6
CONTINUOUS
 62
     7
 10
3.8547205566
 20
2.1180005898
 30
0.0
  0
VERTEX
  5
21A
  8
0
  6
CONTINUOUS
 62
     7
 10
3.8546978145
 20
2.1177916421
 30
0.0
  0
VERTEX
  5
21B
  8
0
  6
CONTINUOUS
 62
     7
 10
3.8498793123
 20
2.0946301818
 30
0.0
  0
VERTEX
  5
21C
  8
0
  6
CONTINUOUS
 62
     7
 10
3.8427959999
 20
2.0716577612
 30
0.0
  0
VERTEX
  5
21D
  8
0
  6
CONTINUOUS
 62
     7
 10
3.8334815983
 20
2.0489541424
 30
0.0
  0
VERTEX
  5
21E
  8
0
  6
CONTINUOUS
 62
     7
 10
3.8219765637
 20
2.0265891016
 30
0.0
  0
VERTEX
  5
21F
  8
0
  6
CONTINUOUS
 62
     7
 10
3.8083242218
 20
2.0046243124
 30
0.0
  0
VERTEX
  5
220
  8
0
  6
CONTINUOUS
 62
     7
 10
3.7925692015
 20
1.9831167246
 30
0.0
  0
VERTEX
  5
221
  8
0
  6
CONTINUOUS
 62
     7
 10
3.774757735
 20
1.9621216212
 30
0.0
  0
VERTEX
  5
222
  8
0
  6
CONTINUOUS
 62
     7
 10
3.7549388983
 20
1.9416945448
 30
0.0
  0
VERTEX
  5
223
  8
0
  6
CONTINUOUS
 62
     7
 10
3.7331660236
 20
1.9218920672
 30
0.0
  0
VERTEX
  5
224
  8
0
  6
CONTINUOUS
 62
     7
 10
3.7094978536
 20
1.9027717262
 30
0.0
  0
VERTEX
  5
225
  8
0
  6
CONTINUOUS
 62
     7
 10
3.6839992919
 20
1.8843914885
 30
0.0
  0
VERTEX
  5
226
  8
0
  6
CONTINUOUS
 62
     7
 10
3.6567417595
 20
1.8668090172
 30
0.0
  0
VERTEX
  5
227
  8
0
  6
CONTINUOUS
 62
     7
 10
3.6278038719
 20
1.8500812638
 30
0.0
  0
VERTEX
  5
228
  8
0
  6
CONTINUOUS
 62
     7
 10
3.5972710335
 20
1.8342634897
 30
0.0
  0
VERTEX
  5
229
  8
0
  6
CONTINUOUS
 62
     7
 10
3.5652332498
 20
1.8194077919
 30
0.0
  0
VERTEX
  5
22A
  8
0
  6
CONTINUOUS
 62
     7
 10
3.5317861881
 20
1.8055635872
 30
0.0
  0
VERTEX
  5
22B
  8
0
  6
CONTINUOUS
 62
     7
 10
3.4970307371
 20
1.7927772114
 30
0.0
  0
VERTEX
  5
22C
  8
0
  6
CONTINUOUS
 62
     7
 10
3.46107254
 20
1.7810916035
 30
0.0
  0
VERTEX
  5
22D
  8
0
  6
CONTINUOUS
 62
     7
 10
3.4240215218
 20
1.7705460627
 30
0.0
  0
VERTEX
  5
22E
  8
0
  6
CONTINUOUS
 62
     7
 10
3.3859914201
 20
1.76117606
 30
0.0
  0
VERTEX
  5
22F
  8
0
  6
CONTINUOUS
 62
     7
 10
3.3470993248
 20
1.7530130944
 30
0.0
  0
VERTEX
  5
230
  8
0
  6
CONTINUOUS
 62
     7
 10
3.3074652294
 20
1.7460845825
 30
0.0
  0
VERTEX
  5
231
  8
0
  6
CONTINUOUS
 62
     7
 10
3.2672115917
 20
1.7404137737
 30
0.0
  0
VERTEX
  5
232
  8
0
  6
CONTINUOUS
 62
     7
 10
3.226462905
 20
1.7360196866
 30
0.0
  0
VERTEX
  5
233
  8
0
  6
CONTINUOUS
 62
     7
 10
3.1853452768
 20
1.7329170598
 30
0.0
  0
VERTEX
  5
234
  8
0
  6
CONTINUOUS
 62
     7
 10
3.1439860134
 20
1.7311163175
 30
0.0
  0
VERTEX
  5
235
  8
0
  6
CONTINUOUS
 62
     7
 10
3.1025132103
 20
1.7306235449
 30
0.0
  0
VERTEX
  5
236
  8
0
  6
CONTINUOUS
 62
     7
 10
3.0610553458
 20
1.7314404735
 30
0.0
  0
VERTEX
  5
237
  8
0
  6
CONTINUOUS
 62
     7
 10
3.0197412696
 20
1.7335644494
 30
0.0
  0
VERTEX
  5
238
  8
0
  6
CONTINUOUS
 62
     7
 10
2.978699241
 20
1.7369884273
 30
0.0
  0
VERTEX
  5
239
  8
0
  6
CONTINUOUS
 62
     7
 10
2.9380564443
 20
1.7417010171
 30
0.0
  0
VERTEX
  5
23A
  8
0
  6
CONTINUOUS
 62
     7
 10
2.8979388239
 20
1.7476865012
 30
0.0
  0
VERTEX
  5
23B
  8
0
  6
CONTINUOUS
 62
     7
 10
2.8584706802
 20
1.7549248615
 30
0.0
  0
VERTEX
  5
23C
  8
0
  6
CONTINUOUS
 62
     7
 10
2.8197742615
 20
1.7633918154
 30
0.0
  0
VERTEX
  5
23D
  8
0
  6
CONTINUOUS
 62
     7
 10
2.7819693498
 20
1.773058862
 30
0.0
  0
VERTEX
  5
23E
  8
0
  6
CONTINUOUS
 62
     7
 10
2.7451728405
 20
1.7838933415
 30
0.0
  0
VERTEX
  5
23F
  8
0
  6
CONTINUOUS
 62
     7
 10
2.7094983116
 20
1.7958585108
 30
0.0
  0
VERTEX
  5
240
  8
0
  6
CONTINUOUS
 62
     7
 10
2.6750555802
 20
1.8089136403
 30
0.0
  0
VERTEX
  5
241
  8
0
  6
CONTINUOUS
 62
     7
 10
2.6419502454
 20
1.8230141411
 30
0.0
  0
VERTEX
  5
242
  8
0
  6
CONTINUOUS
 62
     7
 10
2.6102832147
 20
1.8381117307
 30
0.0
  0
VERTEX
  5
243
  8
0
  6
CONTINUOUS
 62
     7
 10
2.580150215
 20
1.8541546545
 30
0.0
  0
VERTEX
  5
244
  8
0
  6
CONTINUOUS
 62
     7
 10
2.5516412948
 20
1.8710879806
 30
0.0
  0
VERTEX
  5
245
  8
0
  6
CONTINUOUS
 62
     7
 10
2.5248403261
 20
1.8888539922
 30
0.0
  0
VERTEX
  5
246
  8
0
  6
CONTINUOUS
 62
     7
 10
2.4998245323
 20
1.9073927058
 30
0.0
  0
VERTEX
  5
247
  8
0
  6
CONTINUOUS
 62
     7
 10
2.4766658048
 20
1.9266410201
 30
0.0
  0
VERTEX
  5
248
  8
0
  6
CONTINUOUS
 62
     7
 10
2.4554272535
 20
1.946535721
 30
0.0
  0
VERTEX
  5
249
  8
0
  6
CONTINUOUS
 62
     7
 10
2.4361642581
 20
1.9670138036
 30
0.0
  0
VERTEX
  5
24A
  8
0
  6
CONTINUOUS
 62
     7
 10
2.4189247491
 20
1.9880135751
 30
0.0
  0
VERTEX
  5
24B
  8
0
  6
CONTINUOUS
 62
     7
 10
2.4037497932
 20
2.0094759133
 30
0.0
  0
VERTEX
  5
24C
  8
0
  6
CONTINUOUS
 62
     7
 10
2.3906747309
 20
2.031345363
 30
0.0
  0
VERTEX
  5
24D
  8
0
  6
CONTINUOUS
 62
     7
 10
2.3797308986
 20
2.0535706902
 30
0.0
  0
VERTEX
  5
24E
  8
0
  6
CONTINUOUS
 62
     7
 10
2.3709477491
 20
2.0761043596
 30
0.0
  0
VERTEX
  5
24F
  8
0
  6
CONTINUOUS
 62
     7
 10
2.3643548365
 20
2.0989003827
 30
0.0
  0
VERTEX
  5
250
  8
0
  6
CONTINUOUS
 62
     7
 10
2.3599827065
 20
2.1219103156
 30
0.0
  0
VERTEX
  5
251
  8
0
  6
CONTINUOUS
 62
     7
 10
2.3598545116
 20
2.1233104938
 30
0.0
  0
SEQEND
  5
6F7
  8
0
  6
CONTINUOUS
 62
     7
  0
POLYLINE
  5
158
  8
0
  6
CONTINUOUS
 62
     7
 66
     1
 10
0.0
 20
0.0
 30
0.0
 70
   128
  0
VERTEX
  5
252
  8
0
  6
CONTINUOUS
 62
     7
 10
2.3654442567
 20
2.0951335426
 30
0.0
  0
VERTEX
  5
253
  8
0
  6
CONTINUOUS
 62
     7
 10
2.3721986808
 20
2.1173077625
 30
0.0
  0
VERTEX
  5
254
  8
0
  6
CONTINUOUS
 62
     7
 10
2.3814313079
 20
2.1400226179
 30
0.0
  0
VERTEX
  5
255
  8
0
  6
CONTINUOUS
 62
     7
 10
2.3928561313
 20
2.1624013114
 30
0.0
  0
VERTEX
  5
256
  8
0
  6
CONTINUOUS
 62
     7
 10
2.4064298898
 20
2.1843819272
 30
0.0
  0
VERTEX
  5
257
  8
0
  6
CONTINUOUS
 62
     7
 10
2.4221079988
 20
2.2059074014
 30
0.0
  0
VERTEX
  5
258
  8
0
  6
CONTINUOUS
 62
     7
 10
2.4398443047
 20
2.226922431
 30
0.0
  0
VERTEX
  5
259
  8
0
  6
CONTINUOUS
 62
     7
 10
2.4595898623
 20
2.2473715034
 30
0.0
  0
VERTEX
  5
25A
  8
0
  6
CONTINUOUS
 62
     7
 10
2.4812915196
 20
2.2671980873
 30
0.0
  0
VERTEX
  5
25B
  8
0
  6
CONTINUOUS
 62
     7
 10
2.5048907497
 20
2.2863446732
 30
0.0
  0
VERTEX
  5
25C
  8
0
  6
CONTINUOUS
 62
     7
 10
2.5303228855
 20
2.3047532978
 30
0.0
  0
VERTEX
  5
25D
  8
0
  6
CONTINUOUS
 62
     7
 10
2.5575167491
 20
2.322366273
 30
0.0
  0
VERTEX
  5
25E
  8
0
  6
CONTINUOUS
 62
     7
 10
2.5731751877
 20
2.3316814241
 30
0.0
  0
VERTEX
  5
25F
  8
0
  6
CONTINUOUS
 62
     7
 10
2.5885978062
 20
2.340332712
 30
0.0
  0
VERTEX
  5
260
  8
0
  6
CONTINUOUS
 62
     7
 10
2.6191836978
 20
2.3561135248
 30
0.0
  0
VERTEX
  5
261
  8
0
  6
CONTINUOUS
 62
     7
 10
2.6512753209
 20
2.3709326868
 30
0.0
  0
VERTEX
  5
262
  8
0
  6
CONTINUOUS
 62
     7
 10
2.6847725833
 20
2.3847385861
 30
0.0
  0
VERTEX
  5
263
  8
0
  6
CONTINUOUS
 62
     7
 10
2.719574411
 20
2.3974850069
 30
0.0
  0
VERTEX
  5
264
  8
0
  6
CONTINUOUS
 62
     7
 10
2.7555749939
 20
2.4091291405
 30
0.0
  0
VERTEX
  5
265
  8
0
  6
CONTINUOUS
 62
     7
 10
2.7926642577
 20
2.4196318266
 30
0.0
  0
VERTEX
  5
266
  8
0
  6
CONTINUOUS
 62
     7
 10
2.8307283329
 20
2.4289577384
 30
0.0
  0
VERTEX
  5
267
  8
0
  6
CONTINUOUS
 62
     7
 10
2.8696500142
 20
2.4370755263
 30
0.0
  0
VERTEX
  5
268
  8
0
  6
CONTINUOUS
 62
     7
 10
2.9093092093
 20
2.4439579263
 30
0.0
  0
VERTEX
  5
269
  8
0
  6
CONTINUOUS
 62
     7
 10
2.9495833776
 20
2.4495818443
 30
0.0
  0
VERTEX
  5
26A
  8
0
  6
CONTINUOUS
 62
     7
 10
2.9903479584
 20
2.4539284192
 30
0.0
  0
VERTEX
  5
26B
  8
0
  6
CONTINUOUS
 62
     7
 10
3.0314767929
 20
2.4569830715
 30
0.0
  0
VERTEX
  5
26C
  8
0
  6
CONTINUOUS
 62
     7
 10
3.0728425381
 20
2.4587355369
 30
0.0
  0
VERTEX
  5
26D
  8
0
  6
CONTINUOUS
 62
     7
 10
3.1143170773
 20
2.4591798911
 30
0.0
  0
VERTEX
  5
26E
  8
0
  6
CONTINUOUS
 62
     7
 10
3.1557719256
 20
2.4583145635
 30
0.0
  0
VERTEX
  5
26F
  8
0
  6
CONTINUOUS
 62
     7
 10
3.1970782188
 20
2.4561423714
 30
0.0
  0
VERTEX
  5
270
  8
0
  6
CONTINUOUS
 62
     7
 10
3.2381077447
 20
2.4526705211
 30
0.0
  0
VERTEX
  5
271
  8
0
  6
CONTINUOUS
 62
     7
 10
3.2787333577
 20
2.4479105632
 30
0.0
  0
VERTEX
  5
272
  8
0
  6
CONTINUOUS
 62
     7
 10
3.318829167
 20
2.4418783748
 30
0.0
  0
VERTEX
  5
273
  8
0
  6
CONTINUOUS
 62
     7
 10
3.3582709406
 20
2.4345941322
 30
0.0
  0
VERTEX
  5
274
  8
0
  6
CONTINUOUS
 62
     7
 10
3.3969365144
 20
2.426082275
 30
0.0
  0
VERTEX
  5
275
  8
0
  6
CONTINUOUS
 62
     7
 10
3.4347062051
 20
2.416371459
 30
0.0
  0
VERTEX
  5
276
  8
0
  6
CONTINUOUS
 62
     7
 10
3.4714632324
 20
2.4054944964
 30
0.0
  0
VERTEX
  5
277
  8
0
  6
CONTINUOUS
 62
     7
 10
3.5070941496
 20
2.3934882796
 30
0.0
  0
VERTEX
  5
278
  8
0
  6
CONTINUOUS
 62
     7
 10
3.5414892869
 20
2.3803936832
 30
0.0
  0
VERTEX
  5
279
  8
0
  6
CONTINUOUS
 62
     7
 10
3.5745432104
 20
2.3662554362
 30
0.0
  0
VERTEX
  5
27A
  8
0
  6
CONTINUOUS
 62
     7
 10
3.6061551954
 20
2.3511219535
 30
0.0
  0
VERTEX
  5
27B
  8
0
  6
CONTINUOUS
 62
     7
 10
3.6362297157
 20
2.3350451132
 30
0.0
  0
VERTEX
  5
27C
  8
0
  6
CONTINUOUS
 62
     7
 10
3.6646769428
 20
2.3180799577
 30
0.0
  0
VERTEX
  5
27D
  8
0
  6
CONTINUOUS
 62
     7
 10
3.6914132421
 20
2.3002842976
 30
0.0
  0
VERTEX
  5
27E
  8
0
  6
CONTINUOUS
 62
     7
 10
3.7163616443
 20
2.2817181885
 30
0.0
  0
VERTEX
  5
27F
  8
0
  6
CONTINUOUS
 62
     7
 10
3.7394504509
 20
2.2624448487
 30
0.0
  0
VERTEX
  5
280
  8
0
  6
CONTINUOUS
 62
     7
 10
3.7606168983
 20
2.2425274607
 30
0.0
  0
VERTEX
  5
281
  8
0
  6
CONTINUOUS
 62
     7
 10
3.7798058871
 20
2.2220290033
 30
0.0
  0
VERTEX
  5
282
  8
0
  6
CONTINUOUS
 62
     7
 10
3.796969754
 20
2.2010110961
 30
0.0
  0
VERTEX
  5
283
  8
0
  6
CONTINUOUS
 62
     7
 10
3.8120676683
 20
2.1795327435
 30
0.0
  0
VERTEX
  5
284
  8
0
  6
CONTINUOUS
 62
     7
 10
3.8250644712
 20
2.1576492498
 30
0.0
  0
VERTEX
  5
285
  8
0
  6
CONTINUOUS
 62
     7
 10
3.8359289353
 20
2.1354116941
 30
0.0
  0
VERTEX
  5
286
  8
0
  6
CONTINUOUS
 62
     7
 10
3.8446316358
 20
2.112867505
 30
0.0
  0
VERTEX
  5
287
  8
0
  6
CONTINUOUS
 62
     7
 10
3.8498583042
 20
2.0945620491
 30
0.0
  0
SEQEND
  5
6F8
  8
0
  6
CONTINUOUS
 62
     7
  0
LINE
  5
159
  8
0
  6
CONTINUOUS
 62
     7
 10
4.3845232219
 20
1.8468808916
 30
0.0
 11
4.3845232219
 21
1.9026423953
 31
0.0
  0
LINE
  5
15A
  8
0
  6
CONTINUOUS
 62
     7
 10
1.8307732219
 20
1.9025991565
 30
0.0
 11
1.8307732219
 21
1.8468808916
 31
0.0
  0
LINE
  5
15B
  8
0
  6
CONTINUOUS
 62
     7
 10
2.2046145419
 20
1.3257400446
 30
0.0
 11
2.2187589755
 21
1.3175719827
 31
0.0
  0
LINE
  5
15C
  8
0
  6
CONTINUOUS
 62
     7
 10
3.9965374684
 20
1.3175719827
 30
0.0
 11
4.0106819019
 21
1.3257400446
 31
0.0
  0
ARC
  5
15D
  8
0
  6
CONTINUOUS
 62
     7
 10
4.0904617042
 20
1.8258751437
 30
0.0
 40
0.3113393478741556
 50
6.9805966376
 51
16.7955329845
  0
ARC
  5
15E
  8
0
  6
CONTINUOUS
 62
     7
 10
2.122200024
 20
1.8261074979
 30
0.0
 40
0.3087508662063536
 50
163.091275944
 51
172.4011233852
  0
LINE
  5
15F
  8
0
  6
CONTINUOUS
 62
     7
 10
4.4045232219
 20
1.6774486731
 30
0.0
 11
4.4045232219
 21
1.7978884429
 31
0.0
  0
LINE
  5
160
  8
0
  6
CONTINUOUS
 62
     7
 10
1.8107732219
 20
1.7978884429
 30
0.0
 11
1.8107732219
 21
1.6774486731
 31
0.0
  0
POLYLINE
  5
161
  8
0
  6
CONTINUOUS
 62
     7
 66
     1
 10
0.0
 20
0.0
 30
0.0
 70
   128
  0
VERTEX
  5
288
  8
0
  6
CONTINUOUS
 62
     7
 10
1.8165409786
 20
1.6075346502
 30
0.0
  0
VERTEX
  5
289
  8
0
  6
CONTINUOUS
 62
     7
 10
1.8198452644
 20
1.5877050133
 30
0.0
  0
VERTEX
  5
28A
  8
0
  6
CONTINUOUS
 62
     7
 10
1.8274154293
 20
1.5560860014
 30
0.0
  0
VERTEX
  5
28B
  8
0
  6
CONTINUOUS
 62
     7
 10
1.8372491474
 20
1.5246810291
 30
0.0
  0
VERTEX
  5
28C
  8
0
  6
CONTINUOUS
 62
     7
 10
1.8493331897
 20
1.4935418327
 30
0.0
  0
VERTEX
  5
28D
  8
0
  6
CONTINUOUS
 62
     7
 10
1.8636508988
 20
1.4627215768
 30
0.0
  0
VERTEX
  5
28E
  8
0
  6
CONTINUOUS
 62
     7
 10
1.8801814084
 20
1.4322748157
 30
0.0
  0
VERTEX
  5
28F
  8
0
  6
CONTINUOUS
 62
     7
 10
1.8988990229
 20
1.4022571374
 30
0.0
  0
VERTEX
  5
290
  8
0
  6
CONTINUOUS
 62
     7
 10
1.9197728481
 20
1.3727245932
 30
0.0
  0
VERTEX
  5
291
  8
0
  6
CONTINUOUS
 62
     7
 10
1.9427666986
 20
1.3437330359
 30
0.0
  0
VERTEX
  5
292
  8
0
  6
CONTINUOUS
 62
     7
 10
1.9678392457
 20
1.3153374812
 30
0.0
  0
VERTEX
  5
293
  8
0
  6
CONTINUOUS
 62
     7
 10
1.9949443357
 20
1.2875915705
 30
0.0
  0
VERTEX
  5
294
  8
0
  6
CONTINUOUS
 62
     7
 10
2.0240313986
 20
1.2605471746
 30
0.0
  0
VERTEX
  5
295
  8
0
  6
CONTINUOUS
 62
     7
 10
2.0550458786
 20
1.2342541398
 30
0.0
  0
VERTEX
  5
296
  8
0
  6
CONTINUOUS
 62
     7
 10
2.0879296357
 20
1.208760158
 30
0.0
  0
VERTEX
  5
297
  8
0
  6
CONTINUOUS
 62
     7
 10
2.1226212936
 20
1.184110728
 30
0.0
  0
VERTEX
  5
298
  8
0
  6
CONTINUOUS
 62
     7
 10
2.1590565236
 20
1.160349175
 30
0.0
  0
VERTEX
  5
299
  8
0
  6
CONTINUOUS
 62
     7
 10
2.1971682688
 20
1.1375167012
 30
0.0
  0
VERTEX
  5
29A
  8
0
  6
CONTINUOUS
 62
     7
 10
2.2368861634
 20
1.1156528434
 30
0.0
  0
VERTEX
  5
29B
  8
0
  6
CONTINUOUS
 62
     7
 10
2.2781382272
 20
1.0947946128
 30
0.0
  0
VERTEX
  5
29C
  8
0
  6
CONTINUOUS
 62
     7
 10
2.3208502776
 20
1.0749770326
 30
0.0
  0
VERTEX
  5
29D
  8
0
  6
CONTINUOUS
 62
     7
 10
2.3649459249
 20
1.0562332247
 30
0.0
  0
VERTEX
  5
29E
  8
0
  6
CONTINUOUS
 62
     7
 10
2.4103466628
 20
1.0385944175
 30
0.0
  0
VERTEX
  5
29F
  8
0
  6
CONTINUOUS
 62
     7
 10
2.456971961
 20
1.0220899412
 30
0.0
  0
VERTEX
  5
2A0
  8
0
  6
CONTINUOUS
 62
     7
 10
2.5047393625
 20
1.0067472118
 30
0.0
  0
VERTEX
  5
2A1
  8
0
  6
CONTINUOUS
 62
     7
 10
2.5535645879
 20
0.9925917075
 30
0.0
  0
VERTEX
  5
2A2
  8
0
  6
CONTINUOUS
 62
     7
 10
2.603361648
 20
0.9796469393
 30
0.0
  0
VERTEX
  5
2A3
  8
0
  6
CONTINUOUS
 62
     7
 10
2.6540429632
 20
0.9679344183
 30
0.0
  0
VERTEX
  5
2A4
  8
0
  6
CONTINUOUS
 62
     7
 10
2.705519492
 20
0.9574736221
 30
0.0
  0
VERTEX
  5
2A5
  8
0
  6
CONTINUOUS
 62
     7
 10
2.7577008655
 20
0.9482819609
 30
0.0
  0
VERTEX
  5
2A6
  8
0
  6
CONTINUOUS
 62
     7
 10
2.8104955293
 20
0.9403747452
 30
0.0
  0
VERTEX
  5
2A7
  8
0
  6
CONTINUOUS
 62
     7
 10
2.8638108905
 20
0.9337651563
 30
0.0
  0
VERTEX
  5
2A8
  8
0
  6
CONTINUOUS
 62
     7
 10
2.91755347
 20
0.9284642194
 30
0.0
  0
VERTEX
  5
2A9
  8
0
  6
CONTINUOUS
 62
     7
 10
2.9716290587
 20
0.9244807808
 30
0.0
  0
VERTEX
  5
2AA
  8
0
  6
CONTINUOUS
 62
     7
 10
3.025942877
 20
0.9218214892
 30
0.0
  0
VERTEX
  5
2AB
  8
0
  6
CONTINUOUS
 62
     7
 10
3.0803997378
 20
0.9204907814
 30
0.0
  0
VERTEX
  5
2AC
  8
0
  6
CONTINUOUS
 62
     7
 10
3.1349042097
 20
0.9204908731
 30
0.0
  0
VERTEX
  5
2AD
  8
0
  6
CONTINUOUS
 62
     7
 10
3.1893607835
 20
0.921821754
 30
0.0
  0
VERTEX
  5
2AE
  8
0
  6
CONTINUOUS
 62
     7
 10
3.2436737484
 20
0.9244811708
 30
0.0
  0
VERTEX
  5
2AF
  8
0
  6
CONTINUOUS
 62
     7
 10
3.2977479417
 20
0.9284646472
 30
0.0
  0
VERTEX
  5
2B0
  8
0
  6
CONTINUOUS
 62
     7
 10
3.3514886225
 20
0.9337654977
 30
0.0
  0
VERTEX
  5
2B1
  8
0
  6
CONTINUOUS
 62
     7
 10
3.4048016363
 20
0.9403748439
 30
0.0
  0
VERTEX
  5
2B2
  8
0
  6
CONTINUOUS
 62
     7
 10
3.4575935766
 20
0.9482816348
 30
0.0
  0
VERTEX
  5
2B3
  8
0
  6
CONTINUOUS
 62
     7
 10
3.5097719434
 20
0.9574726726
 30
0.0
  0
VERTEX
  5
2B4
  8
0
  6
CONTINUOUS
 62
     7
 10
3.5612452994
 20
0.9679326426
 30
0.0
  0
VERTEX
  5
2B5
  8
0
  6
CONTINUOUS
 62
     7
 10
3.61192342
 20
0.9796441478
 30
0.0
  0
VERTEX
  5
2B6
  8
0
  6
CONTINUOUS
 62
     7
 10
3.6617174402
 20
0.9925877464
 30
0.0
  0
VERTEX
  5
2B7
  8
0
  6
CONTINUOUS
 62
     7
 10
3.7105399933
 20
1.0067419935
 30
0.0
  0
VERTEX
  5
2B8
  8
0
  6
CONTINUOUS
 62
     7
 10
3.7583053447
 20
1.0220834844
 30
0.0
  0
VERTEX
  5
2B9
  8
0
  6
CONTINUOUS
 62
     7
 10
3.8049295156
 20
1.0385868989
 30
0.0
  0
VERTEX
  5
2BA
  8
0
  6
CONTINUOUS
 62
     7
 10
3.8503303999
 20
1.0562250461
 30
0.0
  0
VERTEX
  5
2BB
  8
0
  6
CONTINUOUS
 62
     7
 10
3.8944278702
 20
1.0749689055
 30
0.0
  0
VERTEX
  5
2BC
  8
0
  6
CONTINUOUS
 62
     7
 10
3.9371438745
 20
1.094787665
 30
0.0
  0
VERTEX
  5
2BD
  8
0
  6
CONTINUOUS
 62
     7
 10
3.9784025227
 20
1.1156487503
 30
0.0
  0
VERTEX
  5
2BE
  8
0
  6
CONTINUOUS
 62
     7
 10
4.0181301638
 20
1.1375178432
 30
0.0
  0
VERTEX
  5
2BF
  8
0
  6
CONTINUOUS
 62
     7
 10
4.0562554551
 20
1.1603588848
 30
0.0
  0
VERTEX
  5
2C0
  8
0
  6
CONTINUOUS
 62
     7
 10
4.0927094279
 20
1.1841340589
 30
0.0
  0
VERTEX
  5
2C1
  8
0
  6
CONTINUOUS
 62
     7
 10
4.1274254634
 20
1.2088036849
 30
0.0
  0
VERTEX
  5
2C2
  8
0
  6
CONTINUOUS
 62
     7
 10
4.1603387496
 20
1.2343256177
 30
0.0
  0
VERTEX
  5
2C3
  8
0
  6
CONTINUOUS
 62
     7
 10
4.1913878108
 20
1.2606561432
 30
0.0
  0
VERTEX
  5
2C4
  8
0
  6
CONTINUOUS
 62
     7
 10
4.2205139591
 20
1.287749427
 30
0.0
  0
VERTEX
  5
2C5
  8
0
  6
CONTINUOUS
 62
     7
 10
4.2476614979
 20
1.3155573891
 30
0.0
  0
VERTEX
  5
2C6
  8
0
  6
CONTINUOUS
 62
     7
 10
4.2727779945
 20
1.3440295919
 30
0.0
  0
VERTEX
  5
2C7
  8
0
  6
CONTINUOUS
 62
     7
 10
4.295814633
 20
1.3731131729
 30
0.0
  0
VERTEX
  5
2C8
  8
0
  6
CONTINUOUS
 62
     7
 10
4.316726646
 20
1.402752863
 30
0.0
  0
VERTEX
  5
2C9
  8
0
  6
CONTINUOUS
 62
     7
 10
4.3354738042
 20
1.4328911392
 30
0.0
  0
VERTEX
  5
2CA
  8
0
  6
CONTINUOUS
 62
     7
 10
4.3520209185
 20
1.463468552
 30
0.0
  0
VERTEX
  5
2CB
  8
0
  6
CONTINUOUS
 62
     7
 10
4.3663382835
 20
1.4944242517
 30
0.0
  0
VERTEX
  5
2CC
  8
0
  6
CONTINUOUS
 62
     7
 10
4.3784019702
 20
1.5256967003
 30
0.0
  0
VERTEX
  5
2CD
  8
0
  6
CONTINUOUS
 62
     7
 10
4.3881938804
 20
1.5572245065
 30
0.0
  0
VERTEX
  5
2CE
  8
0
  6
CONTINUOUS
 62
     7
 10
4.3957014988
 20
1.5889472728
 30
0.0
  0
VERTEX
  5
2CF
  8
0
  6
CONTINUOUS
 62
     7
 10
4.3994216232
 20
1.6116702802
 30
0.0
  0
SEQEND
  5
6F9
  8
0
  6
CONTINUOUS
 62
     7
  0
POLYLINE
  5
162
  8
0
  6
CONTINUOUS
 62
     7
 66
     1
 10
0.0
 20
0.0
 30
0.0
 70
   128
  0
VERTEX
  5
2D0
  8
0
  6
CONTINUOUS
 62
     7
 10
2.4891059023
 20
1.9163014665
 30
0.0
  0
VERTEX
  5
2D1
  8
0
  6
CONTINUOUS
 62
     7
 10
2.5048907497
 20
1.929108068
 30
0.0
  0
VERTEX
  5
2D2
  8
0
  6
CONTINUOUS
 62
     7
 10
2.5303228855
 20
1.9475166926
 30
0.0
  0
VERTEX
  5
2D3
  8
0
  6
CONTINUOUS
 62
     7
 10
2.5575167491
 20
1.9651296678
 30
0.0
  0
VERTEX
  5
2D4
  8
0
  6
CONTINUOUS
 62
     7
 10
2.5731751877
 20
1.9744448189
 30
0.0
  0
VERTEX
  5
2D5
  8
0
  6
CONTINUOUS
 62
     7
 10
2.5885978062
 20
1.9830961068
 30
0.0
  0
VERTEX
  5
2D6
  8
0
  6
CONTINUOUS
 62
     7
 10
2.6191836978
 20
1.9988769196
 30
0.0
  0
VERTEX
  5
2D7
  8
0
  6
CONTINUOUS
 62
     7
 10
2.6512753209
 20
2.0136960816
 30
0.0
  0
VERTEX
  5
2D8
  8
0
  6
CONTINUOUS
 62
     7
 10
2.6847725833
 20
2.0275019809
 30
0.0
  0
VERTEX
  5
2D9
  8
0
  6
CONTINUOUS
 62
     7
 10
2.719574411
 20
2.0402484017
 30
0.0
  0
VERTEX
  5
2DA
  8
0
  6
CONTINUOUS
 62
     7
 10
2.7555749939
 20
2.0518925353
 30
0.0
  0
VERTEX
  5
2DB
  8
0
  6
CONTINUOUS
 62
     7
 10
2.7926642577
 20
2.0623952214
 30
0.0
  0
VERTEX
  5
2DC
  8
0
  6
CONTINUOUS
 62
     7
 10
2.8307283329
 20
2.0717211332
 30
0.0
  0
VERTEX
  5
2DD
  8
0
  6
CONTINUOUS
 62
     7
 10
2.8696500142
 20
2.0798389211
 30
0.0
  0
VERTEX
  5
2DE
  8
0
  6
CONTINUOUS
 62
     7
 10
2.9093092093
 20
2.0867213211
 30
0.0
  0
VERTEX
  5
2DF
  8
0
  6
CONTINUOUS
 62
     7
 10
2.9495833776
 20
2.0923452391
 30
0.0
  0
VERTEX
  5
2E0
  8
0
  6
CONTINUOUS
 62
     7
 10
2.9903479584
 20
2.096691814
 30
0.0
  0
VERTEX
  5
2E1
  8
0
  6
CONTINUOUS
 62
     7
 10
3.0314767929
 20
2.0997464663
 30
0.0
  0
VERTEX
  5
2E2
  8
0
  6
CONTINUOUS
 62
     7
 10
3.0728425381
 20
2.1014989317
 30
0.0
  0
VERTEX
  5
2E3
  8
0
  6
CONTINUOUS
 62
     7
 10
3.1143170773
 20
2.1019432859
 30
0.0
  0
VERTEX
  5
2E4
  8
0
  6
CONTINUOUS
 62
     7
 10
3.1557719256
 20
2.1010779583
 30
0.0
  0
VERTEX
  5
2E5
  8
0
  6
CONTINUOUS
 62
     7
 10
3.1970782188
 20
2.0989057662
 30
0.0
  0
VERTEX
  5
2E6
  8
0
  6
CONTINUOUS
 62
     7
 10
3.2381077447
 20
2.0954339159
 30
0.0
  0
VERTEX
  5
2E7
  8
0
  6
CONTINUOUS
 62
     7
 10
3.2787333577
 20
2.090673958
 30
0.0
  0
VERTEX
  5
2E8
  8
0
  6
CONTINUOUS
 62
     7
 10
3.318829167
 20
2.0846417696
 30
0.0
  0
VERTEX
  5
2E9
  8
0
  6
CONTINUOUS
 62
     7
 10
3.3582709406
 20
2.077357527
 30
0.0
  0
VERTEX
  5
2EA
  8
0
  6
CONTINUOUS
 62
     7
 10
3.3969365144
 20
2.0688456698
 30
0.0
  0
VERTEX
  5
2EB
  8
0
  6
CONTINUOUS
 62
     7
 10
3.4347062051
 20
2.0591348538
 30
0.0
  0
VERTEX
  5
2EC
  8
0
  6
CONTINUOUS
 62
     7
 10
3.4714632324
 20
2.0482578912
 30
0.0
  0
VERTEX
  5
2ED
  8
0
  6
CONTINUOUS
 62
     7
 10
3.5070941496
 20
2.0362516744
 30
0.0
  0
VERTEX
  5
2EE
  8
0
  6
CONTINUOUS
 62
     7
 10
3.5414892869
 20
2.023157078
 30
0.0
  0
VERTEX
  5
2EF
  8
0
  6
CONTINUOUS
 62
     7
 10
3.5745432104
 20
2.009018831
 30
0.0
  0
VERTEX
  5
2F0
  8
0
  6
CONTINUOUS
 62
     7
 10
3.6061551954
 20
1.9938853483
 30
0.0
  0
VERTEX
  5
2F1
  8
0
  6
CONTINUOUS
 62
     7
 10
3.6362297157
 20
1.977808508
 30
0.0
  0
VERTEX
  5
2F2
  8
0
  6
CONTINUOUS
 62
     7
 10
3.6646769428
 20
1.9608433525
 30
0.0
  0
VERTEX
  5
2F3
  8
0
  6
CONTINUOUS
 62
     7
 10
3.6914132421
 20
1.9430476924
 30
0.0
  0
VERTEX
  5
2F4
  8
0
  6
CONTINUOUS
 62
     7
 10
3.7163616443
 20
1.9244815833
 30
0.0
  0
VERTEX
  5
2F5
  8
0
  6
CONTINUOUS
 62
     7
 10
3.7262027222
 20
1.9162667612
 30
0.0
  0
SEQEND
  5
6FA
  8
0
  6
CONTINUOUS
 62
     7
  0
POLYLINE
  5
163
  8
0
  6
CONTINUOUS
 62
     7
 66
     1
 10
0.0
 20
0.0
 30
0.0
 70
   128
  0
VERTEX
  5
2F6
  8
0
  6
CONTINUOUS
 62
     7
 10
2.2047612507
 20
2.6926814182
 30
0.0
  0
VERTEX
  5
2F7
  8
0
  6
CONTINUOUS
 62
     7
 10
2.2461782686
 20
2.7155412748
 30
0.0
  0
VERTEX
  5
2F8
  8
0
  6
CONTINUOUS
 62
     7
 10
2.2893301723
 20
2.7373054158
 30
0.0
  0
VERTEX
  5
2F9
  8
0
  6
CONTINUOUS
 62
     7
 10
2.3341300597
 20
2.7579300111
 30
0.0
  0
VERTEX
  5
2FA
  8
0
  6
CONTINUOUS
 62
     7
 10
2.3804877097
 20
2.7773735255
 30
0.0
  0
VERTEX
  5
2FB
  8
0
  6
CONTINUOUS
 62
     7
 10
2.4283097642
 20
2.7955968024
 30
0.0
  0
VERTEX
  5
2FC
  8
0
  6
CONTINUOUS
 62
     7
 10
2.477499916
 20
2.8125631425
 30
0.0
  0
VERTEX
  5
2FD
  8
0
  6
CONTINUOUS
 62
     7
 10
2.5279591026
 20
2.8282383779
 30
0.0
  0
VERTEX
  5
2FE
  8
0
  6
CONTINUOUS
 62
     7
 10
2.5795857059
 20
2.8425909407
 30
0.0
  0
VERTEX
  5
2FF
  8
0
  6
CONTINUOUS
 62
     7
 10
2.6322757569
 20
2.8555919267
 30
0.0
  0
VERTEX
  5
300
  8
0
  6
CONTINUOUS
 62
     7
 10
2.6859231447
 20
2.8672151538
 30
0.0
  0
VERTEX
  5
301
  8
0
  6
CONTINUOUS
 62
     7
 10
2.7404198307
 20
2.8774372143
 30
0.0
  0
VERTEX
  5
302
  8
0
  6
CONTINUOUS
 62
     7
 10
2.7956560658
 20
2.8862375222
 30
0.0
  0
VERTEX
  5
303
  8
0
  6
CONTINUOUS
 62
     7
 10
2.8515206117
 20
2.8935983551
 30
0.0
  0
VERTEX
  5
304
  8
0
  6
CONTINUOUS
 62
     7
 10
2.9079009644
 20
2.899504889
 30
0.0
  0
VERTEX
  5
305
  8
0
  6
CONTINUOUS
 62
     7
 10
2.9646835815
 20
2.9039452292
 30
0.0
  0
VERTEX
  5
306
  8
0
  6
CONTINUOUS
 62
     7
 10
3.0217541104
 20
2.9069104332
 30
0.0
  0
VERTEX
  5
307
  8
0
  6
CONTINUOUS
 62
     7
 10
3.0789976186
 20
2.9083945296
 30
0.0
  0
VERTEX
  5
308
  8
0
  6
CONTINUOUS
 62
     7
 10
3.1362988253
 20
2.9083945296
 30
0.0
  0
VERTEX
  5
309
  8
0
  6
CONTINUOUS
 62
     7
 10
3.1935423335
 20
2.9069104332
 30
0.0
  0
VERTEX
  5
30A
  8
0
  6
CONTINUOUS
 62
     7
 10
3.2506128624
 20
2.9039452292
 30
0.0
  0
VERTEX
  5
30B
  8
0
  6
CONTINUOUS
 62
     7
 10
3.3073954795
 20
2.899504889
 30
0.0
  0
VERTEX
  5
30C
  8
0
  6
CONTINUOUS
 62
     7
 10
3.3637758322
 20
2.8935983551
 30
0.0
  0
VERTEX
  5
30D
  8
0
  6
CONTINUOUS
 62
     7
 10
3.419640378
 20
2.8862375222
 30
0.0
  0
VERTEX
  5
30E
  8
0
  6
CONTINUOUS
 62
     7
 10
3.4748766131
 20
2.8774372143
 30
0.0
  0
VERTEX
  5
30F
  8
0
  6
CONTINUOUS
 62
     7
 10
3.5293732992
 20
2.8672151538
 30
0.0
  0
VERTEX
  5
310
  8
0
  6
CONTINUOUS
 62
     7
 10
3.583020687
 20
2.8555919267
 30
0.0
  0
VERTEX
  5
311
  8
0
  6
CONTINUOUS
 62
     7
 10
3.635710738
 20
2.8425909407
 30
0.0
  0
VERTEX
  5
312
  8
0
  6
CONTINUOUS
 62
     7
 10
3.6873373413
 20
2.8282383779
 30
0.0
  0
VERTEX
  5
313
  8
0
  6
CONTINUOUS
 62
     7
 10
3.7377965279
 20
2.8125631425
 30
0.0
  0
VERTEX
  5
314
  8
0
  6
CONTINUOUS
 62
     7
 10
3.7869866796
 20
2.7955968024
 30
0.0
  0
VERTEX
  5
315
  8
0
  6
CONTINUOUS
 62
     7
 10
3.8348087341
 20
2.7773735255
 30
0.0
  0
VERTEX
  5
316
  8
0
  6
CONTINUOUS
 62
     7
 10
3.8811663842
 20
2.7579300111
 30
0.0
  0
VERTEX
  5
317
  8
0
  6
CONTINUOUS
 62
     7
 10
3.9259662715
 20
2.7373054158
 30
0.0
  0
VERTEX
  5
318
  8
0
  6
CONTINUOUS
 62
     7
 10
3.9691181753
 20
2.7155412748
 30
0.0
  0
VERTEX
  5
319
  8
0
  6
CONTINUOUS
 62
     7
 10
4.0105351932
 20
2.6926814182
 30
0.0
  0
VERTEX
  5
31A
  8
0
  6
CONTINUOUS
 62
     7
 10
4.0501339168
 20
2.6687718827
 30
0.0
  0
VERTEX
  5
31B
  8
0
  6
CONTINUOUS
 62
     7
 10
4.0878345998
 20
2.643860819
 30
0.0
  0
VERTEX
  5
31C
  8
0
  6
CONTINUOUS
 62
     7
 10
4.1235613178
 20
2.6179983945
 30
0.0
  0
VERTEX
  5
31D
  8
0
  6
CONTINUOUS
 62
     7
 10
4.157242122
 20
2.5912366928
 30
0.0
  0
VERTEX
  5
31E
  8
0
  6
CONTINUOUS
 62
     7
 10
4.1888091838
 20
2.5636296083
 30
0.0
  0
VERTEX
  5
31F
  8
0
  6
CONTINUOUS
 62
     7
 10
4.2181989313
 20
2.5352327381
 30
0.0
  0
VERTEX
  5
320
  8
0
  6
CONTINUOUS
 62
     7
 10
4.2453521775
 20
2.5061032698
 30
0.0
  0
VERTEX
  5
321
  8
0
  6
CONTINUOUS
 62
     7
 10
4.2702142393
 20
2.4762998661
 30
0.0
  0
VERTEX
  5
322
  8
0
  6
CONTINUOUS
 62
     7
 10
4.2927350479
 20
2.4458825471
 30
0.0
  0
VERTEX
  5
323
  8
0
  6
CONTINUOUS
 62
     7
 10
4.3128692493
 20
2.4149125693
 30
0.0
  0
VERTEX
  5
324
  8
0
  6
CONTINUOUS
 62
     7
 10
4.330576296
 20
2.3834523021
 30
0.0
  0
VERTEX
  5
325
  8
0
  6
CONTINUOUS
 62
     7
 10
4.3458205283
 20
2.3515651023
 30
0.0
  0
VERTEX
  5
326
  8
0
  6
CONTINUOUS
 62
     7
 10
4.3585712463
 20
2.3193151865
 30
0.0
  0
VERTEX
  5
327
  8
0
  6
CONTINUOUS
 62
     7
 10
4.3688027718
 20
2.2867675016
 30
0.0
  0
VERTEX
  5
328
  8
0
  6
CONTINUOUS
 62
     7
 10
4.3764944999
 20
2.2539875945
 30
0.0
  0
VERTEX
  5
329
  8
0
  6
CONTINUOUS
 62
     7
 10
4.3816309405
 20
2.2210414795
 30
0.0
  0
VERTEX
  5
32A
  8
0
  6
CONTINUOUS
 62
     7
 10
4.3842017494
 20
2.1879955056
 30
0.0
  0
VERTEX
  5
32B
  8
0
  6
CONTINUOUS
 62
     7
 10
4.3842017494
 20
2.1549162231
 30
0.0
  0
VERTEX
  5
32C
  8
0
  6
CONTINUOUS
 62
     7
 10
4.3816309405
 20
2.1218702492
 30
0.0
  0
VERTEX
  5
32D
  8
0
  6
CONTINUOUS
 62
     7
 10
4.3764944999
 20
2.0889241342
 30
0.0
  0
VERTEX
  5
32E
  8
0
  6
CONTINUOUS
 62
     7
 10
4.3688027718
 20
2.056144227
 30
0.0
  0
VERTEX
  5
32F
  8
0
  6
CONTINUOUS
 62
     7
 10
4.3585712463
 20
2.0235965422
 30
0.0
  0
VERTEX
  5
330
  8
0
  6
CONTINUOUS
 62
     7
 10
4.3458205283
 20
1.9913466264
 30
0.0
  0
VERTEX
  5
331
  8
0
  6
CONTINUOUS
 62
     7
 10
4.330576296
 20
1.9594594266
 30
0.0
  0
VERTEX
  5
332
  8
0
  6
CONTINUOUS
 62
     7
 10
4.3128692493
 20
1.9279991594
 30
0.0
  0
VERTEX
  5
333
  8
0
  6
CONTINUOUS
 62
     7
 10
4.2927350479
 20
1.8970291816
 30
0.0
  0
VERTEX
  5
334
  8
0
  6
CONTINUOUS
 62
     7
 10
4.2702142393
 20
1.8666118626
 30
0.0
  0
VERTEX
  5
335
  8
0
  6
CONTINUOUS
 62
     7
 10
4.2453521775
 20
1.8368084589
 30
0.0
  0
VERTEX
  5
336
  8
0
  6
CONTINUOUS
 62
     7
 10
4.2181989313
 20
1.8076789905
 30
0.0
  0
VERTEX
  5
337
  8
0
  6
CONTINUOUS
 62
     7
 10
4.1888091838
 20
1.7792821204
 30
0.0
  0
VERTEX
  5
338
  8
0
  6
CONTINUOUS
 62
     7
 10
4.157242122
 20
1.7516750359
 30
0.0
  0
VERTEX
  5
339
  8
0
  6
CONTINUOUS
 62
     7
 10
4.1235613178
 20
1.7249133342
 30
0.0
  0
VERTEX
  5
33A
  8
0
  6
CONTINUOUS
 62
     7
 10
4.0878345998
 20
1.6990509097
 30
0.0
  0
VERTEX
  5
33B
  8
0
  6
CONTINUOUS
 62
     7
 10
4.0501339168
 20
1.6741398459
 30
0.0
  0
VERTEX
  5
33C
  8
0
  6
CONTINUOUS
 62
     7
 10
4.0105351932
 20
1.6502303104
 30
0.0
  0
VERTEX
  5
33D
  8
0
  6
CONTINUOUS
 62
     7
 10
3.9691181753
 20
1.6273704538
 30
0.0
  0
VERTEX
  5
33E
  8
0
  6
CONTINUOUS
 62
     7
 10
3.9259662715
 20
1.6056063129
 30
0.0
  0
VERTEX
  5
33F
  8
0
  6
CONTINUOUS
 62
     7
 10
3.8811663842
 20
1.5849817176
 30
0.0
  0
VERTEX
  5
340
  8
0
  6
CONTINUOUS
 62
     7
 10
3.8348087341
 20
1.5655382031
 30
0.0
  0
VERTEX
  5
341
  8
0
  6
CONTINUOUS
 62
     7
 10
3.7869866796
 20
1.5473149263
 30
0.0
  0
VERTEX
  5
342
  8
0
  6
CONTINUOUS
 62
     7
 10
3.7377965279
 20
1.5303485862
 30
0.0
  0
VERTEX
  5
343
  8
0
  6
CONTINUOUS
 62
     7
 10
3.6873373413
 20
1.5146733508
 30
0.0
  0
VERTEX
  5
344
  8
0
  6
CONTINUOUS
 62
     7
 10
3.635710738
 20
1.500320788
 30
0.0
  0
VERTEX
  5
345
  8
0
  6
CONTINUOUS
 62
     7
 10
3.583020687
 20
1.487319802
 30
0.0
  0
VERTEX
  5
346
  8
0
  6
CONTINUOUS
 62
     7
 10
3.5293732992
 20
1.4756965749
 30
0.0
  0
VERTEX
  5
347
  8
0
  6
CONTINUOUS
 62
     7
 10
3.4748766131
 20
1.4654745144
 30
0.0
  0
VERTEX
  5
348
  8
0
  6
CONTINUOUS
 62
     7
 10
3.419640378
 20
1.4566742064
 30
0.0
  0
VERTEX
  5
349
  8
0
  6
CONTINUOUS
 62
     7
 10
3.3637758322
 20
1.4493133736
 30
0.0
  0
VERTEX
  5
34A
  8
0
  6
CONTINUOUS
 62
     7
 10
3.3073954795
 20
1.4434068396
 30
0.0
  0
VERTEX
  5
34B
  8
0
  6
CONTINUOUS
 62
     7
 10
3.2506128624
 20
1.4389664995
 30
0.0
  0
VERTEX
  5
34C
  8
0
  6
CONTINUOUS
 62
     7
 10
3.1935423335
 20
1.4360012955
 30
0.0
  0
VERTEX
  5
34D
  8
0
  6
CONTINUOUS
 62
     7
 10
3.1362988253
 20
1.4345171991
 30
0.0
  0
VERTEX
  5
34E
  8
0
  6
CONTINUOUS
 62
     7
 10
3.0789976186
 20
1.4345171991
 30
0.0
  0
VERTEX
  5
34F
  8
0
  6
CONTINUOUS
 62
     7
 10
3.0217541104
 20
1.4360012955
 30
0.0
  0
VERTEX
  5
350
  8
0
  6
CONTINUOUS
 62
     7
 10
2.9646835815
 20
1.4389664995
 30
0.0
  0
VERTEX
  5
351
  8
0
  6
CONTINUOUS
 62
     7
 10
2.9079009644
 20
1.4434068396
 30
0.0
  0
VERTEX
  5
352
  8
0
  6
CONTINUOUS
 62
     7
 10
2.8515206117
 20
1.4493133736
 30
0.0
  0
VERTEX
  5
353
  8
0
  6
CONTINUOUS
 62
     7
 10
2.7956560658
 20
1.4566742064
 30
0.0
  0
VERTEX
  5
354
  8
0
  6
CONTINUOUS
 62
     7
 10
2.7404198307
 20
1.4654745144
 30
0.0
  0
VERTEX
  5
355
  8
0
  6
CONTINUOUS
 62
     7
 10
2.6859231447
 20
1.4756965749
 30
0.0
  0
VERTEX
  5
356
  8
0
  6
CONTINUOUS
 62
     7
 10
2.6322757569
 20
1.487319802
 30
0.0
  0
VERTEX
  5
357
  8
0
  6
CONTINUOUS
 62
     7
 10
2.5795857059
 20
1.500320788
 30
0.0
  0
VERTEX
  5
358
  8
0
  6
CONTINUOUS
 62
     7
 10
2.5279591026
 20
1.5146733508
 30
0.0
  0
VERTEX
  5
359
  8
0
  6
CONTINUOUS
 62
     7
 10
2.477499916
 20
1.5303485862
 30
0.0
  0
VERTEX
  5
35A
  8
0
  6
CONTINUOUS
 62
     7
 10
2.4283097642
 20
1.5473149263
 30
0.0
  0
VERTEX
  5
35B
  8
0
  6
CONTINUOUS
 62
     7
 10
2.3804877097
 20
1.5655382031
 30
0.0
  0
VERTEX
  5
35C
  8
0
  6
CONTINUOUS
 62
     7
 10
2.3341300597
 20
1.5849817176
 30
0.0
  0
VERTEX
  5
35D
  8
0
  6
CONTINUOUS
 62
     7
 10
2.2893301723
 20
1.6056063129
 30
0.0
  0
VERTEX
  5
35E
  8
0
  6
CONTINUOUS
 62
     7
 10
2.2461782686
 20
1.6273704538
 30
0.0
  0
VERTEX
  5
35F
  8
0
  6
CONTINUOUS
 62
     7
 10
2.2047612507
 20
1.6502303104
 30
0.0
  0
VERTEX
  5
360
  8
0
  6
CONTINUOUS
 62
     7
 10
2.165162527
 20
1.6741398459
 30
0.0
  0
VERTEX
  5
361
  8
0
  6
CONTINUOUS
 62
     7
 10
2.1274618441
 20
1.6990509097
 30
0.0
  0
VERTEX
  5
362
  8
0
  6
CONTINUOUS
 62
     7
 10
2.0917351261
 20
1.7249133342
 30
0.0
  0
VERTEX
  5
363
  8
0
  6
CONTINUOUS
 62
     7
 10
2.0580543218
 20
1.7516750359
 30
0.0
  0
VERTEX
  5
364
  8
0
  6
CONTINUOUS
 62
     7
 10
2.02648726
 20
1.7792821204
 30
0.0
  0
VERTEX
  5
365
  8
0
  6
CONTINUOUS
 62
     7
 10
1.9970975125
 20
1.8076789905
 30
0.0
  0
VERTEX
  5
366
  8
0
  6
CONTINUOUS
 62
     7
 10
1.9699442664
 20
1.8368084589
 30
0.0
  0
VERTEX
  5
367
  8
0
  6
CONTINUOUS
 62
     7
 10
1.9450822045
 20
1.8666118626
 30
0.0
  0
VERTEX
  5
368
  8
0
  6
CONTINUOUS
 62
     7
 10
1.922561396
 20
1.8970291816
 30
0.0
  0
VERTEX
  5
369
  8
0
  6
CONTINUOUS
 62
     7
 10
1.9024271945
 20
1.9279991594
 30
0.0
  0
VERTEX
  5
36A
  8
0
  6
CONTINUOUS
 62
     7
 10
1.8847201479
 20
1.9594594266
 30
0.0
  0
VERTEX
  5
36B
  8
0
  6
CONTINUOUS
 62
     7
 10
1.8694759156
 20
1.9913466264
 30
0.0
  0
VERTEX
  5
36C
  8
0
  6
CONTINUOUS
 62
     7
 10
1.8567251976
 20
2.0235965422
 30
0.0
  0
VERTEX
  5
36D
  8
0
  6
CONTINUOUS
 62
     7
 10
1.846493672
 20
2.056144227
 30
0.0
  0
VERTEX
  5
36E
  8
0
  6
CONTINUOUS
 62
     7
 10
1.8388019439
 20
2.0889241342
 30
0.0
  0
VERTEX
  5
36F
  8
0
  6
CONTINUOUS
 62
     7
 10
1.8336655034
 20
2.1218702492
 30
0.0
  0
VERTEX
  5
370
  8
0
  6
CONTINUOUS
 62
     7
 10
1.8310946944
 20
2.1549162231
 30
0.0
  0
VERTEX
  5
371
  8
0
  6
CONTINUOUS
 62
     7
 10
1.8310946944
 20
2.1879955056
 30
0.0
  0
VERTEX
  5
372
  8
0
  6
CONTINUOUS
 62
     7
 10
1.8336655034
 20
2.2210414795
 30
0.0
  0
VERTEX
  5
373
  8
0
  6
CONTINUOUS
 62
     7
 10
1.8388019439
 20
2.2539875945
 30
0.0
  0
VERTEX
  5
374
  8
0
  6
CONTINUOUS
 62
     7
 10
1.846493672
 20
2.2867675016
 30
0.0
  0
VERTEX
  5
375
  8
0
  6
CONTINUOUS
 62
     7
 10
1.8567251976
 20
2.3193151865
 30
0.0
  0
VERTEX
  5
376
  8
0
  6
CONTINUOUS
 62
     7
 10
1.8694759156
 20
2.3515651023
 30
0.0
  0
VERTEX
  5
377
  8
0
  6
CONTINUOUS
 62
     7
 10
1.8847201479
 20
2.3834523021
 30
0.0
  0
VERTEX
  5
378
  8
0
  6
CONTINUOUS
 62
     7
 10
1.9024271945
 20
2.4149125693
 30
0.0
  0
VERTEX
  5
379
  8
0
  6
CONTINUOUS
 62
     7
 10
1.922561396
 20
2.4458825471
 30
0.0
  0
VERTEX
  5
37A
  8
0
  6
CONTINUOUS
 62
     7
 10
1.9450822045
 20
2.4762998661
 30
0.0
  0
VERTEX
  5
37B
  8
0
  6
CONTINUOUS
 62
     7
 10
1.9699442664
 20
2.5061032698
 30
0.0
  0
VERTEX
  5
37C
  8
0
  6
CONTINUOUS
 62
     7
 10
1.9970975125
 20
2.5352327381
 30
0.0
  0
VERTEX
  5
37D
  8
0
  6
CONTINUOUS
 62
     7
 10
2.02648726
 20
2.5636296083
 30
0.0
  0
VERTEX
  5
37E
  8
0
  6
CONTINUOUS
 62
     7
 10
2.0580543218
 20
2.5912366928
 30
0.0
  0
VERTEX
  5
37F
  8
0
  6
CONTINUOUS
 62
     7
 10
2.0917351261
 20
2.6179983945
 30
0.0
  0
VERTEX
  5
380
  8
0
  6
CONTINUOUS
 62
     7
 10
2.1274618441
 20
2.643860819
 30
0.0
  0
VERTEX
  5
381
  8
0
  6
CONTINUOUS
 62
     7
 10
2.165162527
 20
2.6687718827
 30
0.0
  0
VERTEX
  5
382
  8
0
  6
CONTINUOUS
 62
     7
 10
2.2047612507
 20
2.6926814182
 30
0.0
  0
SEQEND
  5
6FB
  8
0
  6
CONTINUOUS
 62
     7
  0
ARC
  5
164
  8
0
  6
CONTINUOUS
 62
     7
 10
3.9700632449
 20
2.1551250889
 30
0.0
 40
0.434452511607646
 50
351.5496193334
 51
8.4556408514
  0
ARC
  5
165
  8
0
  6
CONTINUOUS
 62
     7
 10
2.2454294059
 20
2.1551240045
 30
0.0
 40
0.4346476858501476
 50
171.1316879059
 51
188.9815250974
  0
ARC
  5
166
  8
0
  6
CONTINUOUS
 62
     7
 10
3.969962709
 20
2.0347435601
 30
0.0
 40
0.4345605168475125
 50
351.5439717
 51
359.992315693
  0
ARC
  5
167
  8
0
  6
CONTINUOUS
 62
     7
 10
2.2459491861
 20
2.0347795568
 30
0.0
 40
0.4351759743833506
 50
180.0124128055
 51
188.9832376487
  0
POLYLINE
  5
168
  8
0
  6
CONTINUOUS
 62
     7
 66
     1
 10
0.0
 20
0.0
 30
0.0
 70
   128
  0
VERTEX
  5
383
  8
0
  6
CONTINUOUS
 62
     7
 10
2.5631760004
 20
2.4857729874
 30
0.0
  0
VERTEX
  5
384
  8
0
  6
CONTINUOUS
 62
     7
 10
2.5954484662
 20
2.5033593555
 30
0.0
  0
VERTEX
  5
385
  8
0
  6
CONTINUOUS
 62
     7
 10
2.6294224081
 20
2.5198431735
 30
0.0
  0
VERTEX
  5
386
  8
0
  6
CONTINUOUS
 62
     7
 10
2.664984968
 20
2.535169684
 30
0.0
  0
VERTEX
  5
387
  8
0
  6
CONTINUOUS
 62
     7
 10
2.7020180108
 20
2.5492879737
 30
0.0
  0
VERTEX
  5
388
  8
0
  6
CONTINUOUS
 62
     7
 10
2.7403985163
 20
2.5621511431
 30
0.0
  0
VERTEX
  5
389
  8
0
  6
CONTINUOUS
 62
     7
 10
2.7799989884
 20
2.5737164621
 30
0.0
  0
VERTEX
  5
38A
  8
0
  6
CONTINUOUS
 62
     7
 10
2.8206878783
 20
2.5839455119
 30
0.0
  0
VERTEX
  5
38B
  8
0
  6
CONTINUOUS
 62
     7
 10
2.8623300217
 20
2.5928043126
 30
0.0
  0
VERTEX
  5
38C
  8
0
  6
CONTINUOUS
 62
     7
 10
2.9047870874
 20
2.600263436
 30
0.0
  0
VERTEX
  5
38D
  8
0
  6
CONTINUOUS
 62
     7
 10
2.9479180374
 20
2.6062981039
 30
0.0
  0
VERTEX
  5
38E
  8
0
  6
CONTINUOUS
 62
     7
 10
2.991579595
 20
2.6108882695
 30
0.0
  0
VERTEX
  5
38F
  8
0
  6
CONTINUOUS
 62
     7
 10
3.0356267209
 20
2.6140186849
 30
0.0
  0
VERTEX
  5
390
  8
0
  6
CONTINUOUS
 62
     7
 10
3.079913095
 20
2.6156789511
 30
0.0
  0
VERTEX
  5
391
  8
0
  6
CONTINUOUS
 62
     7
 10
3.1242916024
 20
2.6158635529
 30
0.0
  0
VERTEX
  5
392
  8
0
  6
CONTINUOUS
 62
     7
 10
3.1686148221
 20
2.614571877
 30
0.0
  0
VERTEX
  5
393
  8
0
  6
CONTINUOUS
 62
     7
 10
3.212735517
 20
2.6118082144
 30
0.0
  0
VERTEX
  5
394
  8
0
  6
CONTINUOUS
 62
     7
 10
3.2565071224
 20
2.6075817454
 30
0.0
  0
VERTEX
  5
395
  8
0
  6
CONTINUOUS
 62
     7
 10
3.2997842335
 20
2.6019065102
 30
0.0
  0
VERTEX
  5
396
  8
0
  6
CONTINUOUS
 62
     7
 10
3.3424230881
 20
2.5948013612
 30
0.0
  0
VERTEX
  5
397
  8
0
  6
CONTINUOUS
 62
     7
 10
3.3842820443
 20
2.5862899011
 30
0.0
  0
VERTEX
  5
398
  8
0
  6
CONTINUOUS
 62
     7
 10
3.4252220506
 20
2.5764004039
 30
0.0
  0
VERTEX
  5
399
  8
0
  6
CONTINUOUS
 62
     7
 10
3.4651071087
 20
2.5651657218
 30
0.0
  0
VERTEX
  5
39A
  8
0
  6
CONTINUOUS
 62
     7
 10
3.5038047243
 20
2.5526231751
 30
0.0
  0
VERTEX
  5
39B
  8
0
  6
CONTINUOUS
 62
     7
 10
3.5411863478
 20
2.5388144289
 30
0.0
  0
VERTEX
  5
39C
  8
0
  6
CONTINUOUS
 62
     7
 10
3.5771278013
 20
2.5237853546
 30
0.0
  0
VERTEX
  5
39D
  8
0
  6
CONTINUOUS
 62
     7
 10
3.6115096908
 20
2.507585877
 30
0.0
  0
VERTEX
  5
39E
  8
0
  6
CONTINUOUS
 62
     7
 10
3.6442178032
 20
2.4902698094
 30
0.0
  0
VERTEX
  5
39F
  8
0
  6
CONTINUOUS
 62
     7
 10
3.6751434854
 20
2.471894674
 30
0.0
  0
VERTEX
  5
3A0
  8
0
  6
CONTINUOUS
 62
     7
 10
3.7041840054
 20
2.452521511
 30
0.0
  0
VERTEX
  5
3A1
  8
0
  6
CONTINUOUS
 62
     7
 10
3.7312428936
 20
2.4322146762
 30
0.0
  0
VERTEX
  5
3A2
  8
0
  6
CONTINUOUS
 62
     7
 10
3.7562302629
 20
2.4110416268
 30
0.0
  0
VERTEX
  5
3A3
  8
0
  6
CONTINUOUS
 62
     7
 10
3.7790631079
 20
2.3890726977
 30
0.0
  0
VERTEX
  5
3A4
  8
0
  6
CONTINUOUS
 62
     7
 10
3.7996655802
 20
2.3663808673
 30
0.0
  0
VERTEX
  5
3A5
  8
0
  6
CONTINUOUS
 62
     7
 10
3.8179692404
 20
2.3430415156
 30
0.0
  0
VERTEX
  5
3A6
  8
0
  6
CONTINUOUS
 62
     7
 10
3.8339132857
 20
2.3191321737
 30
0.0
  0
VERTEX
  5
3A7
  8
0
  6
CONTINUOUS
 62
     7
 10
3.8474447514
 20
2.2947322659
 30
0.0
  0
VERTEX
  5
3A8
  8
0
  6
CONTINUOUS
 62
     7
 10
3.8585186875
 20
2.2699228463
 30
0.0
  0
VERTEX
  5
3A9
  8
0
  6
CONTINUOUS
 62
     7
 10
3.8670983074
 20
2.2447863293
 30
0.0
  0
VERTEX
  5
3AA
  8
0
  6
CONTINUOUS
 62
     7
 10
3.8731551104
 20
2.2194062159
 30
0.0
  0
VERTEX
  5
3AB
  8
0
  6
CONTINUOUS
 62
     7
 10
3.8766689766
 20
2.1938668162
 30
0.0
  0
VERTEX
  5
3AC
  8
0
  6
CONTINUOUS
 62
     7
 10
3.8776282332
 20
2.1682529696
 30
0.0
  0
VERTEX
  5
3AD
  8
0
  6
CONTINUOUS
 62
     7
 10
3.8760296936
 20
2.1426497627
 30
0.0
  0
VERTEX
  5
3AE
  8
0
  6
CONTINUOUS
 62
     7
 10
3.871878668
 20
2.1171422468
 30
0.0
  0
VERTEX
  5
3AF
  8
0
  6
CONTINUOUS
 62
     7
 10
3.8651889458
 20
2.0918151552
 30
0.0
  0
VERTEX
  5
3B0
  8
0
  6
CONTINUOUS
 62
     7
 10
3.8559827494
 20
2.0667526221
 30
0.0
  0
VERTEX
  5
3B1
  8
0
  6
CONTINUOUS
 62
     7
 10
3.844290661
 20
2.0420379026
 30
0.0
  0
VERTEX
  5
3B2
  8
0
  6
CONTINUOUS
 62
     7
 10
3.8301515205
 20
2.0177530965
 30
0.0
  0
VERTEX
  5
3B3
  8
0
  6
CONTINUOUS
 62
     7
 10
3.8136122967
 20
1.9939788756
 30
0.0
  0
VERTEX
  5
3B4
  8
0
  6
CONTINUOUS
 62
     7
 10
3.7947279312
 20
1.9707942155
 30
0.0
  0
VERTEX
  5
3B5
  8
0
  6
CONTINUOUS
 62
     7
 10
3.773561156
 20
1.9482761331
 30
0.0
  0
VERTEX
  5
3B6
  8
0
  6
CONTINUOUS
 62
     7
 10
3.7501822851
 20
1.9264994313
 30
0.0
  0
VERTEX
  5
3B7
  8
0
  6
CONTINUOUS
 62
     7
 10
3.7246689806
 20
1.9055364502
 30
0.0
  0
VERTEX
  5
3B8
  8
0
  6
CONTINUOUS
 62
     7
 10
3.6971059952
 20
1.8854568266
 30
0.0
  0
VERTEX
  5
3B9
  8
0
  6
CONTINUOUS
 62
     7
 10
3.6675848903
 20
1.8663272631
 30
0.0
  0
VERTEX
  5
3BA
  8
0
  6
CONTINUOUS
 62
     7
 10
3.6362037322
 20
1.8482113061
 30
0.0
  0
VERTEX
  5
3BB
  8
0
  6
CONTINUOUS
 62
     7
 10
3.6030667658
 20
1.8311691351
 30
0.0
  0
VERTEX
  5
3BC
  8
0
  6
CONTINUOUS
 62
     7
 10
3.5682840688
 20
1.8152573623
 30
0.0
  0
VERTEX
  5
3BD
  8
0
  6
CONTINUOUS
 62
     7
 10
3.5319711858
 20
1.8005288451
 30
0.0
  0
VERTEX
  5
3BE
  8
0
  6
CONTINUOUS
 62
     7
 10
3.4942487447
 20
1.7870325102
 30
0.0
  0
VERTEX
  5
3BF
  8
0
  6
CONTINUOUS
 62
     7
 10
3.4552420554
 20
1.7748131909
 30
0.0
  0
VERTEX
  5
3C0
  8
0
  6
CONTINUOUS
 62
     7
 10
3.4150806945
 20
1.7639114788
 30
0.0
  0
VERTEX
  5
3C1
  8
0
  6
CONTINUOUS
 62
     7
 10
3.3738980737
 20
1.7543635881
 30
0.0
  0
VERTEX
  5
3C2
  8
0
  6
CONTINUOUS
 62
     7
 10
3.3318309978
 20
1.7462012361
 30
0.0
  0
VERTEX
  5
3C3
  8
0
  6
CONTINUOUS
 62
     7
 10
3.2890192092
 20
1.7394515371
 30
0.0
  0
VERTEX
  5
3C4
  8
0
  6
CONTINUOUS
 62
     7
 10
3.2456049244
 20
1.7341369131
 30
0.0
  0
VERTEX
  5
3C5
  8
0
  6
CONTINUOUS
 62
     7
 10
3.2017323613
 20
1.7302750186
 30
0.0
  0
VERTEX
  5
3C6
  8
0
  6
CONTINUOUS
 62
     7
 10
3.1575472602
 20
1.7278786826
 30
0.0
  0
VERTEX
  5
3C7
  8
0
  6
CONTINUOUS
 62
     7
 10
3.1131963995
 20
1.7269558653
 30
0.0
  0
VERTEX
  5
3C8
  8
0
  6
CONTINUOUS
 62
     7
 10
3.0688271083
 20
1.7275096323
 30
0.0
  0
VERTEX
  5
3C9
  8
0
  6
CONTINUOUS
 62
     7
 10
3.0245867769
 20
1.7295381441
 30
0.0
  0
VERTEX
  5
3CA
  8
0
  6
CONTINUOUS
 62
     7
 10
2.9806223673
 20
1.7330346621
 30
0.0
  0
VERTEX
  5
3CB
  8
0
  6
CONTINUOUS
 62
     7
 10
2.9370799248
 20
1.7379875712
 30
0.0
  0
VERTEX
  5
3CC
  8
0
  6
CONTINUOUS
 62
     7
 10
2.8941040931
 20
1.7443804184
 30
0.0
  0
VERTEX
  5
3CD
  8
0
  6
CONTINUOUS
 62
     7
 10
2.8518376335
 20
1.7521919673
 30
0.0
  0
VERTEX
  5
3CE
  8
0
  6
CONTINUOUS
 62
     7
 10
2.8104209509
 20
1.7613962687
 30
0.0
  0
VERTEX
  5
3CF
  8
0
  6
CONTINUOUS
 62
     7
 10
2.7699916274
 20
1.7719627468
 30
0.0
  0
VERTEX
  5
3D0
  8
0
  6
CONTINUOUS
 62
     7
 10
2.7306839652
 20
1.7838563009
 30
0.0
  0
VERTEX
  5
3D1
  8
0
  6
CONTINUOUS
 62
     7
 10
2.6926285403
 20
1.7970374218
 30
0.0
  0
VERTEX
  5
3D2
  8
0
  6
CONTINUOUS
 62
     7
 10
2.6559517691
 20
1.8114623231
 30
0.0
  0
VERTEX
  5
3D3
  8
0
  6
CONTINUOUS
 62
     7
 10
2.620775488
 20
1.8270830867
 30
0.0
  0
VERTEX
  5
3D4
  8
0
  6
CONTINUOUS
 62
     7
 10
2.5872165493
 20
1.8438478221
 30
0.0
  0
VERTEX
  5
3D5
  8
0
  6
CONTINUOUS
 62
     7
 10
2.5553864322
 20
1.8617008384
 30
0.0
  0
VERTEX
  5
3D6
  8
0
  6
CONTINUOUS
 62
     7
 10
2.5253908732
 20
1.8805828298
 30
0.0
  0
VERTEX
  5
3D7
  8
0
  6
CONTINUOUS
 62
     7
 10
2.4973295146
 20
1.9004310721
 30
0.0
  0
VERTEX
  5
3D8
  8
0
  6
CONTINUOUS
 62
     7
 10
2.4712955733
 20
1.9211796315
 30
0.0
  0
VERTEX
  5
3D9
  8
0
  6
CONTINUOUS
 62
     7
 10
2.4473755316
 20
1.9427595835
 30
0.0
  0
VERTEX
  5
3DA
  8
0
  6
CONTINUOUS
 62
     7
 10
2.4256488493
 20
1.9650992414
 30
0.0
  0
VERTEX
  5
3DB
  8
0
  6
CONTINUOUS
 62
     7
 10
2.4061877004
 20
1.9881243953
 30
0.0
  0
VERTEX
  5
3DC
  8
0
  6
CONTINUOUS
 62
     7
 10
2.3890567327
 20
2.011758558
 30
0.0
  0
VERTEX
  5
3DD
  8
0
  6
CONTINUOUS
 62
     7
 10
2.3743128538
 20
2.035923219
 30
0.0
  0
VERTEX
  5
3DE
  8
0
  6
CONTINUOUS
 62
     7
 10
2.3620050411
 20
2.0605381058
 30
0.0
  0
VERTEX
  5
3DF
  8
0
  6
CONTINUOUS
 62
     7
 10
2.3521741802
 20
2.0855214503
 30
0.0
  0
VERTEX
  5
3E0
  8
0
  6
CONTINUOUS
 62
     7
 10
2.344852928
 20
2.1107902602
 30
0.0
  0
VERTEX
  5
3E1
  8
0
  6
CONTINUOUS
 62
     7
 10
2.3400656051
 20
2.1362605952
 30
0.0
  0
VERTEX
  5
3E2
  8
0
  6
CONTINUOUS
 62
     7
 10
2.3378281144
 20
2.1618478453
 30
0.0
  0
VERTEX
  5
3E3
  8
0
  6
CONTINUOUS
 62
     7
 10
2.3381478888
 20
2.1874670123
 30
0.0
  0
VERTEX
  5
3E4
  8
0
  6
CONTINUOUS
 62
     7
 10
2.3410238658
 20
2.2130329919
 30
0.0
  0
VERTEX
  5
3E5
  8
0
  6
CONTINUOUS
 62
     7
 10
2.3464464919
 20
2.2384608564
 30
0.0
  0
VERTEX
  5
3E6
  8
0
  6
CONTINUOUS
 62
     7
 10
2.3543977535
 20
2.2636661371
 30
0.0
  0
VERTEX
  5
3E7
  8
0
  6
CONTINUOUS
 62
     7
 10
2.3648512375
 20
2.2885651046
 30
0.0
  0
VERTEX
  5
3E8
  8
0
  6
CONTINUOUS
 62
     7
 10
2.3777722183
 20
2.3130750469
 30
0.0
  0
VERTEX
  5
3E9
  8
0
  6
CONTINUOUS
 62
     7
 10
2.3931177739
 20
2.3371145445
 30
0.0
  0
VERTEX
  5
3EA
  8
0
  6
CONTINUOUS
 62
     7
 10
2.4108369277
 20
2.3606037407
 30
0.0
  0
VERTEX
  5
3EB
  8
0
  6
CONTINUOUS
 62
     7
 10
2.4308708186
 20
2.3834646067
 30
0.0
  0
VERTEX
  5
3EC
  8
0
  6
CONTINUOUS
 62
     7
 10
2.4531528959
 20
2.4056212009
 30
0.0
  0
VERTEX
  5
3ED
  8
0
  6
CONTINUOUS
 62
     7
 10
2.4776091409
 20
2.4269999214
 30
0.0
  0
VERTEX
  5
3EE
  8
0
  6
CONTINUOUS
 62
     7
 10
2.5041583123
 20
2.4475297503
 30
0.0
  0
VERTEX
  5
3EF
  8
0
  6
CONTINUOUS
 62
     7
 10
2.5327122166
 20
2.4671424894
 30
0.0
  0
VERTEX
  5
3F0
  8
0
  6
CONTINUOUS
 62
     7
 10
2.5631760004
 20
2.4857729874
 30
0.0
  0
SEQEND
  5
6FC
  8
0
  6
CONTINUOUS
 62
     7
  0
ARC
  5
169
  8
0
  6
CONTINUOUS
 62
     7
 10
3.6065283385
 20
2.1551184059
 30
0.0
 40
0.2511169494134909
 50
351.0617296813
 51
7.6454051888
  0
ARC
  5
16A
  8
0
  6
CONTINUOUS
 62
     7
 10
2.6088745703
 20
2.15513051
 30
0.0
 40
0.2512223374422896
 50
171.0488337617
 51
187.6852107161
  0
POLYLINE
  5
16B
  8
0
  6
CONTINUOUS
 62
     7
 66
     1
 10
0.0
 20
0.0
 30
0.0
 70
   128
  0
VERTEX
  5
3F1
  8
0
  6
CONTINUOUS
 62
     7
 10
4.3518180344
 20
1.8199285624
 30
0.0
  0
VERTEX
  5
3F2
  8
0
  6
CONTINUOUS
 62
     7
 10
4.3458205283
 20
1.8055835917
 30
0.0
  0
VERTEX
  5
3F3
  8
0
  6
CONTINUOUS
 62
     7
 10
4.330576296
 20
1.7736963919
 30
0.0
  0
VERTEX
  5
3F4
  8
0
  6
CONTINUOUS
 62
     7
 10
4.3128692493
 20
1.7422361247
 30
0.0
  0
VERTEX
  5
3F5
  8
0
  6
CONTINUOUS
 62
     7
 10
4.2927350479
 20
1.7112661469
 30
0.0
  0
VERTEX
  5
3F6
  8
0
  6
CONTINUOUS
 62
     7
 10
4.2702142393
 20
1.6808488279
 30
0.0
  0
VERTEX
  5
3F7
  8
0
  6
CONTINUOUS
 62
     7
 10
4.2453521775
 20
1.6510454242
 30
0.0
  0
VERTEX
  5
3F8
  8
0
  6
CONTINUOUS
 62
     7
 10
4.2181989313
 20
1.6219159558
 30
0.0
  0
VERTEX
  5
3F9
  8
0
  6
CONTINUOUS
 62
     7
 10
4.1888091838
 20
1.5935190857
 30
0.0
  0
VERTEX
  5
3FA
  8
0
  6
CONTINUOUS
 62
     7
 10
4.157242122
 20
1.5659120012
 30
0.0
  0
VERTEX
  5
3FB
  8
0
  6
CONTINUOUS
 62
     7
 10
4.1235613178
 20
1.5391502995
 30
0.0
  0
VERTEX
  5
3FC
  8
0
  6
CONTINUOUS
 62
     7
 10
4.0878345998
 20
1.513287875
 30
0.0
  0
VERTEX
  5
3FD
  8
0
  6
CONTINUOUS
 62
     7
 10
4.0501339168
 20
1.4883768112
 30
0.0
  0
VERTEX
  5
3FE
  8
0
  6
CONTINUOUS
 62
     7
 10
4.0105351932
 20
1.4644672757
 30
0.0
  0
VERTEX
  5
3FF
  8
0
  6
CONTINUOUS
 62
     7
 10
3.9691181753
 20
1.4416074191
 30
0.0
  0
VERTEX
  5
400
  8
0
  6
CONTINUOUS
 62
     7
 10
3.9259662715
 20
1.4198432781
 30
0.0
  0
VERTEX
  5
401
  8
0
  6
CONTINUOUS
 62
     7
 10
3.8811663842
 20
1.3992186828
 30
0.0
  0
VERTEX
  5
402
  8
0
  6
CONTINUOUS
 62
     7
 10
3.8348087341
 20
1.3797751684
 30
0.0
  0
VERTEX
  5
403
  8
0
  6
CONTINUOUS
 62
     7
 10
3.7869866796
 20
1.3615518915
 30
0.0
  0
VERTEX
  5
404
  8
0
  6
CONTINUOUS
 62
     7
 10
3.7377965279
 20
1.3445855514
 30
0.0
  0
VERTEX
  5
405
  8
0
  6
CONTINUOUS
 62
     7
 10
3.6873373413
 20
1.3289103161
 30
0.0
  0
VERTEX
  5
406
  8
0
  6
CONTINUOUS
 62
     7
 10
3.635710738
 20
1.3145577533
 30
0.0
  0
VERTEX
  5
407
  8
0
  6
CONTINUOUS
 62
     7
 10
3.583020687
 20
1.3015567672
 30
0.0
  0
VERTEX
  5
408
  8
0
  6
CONTINUOUS
 62
     7
 10
3.5293732992
 20
1.2899335402
 30
0.0
  0
VERTEX
  5
409
  8
0
  6
CONTINUOUS
 62
     7
 10
3.4748766131
 20
1.2797114797
 30
0.0
  0
VERTEX
  5
40A
  8
0
  6
CONTINUOUS
 62
     7
 10
3.419640378
 20
1.2709111717
 30
0.0
  0
VERTEX
  5
40B
  8
0
  6
CONTINUOUS
 62
     7
 10
3.3637758322
 20
1.2635503389
 30
0.0
  0
VERTEX
  5
40C
  8
0
  6
CONTINUOUS
 62
     7
 10
3.3073954795
 20
1.2576438049
 30
0.0
  0
VERTEX
  5
40D
  8
0
  6
CONTINUOUS
 62
     7
 10
3.2506128624
 20
1.2532034648
 30
0.0
  0
VERTEX
  5
40E
  8
0
  6
CONTINUOUS
 62
     7
 10
3.1935423335
 20
1.2502382608
 30
0.0
  0
VERTEX
  5
40F
  8
0
  6
CONTINUOUS
 62
     7
 10
3.1362988253
 20
1.2487541644
 30
0.0
  0
VERTEX
  5
410
  8
0
  6
CONTINUOUS
 62
     7
 10
3.0789976186
 20
1.2487541644
 30
0.0
  0
VERTEX
  5
411
  8
0
  6
CONTINUOUS
 62
     7
 10
3.0217541104
 20
1.2502382608
 30
0.0
  0
VERTEX
  5
412
  8
0
  6
CONTINUOUS
 62
     7
 10
2.9646835815
 20
1.2532034648
 30
0.0
  0
VERTEX
  5
413
  8
0
  6
CONTINUOUS
 62
     7
 10
2.9079009644
 20
1.2576438049
 30
0.0
  0
VERTEX
  5
414
  8
0
  6
CONTINUOUS
 62
     7
 10
2.8515206117
 20
1.2635503389
 30
0.0
  0
VERTEX
  5
415
  8
0
  6
CONTINUOUS
 62
     7
 10
2.7956560658
 20
1.2709111717
 30
0.0
  0
VERTEX
  5
416
  8
0
  6
CONTINUOUS
 62
     7
 10
2.7404198307
 20
1.2797114797
 30
0.0
  0
VERTEX
  5
417
  8
0
  6
CONTINUOUS
 62
     7
 10
2.6859231447
 20
1.2899335402
 30
0.0
  0
VERTEX
  5
418
  8
0
  6
CONTINUOUS
 62
     7
 10
2.6322757569
 20
1.3015567672
 30
0.0
  0
VERTEX
  5
419
  8
0
  6
CONTINUOUS
 62
     7
 10
2.5795857059
 20
1.3145577533
 30
0.0
  0
VERTEX
  5
41A
  8
0
  6
CONTINUOUS
 62
     7
 10
2.5279591026
 20
1.3289103161
 30
0.0
  0
VERTEX
  5
41B
  8
0
  6
CONTINUOUS
 62
     7
 10
2.477499916
 20
1.3445855514
 30
0.0
  0
VERTEX
  5
41C
  8
0
  6
CONTINUOUS
 62
     7
 10
2.4283097642
 20
1.3615518915
 30
0.0
  0
VERTEX
  5
41D
  8
0
  6
CONTINUOUS
 62
     7
 10
2.3804877097
 20
1.3797751684
 30
0.0
  0
VERTEX
  5
41E
  8
0
  6
CONTINUOUS
 62
     7
 10
2.3341300597
 20
1.3992186828
 30
0.0
  0
VERTEX
  5
41F
  8
0
  6
CONTINUOUS
 62
     7
 10
2.2893301723
 20
1.4198432781
 30
0.0
  0
VERTEX
  5
420
  8
0
  6
CONTINUOUS
 62
     7
 10
2.2461782686
 20
1.4416074191
 30
0.0
  0
VERTEX
  5
421
  8
0
  6
CONTINUOUS
 62
     7
 10
2.2047612507
 20
1.4644672757
 30
0.0
  0
VERTEX
  5
422
  8
0
  6
CONTINUOUS
 62
     7
 10
2.165162527
 20
1.4883768112
 30
0.0
  0
VERTEX
  5
423
  8
0
  6
CONTINUOUS
 62
     7
 10
2.1274618441
 20
1.513287875
 30
0.0
  0
VERTEX
  5
424
  8
0
  6
CONTINUOUS
 62
     7
 10
2.0917351261
 20
1.5391502995
 30
0.0
  0
VERTEX
  5
425
  8
0
  6
CONTINUOUS
 62
     7
 10
2.0580543218
 20
1.5659120012
 30
0.0
  0
VERTEX
  5
426
  8
0
  6
CONTINUOUS
 62
     7
 10
2.02648726
 20
1.5935190857
 30
0.0
  0
VERTEX
  5
427
  8
0
  6
CONTINUOUS
 62
     7
 10
1.9970975125
 20
1.6219159558
 30
0.0
  0
VERTEX
  5
428
  8
0
  6
CONTINUOUS
 62
     7
 10
1.9699442664
 20
1.6510454242
 30
0.0
  0
VERTEX
  5
429
  8
0
  6
CONTINUOUS
 62
     7
 10
1.9450822045
 20
1.6808488279
 30
0.0
  0
VERTEX
  5
42A
  8
0
  6
CONTINUOUS
 62
     7
 10
1.922561396
 20
1.7112661469
 30
0.0
  0
VERTEX
  5
42B
  8
0
  6
CONTINUOUS
 62
     7
 10
1.9024271945
 20
1.7422361247
 30
0.0
  0
VERTEX
  5
42C
  8
0
  6
CONTINUOUS
 62
     7
 10
1.8847201479
 20
1.7736963919
 30
0.0
  0
VERTEX
  5
42D
  8
0
  6
CONTINUOUS
 62
     7
 10
1.8694759156
 20
1.8055835917
 30
0.0
  0
VERTEX
  5
42E
  8
0
  6
CONTINUOUS
 62
     7
 10
1.8639499484
 20
1.8187534701
 30
0.0
  0
SEQEND
  5
6FD
  8
0
  6
CONTINUOUS
 62
     7
  0
POLYLINE
  5
16C
  8
0
  6
CONTINUOUS
 62
     7
 66
     1
 10
0.0
 20
0.0
 30
0.0
 70
   128
  0
VERTEX
  5
42F
  8
0
  6
CONTINUOUS
 62
     7
 10
4.3845232219
 20
1.8468808916
 30
0.0
  0
VERTEX
  5
430
  8
0
  6
CONTINUOUS
 62
     7
 10
4.3842017494
 20
1.8303412504
 30
0.0
  0
VERTEX
  5
431
  8
0
  6
CONTINUOUS
 62
     7
 10
4.3816309405
 20
1.7972952765
 30
0.0
  0
VERTEX
  5
432
  8
0
  6
CONTINUOUS
 62
     7
 10
4.3764944999
 20
1.7643491614
 30
0.0
  0
VERTEX
  5
433
  8
0
  6
CONTINUOUS
 62
     7
 10
4.3688027718
 20
1.7315692543
 30
0.0
  0
VERTEX
  5
434
  8
0
  6
CONTINUOUS
 62
     7
 10
4.3585712463
 20
1.6990215695
 30
0.0
  0
VERTEX
  5
435
  8
0
  6
CONTINUOUS
 62
     7
 10
4.3458205283
 20
1.6667716536
 30
0.0
  0
VERTEX
  5
436
  8
0
  6
CONTINUOUS
 62
     7
 10
4.330576296
 20
1.6348844538
 30
0.0
  0
VERTEX
  5
437
  8
0
  6
CONTINUOUS
 62
     7
 10
4.3128692493
 20
1.6034241866
 30
0.0
  0
VERTEX
  5
438
  8
0
  6
CONTINUOUS
 62
     7
 10
4.2927350479
 20
1.5724542089
 30
0.0
  0
VERTEX
  5
439
  8
0
  6
CONTINUOUS
 62
     7
 10
4.2702142393
 20
1.5420368899
 30
0.0
  0
VERTEX
  5
43A
  8
0
  6
CONTINUOUS
 62
     7
 10
4.2453521775
 20
1.5122334862
 30
0.0
  0
VERTEX
  5
43B
  8
0
  6
CONTINUOUS
 62
     7
 10
4.2181989313
 20
1.4831040178
 30
0.0
  0
VERTEX
  5
43C
  8
0
  6
CONTINUOUS
 62
     7
 10
4.1888091838
 20
1.4547071476
 30
0.0
  0
VERTEX
  5
43D
  8
0
  6
CONTINUOUS
 62
     7
 10
4.157242122
 20
1.4271000632
 30
0.0
  0
VERTEX
  5
43E
  8
0
  6
CONTINUOUS
 62
     7
 10
4.1235613178
 20
1.4003383615
 30
0.0
  0
VERTEX
  5
43F
  8
0
  6
CONTINUOUS
 62
     7
 10
4.0878345998
 20
1.374475937
 30
0.0
  0
VERTEX
  5
440
  8
0
  6
CONTINUOUS
 62
     7
 10
4.0501339168
 20
1.3495648732
 30
0.0
  0
VERTEX
  5
441
  8
0
  6
CONTINUOUS
 62
     7
 10
4.0105351932
 20
1.3256553377
 30
0.0
  0
VERTEX
  5
442
  8
0
  6
CONTINUOUS
 62
     7
 10
3.9691181753
 20
1.3027954811
 30
0.0
  0
VERTEX
  5
443
  8
0
  6
CONTINUOUS
 62
     7
 10
3.9259662715
 20
1.2810313401
 30
0.0
  0
VERTEX
  5
444
  8
0
  6
CONTINUOUS
 62
     7
 10
3.8811663842
 20
1.2604067448
 30
0.0
  0
VERTEX
  5
445
  8
0
  6
CONTINUOUS
 62
     7
 10
3.8348087341
 20
1.2409632304
 30
0.0
  0
VERTEX
  5
446
  8
0
  6
CONTINUOUS
 62
     7
 10
3.7869866796
 20
1.2227399535
 30
0.0
  0
VERTEX
  5
447
  8
0
  6
CONTINUOUS
 62
     7
 10
3.7377965279
 20
1.2057736134
 30
0.0
  0
VERTEX
  5
448
  8
0
  6
CONTINUOUS
 62
     7
 10
3.6873373413
 20
1.1900983781
 30
0.0
  0
VERTEX
  5
449
  8
0
  6
CONTINUOUS
 62
     7
 10
3.635710738
 20
1.1757458153
 30
0.0
  0
VERTEX
  5
44A
  8
0
  6
CONTINUOUS
 62
     7
 10
3.583020687
 20
1.1627448292
 30
0.0
  0
VERTEX
  5
44B
  8
0
  6
CONTINUOUS
 62
     7
 10
3.5293732992
 20
1.1511216022
 30
0.0
  0
VERTEX
  5
44C
  8
0
  6
CONTINUOUS
 62
     7
 10
3.4748766131
 20
1.1408995417
 30
0.0
  0
VERTEX
  5
44D
  8
0
  6
CONTINUOUS
 62
     7
 10
3.419640378
 20
1.1320992337
 30
0.0
  0
VERTEX
  5
44E
  8
0
  6
CONTINUOUS
 62
     7
 10
3.3637758322
 20
1.1247384009
 30
0.0
  0
VERTEX
  5
44F
  8
0
  6
CONTINUOUS
 62
     7
 10
3.3073954795
 20
1.1188318669
 30
0.0
  0
VERTEX
  5
450
  8
0
  6
CONTINUOUS
 62
     7
 10
3.2506128624
 20
1.1143915268
 30
0.0
  0
VERTEX
  5
451
  8
0
  6
CONTINUOUS
 62
     7
 10
3.1935423335
 20
1.1114263228
 30
0.0
  0
VERTEX
  5
452
  8
0
  6
CONTINUOUS
 62
     7
 10
3.1362988253
 20
1.1099422264
 30
0.0
  0
VERTEX
  5
453
  8
0
  6
CONTINUOUS
 62
     7
 10
3.0789976186
 20
1.1099422264
 30
0.0
  0
VERTEX
  5
454
  8
0
  6
CONTINUOUS
 62
     7
 10
3.0217541104
 20
1.1114263228
 30
0.0
  0
VERTEX
  5
455
  8
0
  6
CONTINUOUS
 62
     7
 10
2.9646835815
 20
1.1143915268
 30
0.0
  0
VERTEX
  5
456
  8
0
  6
CONTINUOUS
 62
     7
 10
2.9079009644
 20
1.1188318669
 30
0.0
  0
VERTEX
  5
457
  8
0
  6
CONTINUOUS
 62
     7
 10
2.8515206117
 20
1.1247384009
 30
0.0
  0
VERTEX
  5
458
  8
0
  6
CONTINUOUS
 62
     7
 10
2.7956560658
 20
1.1320992337
 30
0.0
  0
VERTEX
  5
459
  8
0
  6
CONTINUOUS
 62
     7
 10
2.7404198307
 20
1.1408995417
 30
0.0
  0
VERTEX
  5
45A
  8
0
  6
CONTINUOUS
 62
     7
 10
2.6859231447
 20
1.1511216022
 30
0.0
  0
VERTEX
  5
45B
  8
0
  6
CONTINUOUS
 62
     7
 10
2.6322757569
 20
1.1627448292
 30
0.0
  0
VERTEX
  5
45C
  8
0
  6
CONTINUOUS
 62
     7
 10
2.5795857059
 20
1.1757458153
 30
0.0
  0
VERTEX
  5
45D
  8
0
  6
CONTINUOUS
 62
     7
 10
2.5279591026
 20
1.1900983781
 30
0.0
  0
VERTEX
  5
45E
  8
0
  6
CONTINUOUS
 62
     7
 10
2.477499916
 20
1.2057736134
 30
0.0
  0
VERTEX
  5
45F
  8
0
  6
CONTINUOUS
 62
     7
 10
2.4283097642
 20
1.2227399535
 30
0.0
  0
VERTEX
  5
460
  8
0
  6
CONTINUOUS
 62
     7
 10
2.3804877097
 20
1.2409632304
 30
0.0
  0
VERTEX
  5
461
  8
0
  6
CONTINUOUS
 62
     7
 10
2.3341300597
 20
1.2604067448
 30
0.0
  0
VERTEX
  5
462
  8
0
  6
CONTINUOUS
 62
     7
 10
2.2893301723
 20
1.2810313401
 30
0.0
  0
VERTEX
  5
463
  8
0
  6
CONTINUOUS
 62
     7
 10
2.2461782686
 20
1.3027954811
 30
0.0
  0
VERTEX
  5
464
  8
0
  6
CONTINUOUS
 62
     7
 10
2.2047612507
 20
1.3256553377
 30
0.0
  0
VERTEX
  5
465
  8
0
  6
CONTINUOUS
 62
     7
 10
2.165162527
 20
1.3495648732
 30
0.0
  0
VERTEX
  5
466
  8
0
  6
CONTINUOUS
 62
     7
 10
2.1274618441
 20
1.374475937
 30
0.0
  0
VERTEX
  5
467
  8
0
  6
CONTINUOUS
 62
     7
 10
2.0917351261
 20
1.4003383615
 30
0.0
  0
VERTEX
  5
468
  8
0
  6
CONTINUOUS
 62
     7
 10
2.0580543218
 20
1.4271000632
 30
0.0
  0
VERTEX
  5
469
  8
0
  6
CONTINUOUS
 62
     7
 10
2.02648726
 20
1.4547071476
 30
0.0
  0
VERTEX
  5
46A
  8
0
  6
CONTINUOUS
 62
     7
 10
1.9970975125
 20
1.4831040178
 30
0.0
  0
VERTEX
  5
46B
  8
0
  6
CONTINUOUS
 62
     7
 10
1.9699442664
 20
1.5122334862
 30
0.0
  0
VERTEX
  5
46C
  8
0
  6
CONTINUOUS
 62
     7
 10
1.9450822045
 20
1.5420368899
 30
0.0
  0
VERTEX
  5
46D
  8
0
  6
CONTINUOUS
 62
     7
 10
1.922561396
 20
1.5724542089
 30
0.0
  0
VERTEX
  5
46E
  8
0
  6
CONTINUOUS
 62
     7
 10
1.9024271945
 20
1.6034241866
 30
0.0
  0
VERTEX
  5
46F
  8
0
  6
CONTINUOUS
 62
     7
 10
1.8847201479
 20
1.6348844538
 30
0.0
  0
VERTEX
  5
470
  8
0
  6
CONTINUOUS
 62
     7
 10
1.8694759156
 20
1.6667716536
 30
0.0
  0
VERTEX
  5
471
  8
0
  6
CONTINUOUS
 62
     7
 10
1.8567251976
 20
1.6990215695
 30
0.0
  0
VERTEX
  5
472
  8
0
  6
CONTINUOUS
 62
     7
 10
1.846493672
 20
1.7315692543
 30
0.0
  0
VERTEX
  5
473
  8
0
  6
CONTINUOUS
 62
     7
 10
1.8388019439
 20
1.7643491614
 30
0.0
  0
VERTEX
  5
474
  8
0
  6
CONTINUOUS
 62
     7
 10
1.8336655034
 20
1.7972952765
 30
0.0
  0
VERTEX
  5
475
  8
0
  6
CONTINUOUS
 62
     7
 10
1.8310946944
 20
1.8303412504
 30
0.0
  0
VERTEX
  5
476
  8
0
  6
CONTINUOUS
 62
     7
 10
1.8307732219
 20
1.8468808916
 30
0.0
  0
SEQEND
  5
6FE
  8
0
  6
CONTINUOUS
 62
     7
  0
POLYLINE
  5
16D
  8
0
  6
CONTINUOUS
 62
     7
 66
     1
 10
0.0
 20
0.0
 30
0.0
 70
   128
  0
VERTEX
  5
477
  8
0
  6
CONTINUOUS
 62
     7
 10
3.9965374684
 20
1.3175719827
 30
0.0
  0
VERTEX
  5
478
  8
0
  6
CONTINUOUS
 62
     7
 10
3.9760809167
 20
1.3060247256
 30
0.0
  0
VERTEX
  5
479
  8
0
  6
CONTINUOUS
 62
     7
 10
3.9341364485
 20
1.2839064745
 30
0.0
  0
VERTEX
  5
47A
  8
0
  6
CONTINUOUS
 62
     7
 10
3.8905035122
 20
1.2629049849
 30
0.0
  0
VERTEX
  5
47B
  8
0
  6
CONTINUOUS
 62
     7
 10
3.8452712474
 20
1.2430631617
 30
0.0
  0
VERTEX
  5
47C
  8
0
  6
CONTINUOUS
 62
     7
 10
3.798532061
 20
1.2244215407
 30
0.0
  0
VERTEX
  5
47D
  8
0
  6
CONTINUOUS
 62
     7
 10
3.7503814386
 20
1.2070182055
 30
0.0
  0
VERTEX
  5
47E
  8
0
  6
CONTINUOUS
 62
     7
 10
3.7009177489
 20
1.1908887102
 30
0.0
  0
VERTEX
  5
47F
  8
0
  6
CONTINUOUS
 62
     7
 10
3.6502420437
 20
1.1760660064
 30
0.0
  0
VERTEX
  5
480
  8
0
  6
CONTINUOUS
 62
     7
 10
3.5984578504
 20
1.1625803761
 30
0.0
  0
VERTEX
  5
481
  8
0
  6
CONTINUOUS
 62
     7
 10
3.5456709611
 20
1.1504593695
 30
0.0
  0
VERTEX
  5
482
  8
0
  6
CONTINUOUS
 62
     7
 10
3.4919892164
 20
1.1397277494
 30
0.0
  0
VERTEX
  5
483
  8
0
  6
CONTINUOUS
 62
     7
 10
3.4375222851
 20
1.1304074396
 30
0.0
  0
VERTEX
  5
484
  8
0
  6
CONTINUOUS
 62
     7
 10
3.3823814401
 20
1.1225174811
 30
0.0
  0
VERTEX
  5
485
  8
0
  6
CONTINUOUS
 62
     7
 10
3.3266793308
 20
1.1160739927
 30
0.0
  0
VERTEX
  5
486
  8
0
  6
CONTINUOUS
 62
     7
 10
3.2705297534
 20
1.1110901379
 30
0.0
  0
VERTEX
  5
487
  8
0
  6
CONTINUOUS
 62
     7
 10
3.2140474185
 20
1.1075760986
 30
0.0
  0
VERTEX
  5
488
  8
0
  6
CONTINUOUS
 62
     7
 10
3.1573477161
 20
1.1055390537
 30
0.0
  0
VERTEX
  5
489
  8
0
  6
CONTINUOUS
 62
     7
 10
3.1005464805
 20
1.1049831648
 30
0.0
  0
VERTEX
  5
48A
  8
0
  6
CONTINUOUS
 62
     7
 10
3.0437597533
 20
1.1059095675
 30
0.0
  0
VERTEX
  5
48B
  8
0
  6
CONTINUOUS
 62
     7
 10
2.9871035466
 20
1.1083163692
 30
0.0
  0
VERTEX
  5
48C
  8
0
  6
CONTINUOUS
 62
     7
 10
2.9306936058
 20
1.112198653
 30
0.0
  0
VERTEX
  5
48D
  8
0
  6
CONTINUOUS
 62
     7
 10
2.8746451731
 20
1.1175484876
 30
0.0
  0
VERTEX
  5
48E
  8
0
  6
CONTINUOUS
 62
     7
 10
2.8190727523
 20
1.1243549436
 30
0.0
  0
VERTEX
  5
48F
  8
0
  6
CONTINUOUS
 62
     7
 10
2.7640898746
 20
1.1326041157
 30
0.0
  0
VERTEX
  5
490
  8
0
  6
CONTINUOUS
 62
     7
 10
2.7098088669
 20
1.1422791515
 30
0.0
  0
VERTEX
  5
491
  8
0
  6
CONTINUOUS
 62
     7
 10
2.6563406223
 20
1.1533602853
 30
0.0
  0
VERTEX
  5
492
  8
0
  6
CONTINUOUS
 62
     7
 10
2.6037943732
 20
1.1658248791
 30
0.0
  0
VERTEX
  5
493
  8
0
  6
CONTINUOUS
 62
     7
 10
2.5522774687
 20
1.1796474684
 30
0.0
  0
VERTEX
  5
494
  8
0
  6
CONTINUOUS
 62
     7
 10
2.5018951548
 20
1.1947998144
 30
0.0
  0
VERTEX
  5
495
  8
0
  6
CONTINUOUS
 62
     7
 10
2.4527503597
 20
1.2112509617
 30
0.0
  0
VERTEX
  5
496
  8
0
  6
CONTINUOUS
 62
     7
 10
2.4049434834
 20
1.2289673016
 30
0.0
  0
VERTEX
  5
497
  8
0
  6
CONTINUOUS
 62
     7
 10
2.3585721926
 20
1.2479126407
 30
0.0
  0
VERTEX
  5
498
  8
0
  6
CONTINUOUS
 62
     7
 10
2.3137312213
 20
1.2680482747
 30
0.0
  0
VERTEX
  5
499
  8
0
  6
CONTINUOUS
 62
     7
 10
2.2705121768
 20
1.2893330676
 30
0.0
  0
VERTEX
  5
49A
  8
0
  6
CONTINUOUS
 62
     7
 10
2.2290033534
 20
1.3117235359
 30
0.0
  0
VERTEX
  5
49B
  8
0
  6
CONTINUOUS
 62
     7
 10
2.2187589755
 20
1.3175719827
 30
0.0
  0
SEQEND
  5
6FF
  8
0
  6
CONTINUOUS
 62
     7
  0
POLYLINE
  5
16E
  8
0
  6
CONTINUOUS
 62
     7
 66
     1
 10
0.0
 20
0.0
 30
0.0
 70
   128
  0
VERTEX
  5
49C
  8
0
  6
CONTINUOUS
 62
     7
 10
2.5631760004
 20
2.3000099527
 30
0.0
  0
VERTEX
  5
49D
  8
0
  6
CONTINUOUS
 62
     7
 10
2.5954484662
 20
2.3175963208
 30
0.0
  0
VERTEX
  5
49E
  8
0
  6
CONTINUOUS
 62
     7
 10
2.6294224081
 20
2.3340801388
 30
0.0
  0
VERTEX
  5
49F
  8
0
  6
CONTINUOUS
 62
     7
 10
2.664984968
 20
2.3494066493
 30
0.0
  0
VERTEX
  5
4A0
  8
0
  6
CONTINUOUS
 62
     7
 10
2.7020180108
 20
2.363524939
 30
0.0
  0
VERTEX
  5
4A1
  8
0
  6
CONTINUOUS
 62
     7
 10
2.7403985163
 20
2.3763881084
 30
0.0
  0
VERTEX
  5
4A2
  8
0
  6
CONTINUOUS
 62
     7
 10
2.7799989884
 20
2.3879534274
 30
0.0
  0
VERTEX
  5
4A3
  8
0
  6
CONTINUOUS
 62
     7
 10
2.8206878783
 20
2.3981824772
 30
0.0
  0
VERTEX
  5
4A4
  8
0
  6
CONTINUOUS
 62
     7
 10
2.8623300217
 20
2.4070412779
 30
0.0
  0
VERTEX
  5
4A5
  8
0
  6
CONTINUOUS
 62
     7
 10
2.9047870874
 20
2.4145004013
 30
0.0
  0
VERTEX
  5
4A6
  8
0
  6
CONTINUOUS
 62
     7
 10
2.9479180374
 20
2.4205350692
 30
0.0
  0
VERTEX
  5
4A7
  8
0
  6
CONTINUOUS
 62
     7
 10
2.991579595
 20
2.4251252348
 30
0.0
  0
VERTEX
  5
4A8
  8
0
  6
CONTINUOUS
 62
     7
 10
3.0356267209
 20
2.4282556502
 30
0.0
  0
VERTEX
  5
4A9
  8
0
  6
CONTINUOUS
 62
     7
 10
3.079913095
 20
2.4299159164
 30
0.0
  0
VERTEX
  5
4AA
  8
0
  6
CONTINUOUS
 62
     7
 10
3.1242916024
 20
2.4301005182
 30
0.0
  0
VERTEX
  5
4AB
  8
0
  6
CONTINUOUS
 62
     7
 10
3.1686148221
 20
2.4288088423
 30
0.0
  0
VERTEX
  5
4AC
  8
0
  6
CONTINUOUS
 62
     7
 10
3.212735517
 20
2.4260451796
 30
0.0
  0
VERTEX
  5
4AD
  8
0
  6
CONTINUOUS
 62
     7
 10
3.2565071224
 20
2.4218187107
 30
0.0
  0
VERTEX
  5
4AE
  8
0
  6
CONTINUOUS
 62
     7
 10
3.2997842335
 20
2.4161434755
 30
0.0
  0
VERTEX
  5
4AF
  8
0
  6
CONTINUOUS
 62
     7
 10
3.3424230881
 20
2.4090383265
 30
0.0
  0
VERTEX
  5
4B0
  8
0
  6
CONTINUOUS
 62
     7
 10
3.3842820443
 20
2.4005268664
 30
0.0
  0
VERTEX
  5
4B1
  8
0
  6
CONTINUOUS
 62
     7
 10
3.4252220506
 20
2.3906373692
 30
0.0
  0
VERTEX
  5
4B2
  8
0
  6
CONTINUOUS
 62
     7
 10
3.4651071087
 20
2.3794026871
 30
0.0
  0
VERTEX
  5
4B3
  8
0
  6
CONTINUOUS
 62
     7
 10
3.5038047243
 20
2.3668601404
 30
0.0
  0
VERTEX
  5
4B4
  8
0
  6
CONTINUOUS
 62
     7
 10
3.5411863478
 20
2.3530513942
 30
0.0
  0
VERTEX
  5
4B5
  8
0
  6
CONTINUOUS
 62
     7
 10
3.5771278013
 20
2.3380223199
 30
0.0
  0
VERTEX
  5
4B6
  8
0
  6
CONTINUOUS
 62
     7
 10
3.6115096908
 20
2.3218228423
 30
0.0
  0
VERTEX
  5
4B7
  8
0
  6
CONTINUOUS
 62
     7
 10
3.6442178032
 20
2.3045067747
 30
0.0
  0
VERTEX
  5
4B8
  8
0
  6
CONTINUOUS
 62
     7
 10
3.6751434854
 20
2.2861316392
 30
0.0
  0
VERTEX
  5
4B9
  8
0
  6
CONTINUOUS
 62
     7
 10
3.7041840054
 20
2.2667584763
 30
0.0
  0
VERTEX
  5
4BA
  8
0
  6
CONTINUOUS
 62
     7
 10
3.7312428936
 20
2.2464516415
 30
0.0
  0
VERTEX
  5
4BB
  8
0
  6
CONTINUOUS
 62
     7
 10
3.7562302629
 20
2.2252785921
 30
0.0
  0
VERTEX
  5
4BC
  8
0
  6
CONTINUOUS
 62
     7
 10
3.7790631079
 20
2.203309663
 30
0.0
  0
VERTEX
  5
4BD
  8
0
  6
CONTINUOUS
 62
     7
 10
3.7996655802
 20
2.1806178326
 30
0.0
  0
VERTEX
  5
4BE
  8
0
  6
CONTINUOUS
 62
     7
 10
3.8179692404
 20
2.1572784809
 30
0.0
  0
VERTEX
  5
4BF
  8
0
  6
CONTINUOUS
 62
     7
 10
3.8339132857
 20
2.133369139
 30
0.0
  0
VERTEX
  5
4C0
  8
0
  6
CONTINUOUS
 62
     7
 10
3.8437707935
 20
2.1160928593
 30
0.0
  0
SEQEND
  5
700
  8
0
  6
CONTINUOUS
 62
     7
  0
ARC
  5
16F
  8
0
  6
CONTINUOUS
 62
     7
 10
2.7891413607
 20
1.8732188773
 30
0.0
 40
0.4829192127342295
 50
117.8990686822
 51
150.3630297222
  0
POLYLINE
  5
170
  8
0
  6
CONTINUOUS
 62
     7
 66
     1
 10
0.0
 20
0.0
 30
0.0
 70
   128
  0
VERTEX
  5
4C1
  8
0
  6
CONTINUOUS
 62
     7
 10
2.5631760004
 20
2.1611980147
 30
0.0
  0
VERTEX
  5
4C2
  8
0
  6
CONTINUOUS
 62
     7
 10
2.5954484662
 20
2.1787843827
 30
0.0
  0
VERTEX
  5
4C3
  8
0
  6
CONTINUOUS
 62
     7
 10
2.6294224081
 20
2.1952682008
 30
0.0
  0
VERTEX
  5
4C4
  8
0
  6
CONTINUOUS
 62
     7
 10
2.664984968
 20
2.2105947112
 30
0.0
  0
VERTEX
  5
4C5
  8
0
  6
CONTINUOUS
 62
     7
 10
2.7020180108
 20
2.224713001
 30
0.0
  0
VERTEX
  5
4C6
  8
0
  6
CONTINUOUS
 62
     7
 10
2.7403985163
 20
2.2375761704
 30
0.0
  0
VERTEX
  5
4C7
  8
0
  6
CONTINUOUS
 62
     7
 10
2.7799989884
 20
2.2491414894
 30
0.0
  0
VERTEX
  5
4C8
  8
0
  6
CONTINUOUS
 62
     7
 10
2.8206878783
 20
2.2593705392
 30
0.0
  0
VERTEX
  5
4C9
  8
0
  6
CONTINUOUS
 62
     7
 10
2.8623300217
 20
2.2682293398
 30
0.0
  0
VERTEX
  5
4CA
  8
0
  6
CONTINUOUS
 62
     7
 10
2.9047870874
 20
2.2756884633
 30
0.0
  0
VERTEX
  5
4CB
  8
0
  6
CONTINUOUS
 62
     7
 10
2.9479180374
 20
2.2817231311
 30
0.0
  0
VERTEX
  5
4CC
  8
0
  6
CONTINUOUS
 62
     7
 10
2.991579595
 20
2.2863132968
 30
0.0
  0
VERTEX
  5
4CD
  8
0
  6
CONTINUOUS
 62
     7
 10
3.0356267209
 20
2.2894437122
 30
0.0
  0
VERTEX
  5
4CE
  8
0
  6
CONTINUOUS
 62
     7
 10
3.079913095
 20
2.2911039784
 30
0.0
  0
VERTEX
  5
4CF
  8
0
  6
CONTINUOUS
 62
     7
 10
3.1242916024
 20
2.2912885802
 30
0.0
  0
VERTEX
  5
4D0
  8
0
  6
CONTINUOUS
 62
     7
 10
3.1686148221
 20
2.2899969043
 30
0.0
  0
VERTEX
  5
4D1
  8
0
  6
CONTINUOUS
 62
     7
 10
3.212735517
 20
2.2872332416
 30
0.0
  0
VERTEX
  5
4D2
  8
0
  6
CONTINUOUS
 62
     7
 10
3.2565071224
 20
2.2830067727
 30
0.0
  0
VERTEX
  5
4D3
  8
0
  6
CONTINUOUS
 62
     7
 10
3.2997842335
 20
2.2773315375
 30
0.0
  0
VERTEX
  5
4D4
  8
0
  6
CONTINUOUS
 62
     7
 10
3.3424230881
 20
2.2702263885
 30
0.0
  0
VERTEX
  5
4D5
  8
0
  6
CONTINUOUS
 62
     7
 10
3.3842820443
 20
2.2617149283
 30
0.0
  0
VERTEX
  5
4D6
  8
0
  6
CONTINUOUS
 62
     7
 10
3.4252220506
 20
2.2518254312
 30
0.0
  0
VERTEX
  5
4D7
  8
0
  6
CONTINUOUS
 62
     7
 10
3.4651071087
 20
2.2405907491
 30
0.0
  0
VERTEX
  5
4D8
  8
0
  6
CONTINUOUS
 62
     7
 10
3.5038047243
 20
2.2280482024
 30
0.0
  0
VERTEX
  5
4D9
  8
0
  6
CONTINUOUS
 62
     7
 10
3.5411863478
 20
2.2142394562
 30
0.0
  0
VERTEX
  5
4DA
  8
0
  6
CONTINUOUS
 62
     7
 10
3.5771278013
 20
2.1992103818
 30
0.0
  0
VERTEX
  5
4DB
  8
0
  6
CONTINUOUS
 62
     7
 10
3.6115096908
 20
2.1830109043
 30
0.0
  0
VERTEX
  5
4DC
  8
0
  6
CONTINUOUS
 62
     7
 10
3.6442178032
 20
2.1656948367
 30
0.0
  0
VERTEX
  5
4DD
  8
0
  6
CONTINUOUS
 62
     7
 10
3.6751434854
 20
2.1473197012
 30
0.0
  0
VERTEX
  5
4DE
  8
0
  6
CONTINUOUS
 62
     7
 10
3.7041840054
 20
2.1279465382
 30
0.0
  0
VERTEX
  5
4DF
  8
0
  6
CONTINUOUS
 62
     7
 10
3.7312428936
 20
2.1076397034
 30
0.0
  0
VERTEX
  5
4E0
  8
0
  6
CONTINUOUS
 62
     7
 10
3.7562302629
 20
2.0864666541
 30
0.0
  0
VERTEX
  5
4E1
  8
0
  6
CONTINUOUS
 62
     7
 10
3.7790631079
 20
2.0644977249
 30
0.0
  0
VERTEX
  5
4E2
  8
0
  6
CONTINUOUS
 62
     7
 10
3.7996655802
 20
2.0418058945
 30
0.0
  0
VERTEX
  5
4E3
  8
0
  6
CONTINUOUS
 62
     7
 10
3.8175083738
 20
2.0191009828
 30
0.0
  0
SEQEND
  5
701
  8
0
  6
CONTINUOUS
 62
     7
  0
ARC
  5
171
  8
0
  6
CONTINUOUS
 62
     7
 10
2.8223091799
 20
1.6923548483
 30
0.0
 40
0.5356901336732741
 50
118.9297622242
 51
142.4792290564
  0
ARC
  5
172
  8
0
  6
CONTINUOUS
 62
     7
 10
3.1076482219
 20
1.0717588212
 30
0.0
 40
1.217408620710818
 50
63.0607141652
 51
116.9392858348
  0
ARC
  5
173
  8
0
  6
CONTINUOUS
 62
     7
 10
3.9700632449
 20
1.7978884837
 30
0.0
 40
0.4344525116075675
 50
351.5496193334
 51
8.4556408514
  0
ARC
  5
174
  8
0
  6
CONTINUOUS
 62
     7
 10
2.2454294059
 20
1.7978873993
 30
0.0
 40
0.4346476858501379
 50
171.1316879059
 51
188.9815250974
  0
ARC
  5
175
  8
0
  6
CONTINUOUS
 62
     7
 10
3.969962709
 20
1.6775069549
 30
0.0
 40
0.4345605168475716
 50
351.5439717
 51
359.992315693
  0
ARC
  5
176
  8
0
  6
CONTINUOUS
 62
     7
 10
2.2459491861
 20
1.6775429516
 30
0.0
 40
0.4351759743834022
 50
180.0124128055
 51
188.9832376487
  0
POLYLINE
  5
177
  8
0
  6
CONTINUOUS
 62
     8
 66
     1
 10
0.0
 20
0.0
 30
0.0
 70
   128
  0
VERTEX
  5
4E4
  8
0
  6
CONTINUOUS
 62
     8
 10
4.3997991222
 20
2.0912810552
 30
0.0
  0
VERTEX
  5
4E5
  8
0
  6
CONTINUOUS
 62
     8
 10
4.3987131306
 20
2.0843368453
 30
0.0
  0
VERTEX
  5
4E6
  8
0
  6
CONTINUOUS
 62
     8
 10
4.3919690594
 20
2.05120564
 30
0.0
  0
VERTEX
  5
4E7
  8
0
  6
CONTINUOUS
 62
     8
 10
4.3826750881
 20
2.0182807571
 30
0.0
  0
VERTEX
  5
4E8
  8
0
  6
CONTINUOUS
 62
     8
 10
4.370849669
 20
1.9856275658
 30
0.0
  0
VERTEX
  5
4E9
  8
0
  6
CONTINUOUS
 62
     8
 10
4.3565162803
 20
1.9533108961
 30
0.0
  0
VERTEX
  5
4EA
  8
0
  6
CONTINUOUS
 62
     8
 10
4.3397033796
 20
1.9213949097
 30
0.0
  0
VERTEX
  5
4EB
  8
0
  6
CONTINUOUS
 62
     8
 10
4.3204443475
 20
1.8899429729
 30
0.0
  0
VERTEX
  5
4EC
  8
0
  6
CONTINUOUS
 62
     8
 10
4.298777421
 20
1.8590175305
 30
0.0
  0
VERTEX
  5
4ED
  8
0
  6
CONTINUOUS
 62
     8
 10
4.2747456177
 20
1.8286799823
 30
0.0
  0
VERTEX
  5
4EE
  8
0
  6
CONTINUOUS
 62
     8
 10
4.2483966505
 20
1.7989905604
 30
0.0
  0
VERTEX
  5
4EF
  8
0
  6
CONTINUOUS
 62
     8
 10
4.219782833
 20
1.7700082106
 30
0.0
  0
VERTEX
  5
4F0
  8
0
  6
CONTINUOUS
 62
     8
 10
4.1889609751
 20
1.7417904747
 30
0.0
  0
VERTEX
  5
4F1
  8
0
  6
CONTINUOUS
 62
     8
 10
4.1559922708
 20
1.7143933763
 30
0.0
  0
VERTEX
  5
4F2
  8
0
  6
CONTINUOUS
 62
     8
 10
4.1209421764
 20
1.6878713098
 30
0.0
  0
VERTEX
  5
4F3
  8
0
  6
CONTINUOUS
 62
     8
 10
4.0838802807
 20
1.6622769324
 30
0.0
  0
VERTEX
  5
4F4
  8
0
  6
CONTINUOUS
 62
     8
 10
4.0448801667
 20
1.6376610593
 30
0.0
  0
VERTEX
  5
4F5
  8
0
  6
CONTINUOUS
 62
     8
 10
4.0040192653
 20
1.614072563
 30
0.0
  0
VERTEX
  5
4F6
  8
0
  6
CONTINUOUS
 62
     8
 10
3.9613787022
 20
1.5915582764
 30
0.0
  0
VERTEX
  5
4F7
  8
0
  6
CONTINUOUS
 62
     8
 10
3.9170431363
 20
1.5701628994
 30
0.0
  0
VERTEX
  5
4F8
  8
0
  6
CONTINUOUS
 62
     8
 10
3.8711005917
 20
1.5499289107
 30
0.0
  0
VERTEX
  5
4F9
  8
0
  6
CONTINUOUS
 62
     8
 10
3.823642283
 20
1.5308964828
 30
0.0
  0
VERTEX
  5
4FA
  8
0
  6
CONTINUOUS
 62
     8
 10
3.7747624345
 20
1.513103403
 30
0.0
  0
VERTEX
  5
4FB
  8
0
  6
CONTINUOUS
 62
     8
 10
3.7245580924
 20
1.4965849977
 30
0.0
  0
VERTEX
  5
4FC
  8
0
  6
CONTINUOUS
 62
     8
 10
3.6731289329
 20
1.4813740627
 30
0.0
  0
VERTEX
  5
4FD
  8
0
  6
CONTINUOUS
 62
     8
 10
3.6205770637
 20
1.467500798
 30
0.0
  0
VERTEX
  5
4FE
  8
0
  6
CONTINUOUS
 62
     8
 10
3.5670068219
 20
1.4549927475
 30
0.0
  0
VERTEX
  5
4FF
  8
0
  6
CONTINUOUS
 62
     8
 10
3.512524566
 20
1.4438747449
 30
0.0
  0
VERTEX
  5
500
  8
0
  6
CONTINUOUS
 62
     8
 10
3.4572384657
 20
1.434168864
 30
0.0
  0
VERTEX
  5
501
  8
0
  6
CONTINUOUS
 62
     8
 10
3.4012582862
 20
1.4258943748
 30
0.0
  0
VERTEX
  5
502
  8
0
  6
CONTINUOUS
 62
     8
 10
3.3446951712
 20
1.4190677057
 30
0.0
  0
VERTEX
  5
503
  8
0
  6
CONTINUOUS
 62
     8
 10
3.2876614214
 20
1.4137024102
 30
0.0
  0
VERTEX
  5
504
  8
0
  6
CONTINUOUS
 62
     8
 10
3.2302702721
 20
1.4098091408
 30
0.0
  0
VERTEX
  5
505
  8
0
  6
CONTINUOUS
 62
     8
 10
3.172635668
 20
1.4073956271
 30
0.0
  0
VERTEX
  5
506
  8
0
  6
CONTINUOUS
 62
     8
 10
3.1148720374
 20
1.406466661
 30
0.0
  0
VERTEX
  5
507
  8
0
  6
CONTINUOUS
 62
     8
 10
3.0570940645
 20
1.4070240868
 30
0.0
  0
VERTEX
  5
508
  8
0
  6
CONTINUOUS
 62
     8
 10
2.9994164623
 20
1.4090667978
 30
0.0
  0
VERTEX
  5
509
  8
0
  6
CONTINUOUS
 62
     8
 10
2.9419537441
 20
1.4125907384
 30
0.0
  0
VERTEX
  5
50A
  8
0
  6
CONTINUOUS
 62
     8
 10
2.8848199971
 20
1.4175889122
 30
0.0
  0
VERTEX
  5
50B
  8
0
  6
CONTINUOUS
 62
     8
 10
2.8281286548
 20
1.4240513956
 30
0.0
  0
VERTEX
  5
50C
  8
0
  6
CONTINUOUS
 62
     8
 10
2.7719922728
 20
1.4319653582
 30
0.0
  0
VERTEX
  5
50D
  8
0
  6
CONTINUOUS
 62
     8
 10
2.7165223046
 20
1.4413150873
 30
0.0
  0
VERTEX
  5
50E
  8
0
  6
CONTINUOUS
 62
     8
 10
2.6618288807
 20
1.4520820201
 30
0.0
  0
VERTEX
  5
50F
  8
0
  6
CONTINUOUS
 62
     8
 10
2.6080205898
 20
1.4642447797
 30
0.0
  0
VERTEX
  5
510
  8
0
  6
CONTINUOUS
 62
     8
 10
2.5552042634
 20
1.4777792182
 30
0.0
  0
VERTEX
  5
511
  8
0
  6
CONTINUOUS
 62
     8
 10
2.5034847633
 20
1.4926584641
 30
0.0
  0
VERTEX
  5
512
  8
0
  6
CONTINUOUS
 62
     8
 10
2.4529647738
 20
1.5088529761
 30
0.0
  0
VERTEX
  5
513
  8
0
  6
CONTINUOUS
 62
     8
 10
2.4037445977
 20
1.5263306014
 30
0.0
  0
VERTEX
  5
514
  8
0
  6
CONTINUOUS
 62
     8
 10
2.3559219571
 20
1.5450566399
 30
0.0
  0
VERTEX
  5
515
  8
0
  6
CONTINUOUS
 62
     8
 10
2.3095917994
 20
1.5649939128
 30
0.0
  0
VERTEX
  5
516
  8
0
  6
CONTINUOUS
 62
     8
 10
2.2648461089
 20
1.5861028364
 30
0.0
  0
VERTEX
  5
517
  8
0
  6
CONTINUOUS
 62
     8
 10
2.2217737239
 20
1.608341501
 30
0.0
  0
VERTEX
  5
518
  8
0
  6
CONTINUOUS
 62
     8
 10
2.1804601608
 20
1.6316657537
 30
0.0
  0
VERTEX
  5
519
  8
0
  6
CONTINUOUS
 62
     8
 10
2.1409874437
 20
1.6560292863
 30
0.0
  0
VERTEX
  5
51A
  8
0
  6
CONTINUOUS
 62
     8
 10
2.1034339421
 20
1.6813837274
 30
0.0
  0
VERTEX
  5
51B
  8
0
  6
CONTINUOUS
 62
     8
 10
2.0678742151
 20
1.707678738
 30
0.0
  0
VERTEX
  5
51C
  8
0
  6
CONTINUOUS
 62
     8
 10
2.034378863
 20
1.7348621119
 30
0.0
  0
VERTEX
  5
51D
  8
0
  6
CONTINUOUS
 62
     8
 10
2.003014388
 20
1.7628798789
 30
0.0
  0
VERTEX
  5
51E
  8
0
  6
CONTINUOUS
 62
     8
 10
1.9738430611
 20
1.7916764124
 30
0.0
  0
VERTEX
  5
51F
  8
0
  6
CONTINUOUS
 62
     8
 10
1.9469227995
 20
1.8211945395
 30
0.0
  0
VERTEX
  5
520
  8
0
  6
CONTINUOUS
 62
     8
 10
1.9223070507
 20
1.8513756547
 30
0.0
  0
VERTEX
  5
521
  8
0
  6
CONTINUOUS
 62
     8
 10
1.9000446872
 20
1.8821598362
 30
0.0
  0
VERTEX
  5
522
  8
0
  6
CONTINUOUS
 62
     8
 10
1.8801799086
 20
1.9134859649
 30
0.0
  0
VERTEX
  5
523
  8
0
  6
CONTINUOUS
 62
     8
 10
1.8627521548
 20
1.9452918457
 30
0.0
  0
VERTEX
  5
524
  8
0
  6
CONTINUOUS
 62
     8
 10
1.8477960269
 20
1.9775143308
 30
0.0
  0
VERTEX
  5
525
  8
0
  6
CONTINUOUS
 62
     8
 10
1.8353412189
 20
2.0100894455
 30
0.0
  0
VERTEX
  5
526
  8
0
  6
CONTINUOUS
 62
     8
 10
1.8254124586
 20
2.0429525151
 30
0.0
  0
VERTEX
  5
527
  8
0
  6
CONTINUOUS
 62
     8
 10
1.8180294588
 20
2.0760382928
 30
0.0
  0
VERTEX
  5
528
  8
0
  6
CONTINUOUS
 62
     8
 10
1.8161110521
 20
2.0872685555
 30
0.0
  0
SEQEND
  5
702
  8
0
  6
CONTINUOUS
 62
     8
  0
POLYLINE
  5
178
  8
0
  6
CONTINUOUS
 62
     8
 66
     1
 10
0.0
 20
0.0
 30
0.0
 70
   128
  0
VERTEX
  5
529
  8
0
  6
CONTINUOUS
 62
     8
 10
4.3997991222
 20
1.9708412855
 30
0.0
  0
VERTEX
  5
52A
  8
0
  6
CONTINUOUS
 62
     8
 10
4.3987131306
 20
1.9638970756
 30
0.0
  0
VERTEX
  5
52B
  8
0
  6
CONTINUOUS
 62
     8
 10
4.3919690594
 20
1.9307658703
 30
0.0
  0
VERTEX
  5
52C
  8
0
  6
CONTINUOUS
 62
     8
 10
4.3826750881
 20
1.8978409873
 30
0.0
  0
VERTEX
  5
52D
  8
0
  6
CONTINUOUS
 62
     8
 10
4.370849669
 20
1.8651877961
 30
0.0
  0
VERTEX
  5
52E
  8
0
  6
CONTINUOUS
 62
     8
 10
4.3565162803
 20
1.8328711264
 30
0.0
  0
VERTEX
  5
52F
  8
0
  6
CONTINUOUS
 62
     8
 10
4.3397033796
 20
1.80095514
 30
0.0
  0
VERTEX
  5
530
  8
0
  6
CONTINUOUS
 62
     8
 10
4.3204443475
 20
1.7695032032
 30
0.0
  0
VERTEX
  5
531
  8
0
  6
CONTINUOUS
 62
     8
 10
4.298777421
 20
1.7385777608
 30
0.0
  0
VERTEX
  5
532
  8
0
  6
CONTINUOUS
 62
     8
 10
4.2747456177
 20
1.7082402125
 30
0.0
  0
VERTEX
  5
533
  8
0
  6
CONTINUOUS
 62
     8
 10
4.2483966505
 20
1.6785507907
 30
0.0
  0
VERTEX
  5
534
  8
0
  6
CONTINUOUS
 62
     8
 10
4.219782833
 20
1.6495684409
 30
0.0
  0
VERTEX
  5
535
  8
0
  6
CONTINUOUS
 62
     8
 10
4.1889609751
 20
1.6213507049
 30
0.0
  0
VERTEX
  5
536
  8
0
  6
CONTINUOUS
 62
     8
 10
4.1559922708
 20
1.5939536065
 30
0.0
  0
VERTEX
  5
537
  8
0
  6
CONTINUOUS
 62
     8
 10
4.1209421764
 20
1.5674315401
 30
0.0
  0
VERTEX
  5
538
  8
0
  6
CONTINUOUS
 62
     8
 10
4.0838802807
 20
1.5418371626
 30
0.0
  0
VERTEX
  5
539
  8
0
  6
CONTINUOUS
 62
     8
 10
4.0448801667
 20
1.5172212895
 30
0.0
  0
VERTEX
  5
53A
  8
0
  6
CONTINUOUS
 62
     8
 10
4.0040192653
 20
1.4936327933
 30
0.0
  0
VERTEX
  5
53B
  8
0
  6
CONTINUOUS
 62
     8
 10
3.9613787022
 20
1.4711185066
 30
0.0
  0
VERTEX
  5
53C
  8
0
  6
CONTINUOUS
 62
     8
 10
3.9170431363
 20
1.4497231297
 30
0.0
  0
VERTEX
  5
53D
  8
0
  6
CONTINUOUS
 62
     8
 10
3.8711005917
 20
1.4294891409
 30
0.0
  0
VERTEX
  5
53E
  8
0
  6
CONTINUOUS
 62
     8
 10
3.823642283
 20
1.410456713
 30
0.0
  0
VERTEX
  5
53F
  8
0
  6
CONTINUOUS
 62
     8
 10
3.7747624345
 20
1.3926636332
 30
0.0
  0
VERTEX
  5
540
  8
0
  6
CONTINUOUS
 62
     8
 10
3.7245580924
 20
1.3761452279
 30
0.0
  0
VERTEX
  5
541
  8
0
  6
CONTINUOUS
 62
     8
 10
3.6731289329
 20
1.360934293
 30
0.0
  0
VERTEX
  5
542
  8
0
  6
CONTINUOUS
 62
     8
 10
3.6205770637
 20
1.3470610282
 30
0.0
  0
VERTEX
  5
543
  8
0
  6
CONTINUOUS
 62
     8
 10
3.5670068219
 20
1.3345529778
 30
0.0
  0
VERTEX
  5
544
  8
0
  6
CONTINUOUS
 62
     8
 10
3.512524566
 20
1.3234349752
 30
0.0
  0
VERTEX
  5
545
  8
0
  6
CONTINUOUS
 62
     8
 10
3.4572384657
 20
1.3137290943
 30
0.0
  0
VERTEX
  5
546
  8
0
  6
CONTINUOUS
 62
     8
 10
3.4012582862
 20
1.3054546051
 30
0.0
  0
VERTEX
  5
547
  8
0
  6
CONTINUOUS
 62
     8
 10
3.3446951712
 20
1.2986279359
 30
0.0
  0
VERTEX
  5
548
  8
0
  6
CONTINUOUS
 62
     8
 10
3.2876614214
 20
1.2932626405
 30
0.0
  0
VERTEX
  5
549
  8
0
  6
CONTINUOUS
 62
     8
 10
3.2302702721
 20
1.2893693711
 30
0.0
  0
VERTEX
  5
54A
  8
0
  6
CONTINUOUS
 62
     8
 10
3.172635668
 20
1.2869558574
 30
0.0
  0
VERTEX
  5
54B
  8
0
  6
CONTINUOUS
 62
     8
 10
3.1148720374
 20
1.2860268912
 30
0.0
  0
VERTEX
  5
54C
  8
0
  6
CONTINUOUS
 62
     8
 10
3.0570940645
 20
1.286584317
 30
0.0
  0
VERTEX
  5
54D
  8
0
  6
CONTINUOUS
 62
     8
 10
2.9994164623
 20
1.2886270281
 30
0.0
  0
VERTEX
  5
54E
  8
0
  6
CONTINUOUS
 62
     8
 10
2.9419537441
 20
1.2921509687
 30
0.0
  0
VERTEX
  5
54F
  8
0
  6
CONTINUOUS
 62
     8
 10
2.8848199971
 20
1.2971491424
 30
0.0
  0
VERTEX
  5
550
  8
0
  6
CONTINUOUS
 62
     8
 10
2.8281286548
 20
1.3036116259
 30
0.0
  0
VERTEX
  5
551
  8
0
  6
CONTINUOUS
 62
     8
 10
2.7719922728
 20
1.3115255884
 30
0.0
  0
VERTEX
  5
552
  8
0
  6
CONTINUOUS
 62
     8
 10
2.7165223046
 20
1.3208753176
 30
0.0
  0
VERTEX
  5
553
  8
0
  6
CONTINUOUS
 62
     8
 10
2.6618288807
 20
1.3316422504
 30
0.0
  0
VERTEX
  5
554
  8
0
  6
CONTINUOUS
 62
     8
 10
2.6080205898
 20
1.34380501
 30
0.0
  0
VERTEX
  5
555
  8
0
  6
CONTINUOUS
 62
     8
 10
2.5552042634
 20
1.3573394484
 30
0.0
  0
VERTEX
  5
556
  8
0
  6
CONTINUOUS
 62
     8
 10
2.5034847633
 20
1.3722186943
 30
0.0
  0
VERTEX
  5
557
  8
0
  6
CONTINUOUS
 62
     8
 10
2.4529647738
 20
1.3884132063
 30
0.0
  0
VERTEX
  5
558
  8
0
  6
CONTINUOUS
 62
     8
 10
2.4037445977
 20
1.4058908317
 30
0.0
  0
VERTEX
  5
559
  8
0
  6
CONTINUOUS
 62
     8
 10
2.3559219571
 20
1.4246168702
 30
0.0
  0
VERTEX
  5
55A
  8
0
  6
CONTINUOUS
 62
     8
 10
2.3095917994
 20
1.4445541431
 30
0.0
  0
VERTEX
  5
55B
  8
0
  6
CONTINUOUS
 62
     8
 10
2.2648461089
 20
1.4656630667
 30
0.0
  0
VERTEX
  5
55C
  8
0
  6
CONTINUOUS
 62
     8
 10
2.2217737239
 20
1.4879017312
 30
0.0
  0
VERTEX
  5
55D
  8
0
  6
CONTINUOUS
 62
     8
 10
2.1804601608
 20
1.5112259839
 30
0.0
  0
VERTEX
  5
55E
  8
0
  6
CONTINUOUS
 62
     8
 10
2.1409874437
 20
1.5355895165
 30
0.0
  0
VERTEX
  5
55F
  8
0
  6
CONTINUOUS
 62
     8
 10
2.1034339421
 20
1.5609439576
 30
0.0
  0
VERTEX
  5
560
  8
0
  6
CONTINUOUS
 62
     8
 10
2.0678742151
 20
1.5872389683
 30
0.0
  0
VERTEX
  5
561
  8
0
  6
CONTINUOUS
 62
     8
 10
2.034378863
 20
1.6144223421
 30
0.0
  0
VERTEX
  5
562
  8
0
  6
CONTINUOUS
 62
     8
 10
2.003014388
 20
1.6424401091
 30
0.0
  0
VERTEX
  5
563
  8
0
  6
CONTINUOUS
 62
     8
 10
1.9738430611
 20
1.6712366426
 30
0.0
  0
VERTEX
  5
564
  8
0
  6
CONTINUOUS
 62
     8
 10
1.9469227995
 20
1.7007547697
 30
0.0
  0
VERTEX
  5
565
  8
0
  6
CONTINUOUS
 62
     8
 10
1.9223070507
 20
1.730935885
 30
0.0
  0
VERTEX
  5
566
  8
0
  6
CONTINUOUS
 62
     8
 10
1.9000446872
 20
1.7617200665
 30
0.0
  0
VERTEX
  5
567
  8
0
  6
CONTINUOUS
 62
     8
 10
1.8801799086
 20
1.7930461952
 30
0.0
  0
VERTEX
  5
568
  8
0
  6
CONTINUOUS
 62
     8
 10
1.8627521548
 20
1.8248520759
 30
0.0
  0
VERTEX
  5
569
  8
0
  6
CONTINUOUS
 62
     8
 10
1.8477960269
 20
1.857074561
 30
0.0
  0
VERTEX
  5
56A
  8
0
  6
CONTINUOUS
 62
     8
 10
1.8353412189
 20
1.8896496758
 30
0.0
  0
VERTEX
  5
56B
  8
0
  6
CONTINUOUS
 62
     8
 10
1.8254124586
 20
1.9225127453
 30
0.0
  0
VERTEX
  5
56C
  8
0
  6
CONTINUOUS
 62
     8
 10
1.8180294588
 20
1.955598523
 30
0.0
  0
VERTEX
  5
56D
  8
0
  6
CONTINUOUS
 62
     8
 10
1.8161110521
 20
1.9668287858
 30
0.0
  0
SEQEND
  5
703
  8
0
  6
CONTINUOUS
 62
     8
  0
POLYLINE
  5
179
  8
0
  6
CONTINUOUS
 62
     8
 66
     1
 10
0.0
 20
0.0
 30
0.0
 70
   128
  0
VERTEX
  5
56E
  8
0
  6
CONTINUOUS
 62
     8
 10
2.577318136
 20
2.46127809
 30
0.0
  0
VERTEX
  5
56F
  8
0
  6
CONTINUOUS
 62
     8
 10
2.6093560237
 20
2.4787177959
 30
0.0
  0
VERTEX
  5
570
  8
0
  6
CONTINUOUS
 62
     8
 10
2.6431116277
 20
2.4950420106
 30
0.0
  0
VERTEX
  5
571
  8
0
  6
CONTINUOUS
 62
     8
 10
2.6784685857
 20
2.510194461
 30
0.0
  0
VERTEX
  5
572
  8
0
  6
CONTINUOUS
 62
     8
 10
2.7153050147
 20
2.5241229137
 30
0.0
  0
VERTEX
  5
573
  8
0
  6
CONTINUOUS
 62
     8
 10
2.7534939321
 20
2.5367793543
 30
0.0
  0
VERTEX
  5
574
  8
0
  6
CONTINUOUS
 62
     8
 10
2.7929036927
 20
2.5481201534
 30
0.0
  0
VERTEX
  5
575
  8
0
  6
CONTINUOUS
 62
     8
 10
2.8333984429
 20
2.5581062169
 30
0.0
  0
VERTEX
  5
576
  8
0
  6
CONTINUOUS
 62
     8
 10
2.8748385888
 20
2.5667031209
 30
0.0
  0
VERTEX
  5
577
  8
0
  6
CONTINUOUS
 62
     8
 10
2.9170812778
 20
2.57388123
 30
0.0
  0
VERTEX
  5
578
  8
0
  6
CONTINUOUS
 62
     8
 10
2.9599808906
 20
2.5796157998
 30
0.0
  0
VERTEX
  5
579
  8
0
  6
CONTINUOUS
 62
     8
 10
3.0033895432
 20
2.5838870621
 30
0.0
  0
VERTEX
  5
57A
  8
0
  6
CONTINUOUS
 62
     8
 10
3.0471575971
 20
2.5866802928
 30
0.0
  0
VERTEX
  5
57B
  8
0
  6
CONTINUOUS
 62
     8
 10
3.0911341747
 20
2.5879858632
 30
0.0
  0
VERTEX
  5
57C
  8
0
  6
CONTINUOUS
 62
     8
 10
3.1351676796
 20
2.5877992728
 30
0.0
  0
VERTEX
  5
57D
  8
0
  6
CONTINUOUS
 62
     8
 10
3.1791063193
 20
2.5861211646
 30
0.0
  0
VERTEX
  5
57E
  8
0
  6
CONTINUOUS
 62
     8
 10
3.2227986281
 20
2.5829573235
 30
0.0
  0
VERTEX
  5
57F
  8
0
  6
CONTINUOUS
 62
     8
 10
3.2660939896
 20
2.578318656
 30
0.0
  0
VERTEX
  5
580
  8
0
  6
CONTINUOUS
 62
     8
 10
3.3088431557
 20
2.5722211524
 30
0.0
  0
VERTEX
  5
581
  8
0
  6
CONTINUOUS
 62
     8
 10
3.3508987612
 20
2.5646858322
 30
0.0
  0
VERTEX
  5
582
  8
0
  6
CONTINUOUS
 62
     8
 10
3.3921158317
 20
2.555738671
 30
0.0
  0
VERTEX
  5
583
  8
0
  6
CONTINUOUS
 62
     8
 10
3.4323522834
 20
2.5454105118
 30
0.0
  0
VERTEX
  5
584
  8
0
  6
CONTINUOUS
 62
     8
 10
3.471469413
 20
2.5337369576
 30
0.0
  0
VERTEX
  5
585
  8
0
  6
CONTINUOUS
 62
     8
 10
3.5093323755
 20
2.5207582498
 30
0.0
  0
VERTEX
  5
586
  8
0
  6
CONTINUOUS
 62
     8
 10
3.5458106496
 20
2.5065191286
 30
0.0
  0
VERTEX
  5
587
  8
0
  6
CONTINUOUS
 62
     8
 10
3.580778487
 20
2.4910686792
 30
0.0
  0
VERTEX
  5
588
  8
0
  6
CONTINUOUS
 62
     8
 10
3.6141153463
 20
2.4744601626
 30
0.0
  0
VERTEX
  5
589
  8
0
  6
CONTINUOUS
 62
     8
 10
3.6457063086
 20
2.4567508316
 30
0.0
  0
VERTEX
  5
58A
  8
0
  6
CONTINUOUS
 62
     8
 10
3.6754424731
 20
2.438001734
 30
0.0
  0
VERTEX
  5
58B
  8
0
  6
CONTINUOUS
 62
     8
 10
3.7032213333
 20
2.418277502
 30
0.0
  0
VERTEX
  5
58C
  8
0
  6
CONTINUOUS
 62
     8
 10
3.7289471295
 20
2.3976461289
 30
0.0
  0
VERTEX
  5
58D
  8
0
  6
CONTINUOUS
 62
     8
 10
3.7525311798
 20
2.3761787354
 30
0.0
  0
VERTEX
  5
58E
  8
0
  6
CONTINUOUS
 62
     8
 10
3.7738921848
 20
2.353949324
 30
0.0
  0
VERTEX
  5
58F
  8
0
  6
CONTINUOUS
 62
     8
 10
3.7929565089
 20
2.3310345242
 30
0.0
  0
VERTEX
  5
590
  8
0
  6
CONTINUOUS
 62
     8
 10
3.8096584334
 20
2.307513328
 30
0.0
  0
VERTEX
  5
591
  8
0
  6
CONTINUOUS
 62
     8
 10
3.8239403832
 20
2.2834668178
 30
0.0
  0
VERTEX
  5
592
  8
0
  6
CONTINUOUS
 62
     8
 10
3.8357531256
 20
2.2589778869
 30
0.0
  0
VERTEX
  5
593
  8
0
  6
CONTINUOUS
 62
     8
 10
3.8450559395
 20
2.2341309538
 30
0.0
  0
VERTEX
  5
594
  8
0
  6
CONTINUOUS
 62
     8
 10
3.8518167563
 20
2.2090116709
 30
0.0
  0
VERTEX
  5
595
  8
0
  6
CONTINUOUS
 62
     8
 10
3.8554129636
 20
2.1885274713
 30
0.0
  0
SEQEND
  5
704
  8
0
  6
CONTINUOUS
 62
     8
  0
ARC
  5
17A
  8
0
  6
CONTINUOUS
 62
     8
 10
2.7504102016
 20
2.0995144894
 30
0.0
 40
0.4010408532040608
 50
115.5695918261
 51
166.3407910234
  0
POLYLINE
  5
17B
  8
0
  6
CONTINUOUS
 62
     8
 66
     1
 10
0.0
 20
0.0
 30
0.0
 70
   128
  0
VERTEX
  5
596
  8
0
  6
CONTINUOUS
 62
     8
 10
2.577318136
 20
2.3408383203
 30
0.0
  0
VERTEX
  5
597
  8
0
  6
CONTINUOUS
 62
     8
 10
2.6093560237
 20
2.3582780262
 30
0.0
  0
VERTEX
  5
598
  8
0
  6
CONTINUOUS
 62
     8
 10
2.6431116277
 20
2.3746022408
 30
0.0
  0
VERTEX
  5
599
  8
0
  6
CONTINUOUS
 62
     8
 10
2.6784685857
 20
2.3897546913
 30
0.0
  0
VERTEX
  5
59A
  8
0
  6
CONTINUOUS
 62
     8
 10
2.7153050147
 20
2.4036831439
 30
0.0
  0
VERTEX
  5
59B
  8
0
  6
CONTINUOUS
 62
     8
 10
2.7534939321
 20
2.4163395845
 30
0.0
  0
VERTEX
  5
59C
  8
0
  6
CONTINUOUS
 62
     8
 10
2.7929036927
 20
2.4276803836
 30
0.0
  0
VERTEX
  5
59D
  8
0
  6
CONTINUOUS
 62
     8
 10
2.8333984429
 20
2.4376664472
 30
0.0
  0
VERTEX
  5
59E
  8
0
  6
CONTINUOUS
 62
     8
 10
2.8748385888
 20
2.4462633512
 30
0.0
  0
VERTEX
  5
59F
  8
0
  6
CONTINUOUS
 62
     8
 10
2.9170812778
 20
2.4534414603
 30
0.0
  0
VERTEX
  5
5A0
  8
0
  6
CONTINUOUS
 62
     8
 10
2.9599808906
 20
2.4591760301
 30
0.0
  0
VERTEX
  5
5A1
  8
0
  6
CONTINUOUS
 62
     8
 10
3.0033895432
 20
2.4634472923
 30
0.0
  0
VERTEX
  5
5A2
  8
0
  6
CONTINUOUS
 62
     8
 10
3.0471575971
 20
2.4662405231
 30
0.0
  0
VERTEX
  5
5A3
  8
0
  6
CONTINUOUS
 62
     8
 10
3.0911341747
 20
2.4675460935
 30
0.0
  0
VERTEX
  5
5A4
  8
0
  6
CONTINUOUS
 62
     8
 10
3.1351676796
 20
2.467359503
 30
0.0
  0
VERTEX
  5
5A5
  8
0
  6
CONTINUOUS
 62
     8
 10
3.1791063193
 20
2.4656813948
 30
0.0
  0
VERTEX
  5
5A6
  8
0
  6
CONTINUOUS
 62
     8
 10
3.2227986281
 20
2.4625175538
 30
0.0
  0
VERTEX
  5
5A7
  8
0
  6
CONTINUOUS
 62
     8
 10
3.2660939896
 20
2.4578788862
 30
0.0
  0
VERTEX
  5
5A8
  8
0
  6
CONTINUOUS
 62
     8
 10
3.3088431557
 20
2.4517813827
 30
0.0
  0
VERTEX
  5
5A9
  8
0
  6
CONTINUOUS
 62
     8
 10
3.3508987612
 20
2.4442460624
 30
0.0
  0
VERTEX
  5
5AA
  8
0
  6
CONTINUOUS
 62
     8
 10
3.3921158317
 20
2.4352989013
 30
0.0
  0
VERTEX
  5
5AB
  8
0
  6
CONTINUOUS
 62
     8
 10
3.4323522834
 20
2.424970742
 30
0.0
  0
VERTEX
  5
5AC
  8
0
  6
CONTINUOUS
 62
     8
 10
3.471469413
 20
2.4132971879
 30
0.0
  0
VERTEX
  5
5AD
  8
0
  6
CONTINUOUS
 62
     8
 10
3.5093323755
 20
2.4003184801
 30
0.0
  0
VERTEX
  5
5AE
  8
0
  6
CONTINUOUS
 62
     8
 10
3.5458106496
 20
2.3860793589
 30
0.0
  0
VERTEX
  5
5AF
  8
0
  6
CONTINUOUS
 62
     8
 10
3.580778487
 20
2.3706289095
 30
0.0
  0
VERTEX
  5
5B0
  8
0
  6
CONTINUOUS
 62
     8
 10
3.6141153463
 20
2.3540203928
 30
0.0
  0
VERTEX
  5
5B1
  8
0
  6
CONTINUOUS
 62
     8
 10
3.6457063086
 20
2.3363110618
 30
0.0
  0
VERTEX
  5
5B2
  8
0
  6
CONTINUOUS
 62
     8
 10
3.6754424731
 20
2.3175619643
 30
0.0
  0
VERTEX
  5
5B3
  8
0
  6
CONTINUOUS
 62
     8
 10
3.7032213333
 20
2.2978377322
 30
0.0
  0
VERTEX
  5
5B4
  8
0
  6
CONTINUOUS
 62
     8
 10
3.7289471295
 20
2.2772063591
 30
0.0
  0
VERTEX
  5
5B5
  8
0
  6
CONTINUOUS
 62
     8
 10
3.7525311798
 20
2.2557389656
 30
0.0
  0
VERTEX
  5
5B6
  8
0
  6
CONTINUOUS
 62
     8
 10
3.7738921848
 20
2.2335095543
 30
0.0
  0
VERTEX
  5
5B7
  8
0
  6
CONTINUOUS
 62
     8
 10
3.7929565089
 20
2.2105947544
 30
0.0
  0
VERTEX
  5
5B8
  8
0
  6
CONTINUOUS
 62
     8
 10
3.8096584334
 20
2.1870735582
 30
0.0
  0
VERTEX
  5
5B9
  8
0
  6
CONTINUOUS
 62
     8
 10
3.8239403832
 20
2.163027048
 30
0.0
  0
VERTEX
  5
5BA
  8
0
  6
CONTINUOUS
 62
     8
 10
3.8357531256
 20
2.1385381171
 30
0.0
  0
VERTEX
  5
5BB
  8
0
  6
CONTINUOUS
 62
     8
 10
3.8450559395
 20
2.113691184
 30
0.0
  0
VERTEX
  5
5BC
  8
0
  6
CONTINUOUS
 62
     8
 10
3.8502142815
 20
2.0954943864
 30
0.0
  0
SEQEND
  5
705
  8
0
  6
CONTINUOUS
 62
     8
  0
ARC
  5
17C
  8
0
  6
CONTINUOUS
 62
     8
 10
2.7566488923
 20
1.9714390381
 30
0.0
 40
0.4106279944903332
 50
115.8949921575
 51
162.6708883284
  0
POLYLINE
  5
17D
  8
0
  6
CONTINUOUS
 62
     8
 66
     1
 10
0.0
 20
0.0
 30
0.0
 70
   128
  0
VERTEX
  5
5BD
  8
0
  6
CONTINUOUS
 62
     8
 10
4.3842098168
 20
1.8305500754
 30
0.0
  0
VERTEX
  5
5BE
  8
0
  6
CONTINUOUS
 62
     8
 10
4.3842017494
 20
1.7976796179
 30
0.0
  0
VERTEX
  5
5BF
  8
0
  6
CONTINUOUS
 62
     8
 10
4.3816309405
 20
1.764633644
 30
0.0
  0
VERTEX
  5
5C0
  8
0
  6
CONTINUOUS
 62
     8
 10
4.3764944999
 20
1.731687529
 30
0.0
  0
VERTEX
  5
5C1
  8
0
  6
CONTINUOUS
 62
     8
 10
4.3688027718
 20
1.6989076218
 30
0.0
  0
VERTEX
  5
5C2
  8
0
  6
CONTINUOUS
 62
     8
 10
4.3585712463
 20
1.666359937
 30
0.0
  0
VERTEX
  5
5C3
  8
0
  6
CONTINUOUS
 62
     8
 10
4.3458205283
 20
1.6341100212
 30
0.0
  0
VERTEX
  5
5C4
  8
0
  6
CONTINUOUS
 62
     8
 10
4.330576296
 20
1.6022228214
 30
0.0
  0
VERTEX
  5
5C5
  8
0
  6
CONTINUOUS
 62
     8
 10
4.3128692493
 20
1.5707625542
 30
0.0
  0
VERTEX
  5
5C6
  8
0
  6
CONTINUOUS
 62
     8
 10
4.2927350479
 20
1.5397925764
 30
0.0
  0
VERTEX
  5
5C7
  8
0
  6
CONTINUOUS
 62
     8
 10
4.2702142393
 20
1.5093752574
 30
0.0
  0
VERTEX
  5
5C8
  8
0
  6
CONTINUOUS
 62
     8
 10
4.2453521775
 20
1.4795718537
 30
0.0
  0
VERTEX
  5
5C9
  8
0
  6
CONTINUOUS
 62
     8
 10
4.2181989313
 20
1.4504423853
 30
0.0
  0
VERTEX
  5
5CA
  8
0
  6
CONTINUOUS
 62
     8
 10
4.1888091838
 20
1.4220455152
 30
0.0
  0
VERTEX
  5
5CB
  8
0
  6
CONTINUOUS
 62
     8
 10
4.157242122
 20
1.3944384307
 30
0.0
  0
VERTEX
  5
5CC
  8
0
  6
CONTINUOUS
 62
     8
 10
4.1235613178
 20
1.367676729
 30
0.0
  0
VERTEX
  5
5CD
  8
0
  6
CONTINUOUS
 62
     8
 10
4.0878345998
 20
1.3418143045
 30
0.0
  0
VERTEX
  5
5CE
  8
0
  6
CONTINUOUS
 62
     8
 10
4.0501339168
 20
1.3169032407
 30
0.0
  0
VERTEX
  5
5CF
  8
0
  6
CONTINUOUS
 62
     8
 10
4.0105351932
 20
1.2929937052
 30
0.0
  0
VERTEX
  5
5D0
  8
0
  6
CONTINUOUS
 62
     8
 10
3.9691181753
 20
1.2701338486
 30
0.0
  0
VERTEX
  5
5D1
  8
0
  6
CONTINUOUS
 62
     8
 10
3.9259662715
 20
1.2483697077
 30
0.0
  0
VERTEX
  5
5D2
  8
0
  6
CONTINUOUS
 62
     8
 10
3.8811663842
 20
1.2277451124
 30
0.0
  0
VERTEX
  5
5D3
  8
0
  6
CONTINUOUS
 62
     8
 10
3.8348087341
 20
1.2083015979
 30
0.0
  0
VERTEX
  5
5D4
  8
0
  6
CONTINUOUS
 62
     8
 10
3.7869866796
 20
1.1900783211
 30
0.0
  0
VERTEX
  5
5D5
  8
0
  6
CONTINUOUS
 62
     8
 10
3.7377965279
 20
1.173111981
 30
0.0
  0
VERTEX
  5
5D6
  8
0
  6
CONTINUOUS
 62
     8
 10
3.6873373413
 20
1.1574367456
 30
0.0
  0
VERTEX
  5
5D7
  8
0
  6
CONTINUOUS
 62
     8
 10
3.635710738
 20
1.1430841828
 30
0.0
  0
VERTEX
  5
5D8
  8
0
  6
CONTINUOUS
 62
     8
 10
3.583020687
 20
1.1300831968
 30
0.0
  0
VERTEX
  5
5D9
  8
0
  6
CONTINUOUS
 62
     8
 10
3.5293732992
 20
1.1184599697
 30
0.0
  0
VERTEX
  5
5DA
  8
0
  6
CONTINUOUS
 62
     8
 10
3.4748766131
 20
1.1082379092
 30
0.0
  0
VERTEX
  5
5DB
  8
0
  6
CONTINUOUS
 62
     8
 10
3.419640378
 20
1.0994376012
 30
0.0
  0
VERTEX
  5
5DC
  8
0
  6
CONTINUOUS
 62
     8
 10
3.3637758322
 20
1.0920767684
 30
0.0
  0
VERTEX
  5
5DD
  8
0
  6
CONTINUOUS
 62
     8
 10
3.3073954795
 20
1.0861702344
 30
0.0
  0
VERTEX
  5
5DE
  8
0
  6
CONTINUOUS
 62
     8
 10
3.2506128624
 20
1.0817298943
 30
0.0
  0
VERTEX
  5
5DF
  8
0
  6
CONTINUOUS
 62
     8
 10
3.1935423335
 20
1.0787646903
 30
0.0
  0
VERTEX
  5
5E0
  8
0
  6
CONTINUOUS
 62
     8
 10
3.1362988253
 20
1.0772805939
 30
0.0
  0
VERTEX
  5
5E1
  8
0
  6
CONTINUOUS
 62
     8
 10
3.0789976186
 20
1.0772805939
 30
0.0
  0
VERTEX
  5
5E2
  8
0
  6
CONTINUOUS
 62
     8
 10
3.0217541104
 20
1.0787646903
 30
0.0
  0
VERTEX
  5
5E3
  8
0
  6
CONTINUOUS
 62
     8
 10
2.9646835815
 20
1.0817298943
 30
0.0
  0
VERTEX
  5
5E4
  8
0
  6
CONTINUOUS
 62
     8
 10
2.9079009644
 20
1.0861702344
 30
0.0
  0
VERTEX
  5
5E5
  8
0
  6
CONTINUOUS
 62
     8
 10
2.8515206117
 20
1.0920767684
 30
0.0
  0
VERTEX
  5
5E6
  8
0
  6
CONTINUOUS
 62
     8
 10
2.7956560658
 20
1.0994376012
 30
0.0
  0
VERTEX
  5
5E7
  8
0
  6
CONTINUOUS
 62
     8
 10
2.7404198307
 20
1.1082379092
 30
0.0
  0
VERTEX
  5
5E8
  8
0
  6
CONTINUOUS
 62
     8
 10
2.6859231447
 20
1.1184599697
 30
0.0
  0
VERTEX
  5
5E9
  8
0
  6
CONTINUOUS
 62
     8
 10
2.6322757569
 20
1.1300831968
 30
0.0
  0
VERTEX
  5
5EA
  8
0
  6
CONTINUOUS
 62
     8
 10
2.5795857059
 20
1.1430841828
 30
0.0
  0
VERTEX
  5
5EB
  8
0
  6
CONTINUOUS
 62
     8
 10
2.5279591026
 20
1.1574367456
 30
0.0
  0
VERTEX
  5
5EC
  8
0
  6
CONTINUOUS
 62
     8
 10
2.477499916
 20
1.173111981
 30
0.0
  0
VERTEX
  5
5ED
  8
0
  6
CONTINUOUS
 62
     8
 10
2.4283097642
 20
1.1900783211
 30
0.0
  0
VERTEX
  5
5EE
  8
0
  6
CONTINUOUS
 62
     8
 10
2.3804877097
 20
1.2083015979
 30
0.0
  0
VERTEX
  5
5EF
  8
0
  6
CONTINUOUS
 62
     8
 10
2.3341300597
 20
1.2277451124
 30
0.0
  0
VERTEX
  5
5F0
  8
0
  6
CONTINUOUS
 62
     8
 10
2.2893301723
 20
1.2483697077
 30
0.0
  0
VERTEX
  5
5F1
  8
0
  6
CONTINUOUS
 62
     8
 10
2.2461782686
 20
1.2701338486
 30
0.0
  0
VERTEX
  5
5F2
  8
0
  6
CONTINUOUS
 62
     8
 10
2.2047612507
 20
1.2929937052
 30
0.0
  0
VERTEX
  5
5F3
  8
0
  6
CONTINUOUS
 62
     8
 10
2.165162527
 20
1.3169032407
 30
0.0
  0
VERTEX
  5
5F4
  8
0
  6
CONTINUOUS
 62
     8
 10
2.1274618441
 20
1.3418143045
 30
0.0
  0
VERTEX
  5
5F5
  8
0
  6
CONTINUOUS
 62
     8
 10
2.0917351261
 20
1.367676729
 30
0.0
  0
VERTEX
  5
5F6
  8
0
  6
CONTINUOUS
 62
     8
 10
2.0580543218
 20
1.3944384307
 30
0.0
  0
VERTEX
  5
5F7
  8
0
  6
CONTINUOUS
 62
     8
 10
2.02648726
 20
1.4220455152
 30
0.0
  0
VERTEX
  5
5F8
  8
0
  6
CONTINUOUS
 62
     8
 10
1.9970975125
 20
1.4504423853
 30
0.0
  0
VERTEX
  5
5F9
  8
0
  6
CONTINUOUS
 62
     8
 10
1.9699442664
 20
1.4795718537
 30
0.0
  0
VERTEX
  5
5FA
  8
0
  6
CONTINUOUS
 62
     8
 10
1.9450822045
 20
1.5093752574
 30
0.0
  0
VERTEX
  5
5FB
  8
0
  6
CONTINUOUS
 62
     8
 10
1.922561396
 20
1.5397925764
 30
0.0
  0
VERTEX
  5
5FC
  8
0
  6
CONTINUOUS
 62
     8
 10
1.9024271945
 20
1.5707625542
 30
0.0
  0
VERTEX
  5
5FD
  8
0
  6
CONTINUOUS
 62
     8
 10
1.8847201479
 20
1.6022228214
 30
0.0
  0
VERTEX
  5
5FE
  8
0
  6
CONTINUOUS
 62
     8
 10
1.8694759156
 20
1.6341100212
 30
0.0
  0
VERTEX
  5
5FF
  8
0
  6
CONTINUOUS
 62
     8
 10
1.8567251976
 20
1.666359937
 30
0.0
  0
VERTEX
  5
600
  8
0
  6
CONTINUOUS
 62
     8
 10
1.846493672
 20
1.6989076218
 30
0.0
  0
VERTEX
  5
601
  8
0
  6
CONTINUOUS
 62
     8
 10
1.8388019439
 20
1.731687529
 30
0.0
  0
VERTEX
  5
602
  8
0
  6
CONTINUOUS
 62
     8
 10
1.8336655034
 20
1.764633644
 30
0.0
  0
VERTEX
  5
603
  8
0
  6
CONTINUOUS
 62
     8
 10
1.8310946944
 20
1.7976796179
 30
0.0
  0
VERTEX
  5
604
  8
0
  6
CONTINUOUS
 62
     8
 10
1.831086627
 20
1.8305500754
 30
0.0
  0
SEQEND
  5
706
  8
0
  6
CONTINUOUS
 62
     8
  0
POLYLINE
  5
17E
  8
0
  6
CONTINUOUS
 62
     8
 66
     1
 10
0.0
 20
0.0
 30
0.0
 70
   128
  0
VERTEX
  5
605
  8
0
  6
CONTINUOUS
 62
     8
 10
4.3997991222
 20
1.73404445
 30
0.0
  0
VERTEX
  5
606
  8
0
  6
CONTINUOUS
 62
     8
 10
4.3987131306
 20
1.7271002401
 30
0.0
  0
VERTEX
  5
607
  8
0
  6
CONTINUOUS
 62
     8
 10
4.3919690594
 20
1.6939690348
 30
0.0
  0
VERTEX
  5
608
  8
0
  6
CONTINUOUS
 62
     8
 10
4.3826750881
 20
1.6610441519
 30
0.0
  0
VERTEX
  5
609
  8
0
  6
CONTINUOUS
 62
     8
 10
4.370849669
 20
1.6283909606
 30
0.0
  0
VERTEX
  5
60A
  8
0
  6
CONTINUOUS
 62
     8
 10
4.3565162803
 20
1.5960742909
 30
0.0
  0
VERTEX
  5
60B
  8
0
  6
CONTINUOUS
 62
     8
 10
4.3397033796
 20
1.5641583045
 30
0.0
  0
VERTEX
  5
60C
  8
0
  6
CONTINUOUS
 62
     8
 10
4.3204443475
 20
1.5327063677
 30
0.0
  0
VERTEX
  5
60D
  8
0
  6
CONTINUOUS
 62
     8
 10
4.298777421
 20
1.5017809253
 30
0.0
  0
VERTEX
  5
60E
  8
0
  6
CONTINUOUS
 62
     8
 10
4.2747456177
 20
1.4714433771
 30
0.0
  0
VERTEX
  5
60F
  8
0
  6
CONTINUOUS
 62
     8
 10
4.2483966505
 20
1.4417539552
 30
0.0
  0
VERTEX
  5
610
  8
0
  6
CONTINUOUS
 62
     8
 10
4.219782833
 20
1.4127716054
 30
0.0
  0
VERTEX
  5
611
  8
0
  6
CONTINUOUS
 62
     8
 10
4.1889609751
 20
1.3845538695
 30
0.0
  0
VERTEX
  5
612
  8
0
  6
CONTINUOUS
 62
     8
 10
4.1559922708
 20
1.3571567711
 30
0.0
  0
VERTEX
  5
613
  8
0
  6
CONTINUOUS
 62
     8
 10
4.1209421764
 20
1.3306347046
 30
0.0
  0
VERTEX
  5
614
  8
0
  6
CONTINUOUS
 62
     8
 10
4.0838802807
 20
1.3050403272
 30
0.0
  0
VERTEX
  5
615
  8
0
  6
CONTINUOUS
 62
     8
 10
4.0448801667
 20
1.2804244541
 30
0.0
  0
VERTEX
  5
616
  8
0
  6
CONTINUOUS
 62
     8
 10
4.0040192653
 20
1.2568359578
 30
0.0
  0
VERTEX
  5
617
  8
0
  6
CONTINUOUS
 62
     8
 10
3.9613787022
 20
1.2343216712
 30
0.0
  0
VERTEX
  5
618
  8
0
  6
CONTINUOUS
 62
     8
 10
3.9170431363
 20
1.2129262942
 30
0.0
  0
VERTEX
  5
619
  8
0
  6
CONTINUOUS
 62
     8
 10
3.8711005917
 20
1.1926923055
 30
0.0
  0
VERTEX
  5
61A
  8
0
  6
CONTINUOUS
 62
     8
 10
3.823642283
 20
1.1736598776
 30
0.0
  0
VERTEX
  5
61B
  8
0
  6
CONTINUOUS
 62
     8
 10
3.7747624345
 20
1.1558667978
 30
0.0
  0
VERTEX
  5
61C
  8
0
  6
CONTINUOUS
 62
     8
 10
3.7245580924
 20
1.1393483925
 30
0.0
  0
VERTEX
  5
61D
  8
0
  6
CONTINUOUS
 62
     8
 10
3.6731289329
 20
1.1241374575
 30
0.0
  0
VERTEX
  5
61E
  8
0
  6
CONTINUOUS
 62
     8
 10
3.6205770637
 20
1.1102641928
 30
0.0
  0
VERTEX
  5
61F
  8
0
  6
CONTINUOUS
 62
     8
 10
3.5670068219
 20
1.0977561423
 30
0.0
  0
VERTEX
  5
620
  8
0
  6
CONTINUOUS
 62
     8
 10
3.512524566
 20
1.0866381397
 30
0.0
  0
VERTEX
  5
621
  8
0
  6
CONTINUOUS
 62
     8
 10
3.4572384657
 20
1.0769322588
 30
0.0
  0
VERTEX
  5
622
  8
0
  6
CONTINUOUS
 62
     8
 10
3.4012582862
 20
1.0686577696
 30
0.0
  0
VERTEX
  5
623
  8
0
  6
CONTINUOUS
 62
     8
 10
3.3446951712
 20
1.0618311005
 30
0.0
  0
VERTEX
  5
624
  8
0
  6
CONTINUOUS
 62
     8
 10
3.2876614214
 20
1.056465805
 30
0.0
  0
VERTEX
  5
625
  8
0
  6
CONTINUOUS
 62
     8
 10
3.2302702721
 20
1.0525725356
 30
0.0
  0
VERTEX
  5
626
  8
0
  6
CONTINUOUS
 62
     8
 10
3.172635668
 20
1.0501590219
 30
0.0
  0
VERTEX
  5
627
  8
0
  6
CONTINUOUS
 62
     8
 10
3.1148720374
 20
1.0492300558
 30
0.0
  0
VERTEX
  5
628
  8
0
  6
CONTINUOUS
 62
     8
 10
3.0570940645
 20
1.0497874816
 30
0.0
  0
VERTEX
  5
629
  8
0
  6
CONTINUOUS
 62
     8
 10
2.9994164623
 20
1.0518301926
 30
0.0
  0
VERTEX
  5
62A
  8
0
  6
CONTINUOUS
 62
     8
 10
2.9419537441
 20
1.0553541332
 30
0.0
  0
VERTEX
  5
62B
  8
0
  6
CONTINUOUS
 62
     8
 10
2.8848199971
 20
1.060352307
 30
0.0
  0
VERTEX
  5
62C
  8
0
  6
CONTINUOUS
 62
     8
 10
2.8281286548
 20
1.0668147904
 30
0.0
  0
VERTEX
  5
62D
  8
0
  6
CONTINUOUS
 62
     8
 10
2.7719922728
 20
1.074728753
 30
0.0
  0
VERTEX
  5
62E
  8
0
  6
CONTINUOUS
 62
     8
 10
2.7165223046
 20
1.0840784821
 30
0.0
  0
VERTEX
  5
62F
  8
0
  6
CONTINUOUS
 62
     8
 10
2.6618288807
 20
1.0948454149
 30
0.0
  0
VERTEX
  5
630
  8
0
  6
CONTINUOUS
 62
     8
 10
2.6080205898
 20
1.1070081745
 30
0.0
  0
VERTEX
  5
631
  8
0
  6
CONTINUOUS
 62
     8
 10
2.5552042634
 20
1.120542613
 30
0.0
  0
VERTEX
  5
632
  8
0
  6
CONTINUOUS
 62
     8
 10
2.5034847633
 20
1.1354218589
 30
0.0
  0
VERTEX
  5
633
  8
0
  6
CONTINUOUS
 62
     8
 10
2.4529647738
 20
1.1516163709
 30
0.0
  0
VERTEX
  5
634
  8
0
  6
CONTINUOUS
 62
     8
 10
2.4037445977
 20
1.1690939962
 30
0.0
  0
VERTEX
  5
635
  8
0
  6
CONTINUOUS
 62
     8
 10
2.3559219571
 20
1.1878200347
 30
0.0
  0
VERTEX
  5
636
  8
0
  6
CONTINUOUS
 62
     8
 10
2.3095917994
 20
1.2077573076
 30
0.0
  0
VERTEX
  5
637
  8
0
  6
CONTINUOUS
 62
     8
 10
2.2648461089
 20
1.2288662312
 30
0.0
  0
VERTEX
  5
638
  8
0
  6
CONTINUOUS
 62
     8
 10
2.2217737239
 20
1.2511048958
 30
0.0
  0
VERTEX
  5
639
  8
0
  6
CONTINUOUS
 62
     8
 10
2.1804601608
 20
1.2744291485
 30
0.0
  0
VERTEX
  5
63A
  8
0
  6
CONTINUOUS
 62
     8
 10
2.1409874437
 20
1.2987926811
 30
0.0
  0
VERTEX
  5
63B
  8
0
  6
CONTINUOUS
 62
     8
 10
2.1034339421
 20
1.3241471222
 30
0.0
  0
VERTEX
  5
63C
  8
0
  6
CONTINUOUS
 62
     8
 10
2.0678742151
 20
1.3504421328
 30
0.0
  0
VERTEX
  5
63D
  8
0
  6
CONTINUOUS
 62
     8
 10
2.034378863
 20
1.3776255067
 30
0.0
  0
VERTEX
  5
63E
  8
0
  6
CONTINUOUS
 62
     8
 10
2.003014388
 20
1.4056432737
 30
0.0
  0
VERTEX
  5
63F
  8
0
  6
CONTINUOUS
 62
     8
 10
1.9738430611
 20
1.4344398072
 30
0.0
  0
VERTEX
  5
640
  8
0
  6
CONTINUOUS
 62
     8
 10
1.9469227995
 20
1.4639579343
 30
0.0
  0
VERTEX
  5
641
  8
0
  6
CONTINUOUS
 62
     8
 10
1.9223070507
 20
1.4941390495
 30
0.0
  0
VERTEX
  5
642
  8
0
  6
CONTINUOUS
 62
     8
 10
1.9000446872
 20
1.524923231
 30
0.0
  0
VERTEX
  5
643
  8
0
  6
CONTINUOUS
 62
     8
 10
1.8801799086
 20
1.5562493597
 30
0.0
  0
VERTEX
  5
644
  8
0
  6
CONTINUOUS
 62
     8
 10
1.8627521548
 20
1.5880552405
 30
0.0
  0
VERTEX
  5
645
  8
0
  6
CONTINUOUS
 62
     8
 10
1.8477960269
 20
1.6202777256
 30
0.0
  0
VERTEX
  5
646
  8
0
  6
CONTINUOUS
 62
     8
 10
1.8353412189
 20
1.6528528403
 30
0.0
  0
VERTEX
  5
647
  8
0
  6
CONTINUOUS
 62
     8
 10
1.8254124586
 20
1.6857159099
 30
0.0
  0
VERTEX
  5
648
  8
0
  6
CONTINUOUS
 62
     8
 10
1.8180294588
 20
1.7188016876
 30
0.0
  0
VERTEX
  5
649
  8
0
  6
CONTINUOUS
 62
     8
 10
1.8161110521
 20
1.7300319503
 30
0.0
  0
SEQEND
  5
707
  8
0
  6
CONTINUOUS
 62
     8
  0
POLYLINE
  5
17F
  8
0
  6
CONTINUOUS
 62
     8
 66
     1
 10
0.0
 20
0.0
 30
0.0
 70
   128
  0
VERTEX
  5
64A
  8
0
  6
CONTINUOUS
 62
     8
 10
4.3997991222
 20
1.6136046803
 30
0.0
  0
VERTEX
  5
64B
  8
0
  6
CONTINUOUS
 62
     8
 10
4.3987131306
 20
1.6066604704
 30
0.0
  0
VERTEX
  5
64C
  8
0
  6
CONTINUOUS
 62
     8
 10
4.3919690594
 20
1.5735292651
 30
0.0
  0
VERTEX
  5
64D
  8
0
  6
CONTINUOUS
 62
     8
 10
4.3826750881
 20
1.5406043821
 30
0.0
  0
VERTEX
  5
64E
  8
0
  6
CONTINUOUS
 62
     8
 10
4.370849669
 20
1.5079511909
 30
0.0
  0
VERTEX
  5
64F
  8
0
  6
CONTINUOUS
 62
     8
 10
4.3565162803
 20
1.4756345212
 30
0.0
  0
VERTEX
  5
650
  8
0
  6
CONTINUOUS
 62
     8
 10
4.3397033796
 20
1.4437185348
 30
0.0
  0
VERTEX
  5
651
  8
0
  6
CONTINUOUS
 62
     8
 10
4.3204443475
 20
1.412266598
 30
0.0
  0
VERTEX
  5
652
  8
0
  6
CONTINUOUS
 62
     8
 10
4.298777421
 20
1.3813411556
 30
0.0
  0
VERTEX
  5
653
  8
0
  6
CONTINUOUS
 62
     8
 10
4.2747456177
 20
1.3510036073
 30
0.0
  0
VERTEX
  5
654
  8
0
  6
CONTINUOUS
 62
     8
 10
4.2483966505
 20
1.3213141855
 30
0.0
  0
VERTEX
  5
655
  8
0
  6
CONTINUOUS
 62
     8
 10
4.219782833
 20
1.2923318357
 30
0.0
  0
VERTEX
  5
656
  8
0
  6
CONTINUOUS
 62
     8
 10
4.1889609751
 20
1.2641140997
 30
0.0
  0
VERTEX
  5
657
  8
0
  6
CONTINUOUS
 62
     8
 10
4.1559922708
 20
1.2367170013
 30
0.0
  0
VERTEX
  5
658
  8
0
  6
CONTINUOUS
 62
     8
 10
4.1209421764
 20
1.2101949349
 30
0.0
  0
VERTEX
  5
659
  8
0
  6
CONTINUOUS
 62
     8
 10
4.0838802807
 20
1.1846005574
 30
0.0
  0
VERTEX
  5
65A
  8
0
  6
CONTINUOUS
 62
     8
 10
4.0448801667
 20
1.1599846843
 30
0.0
  0
VERTEX
  5
65B
  8
0
  6
CONTINUOUS
 62
     8
 10
4.0040192653
 20
1.1363961881
 30
0.0
  0
VERTEX
  5
65C
  8
0
  6
CONTINUOUS
 62
     8
 10
3.9613787022
 20
1.1138819014
 30
0.0
  0
VERTEX
  5
65D
  8
0
  6
CONTINUOUS
 62
     8
 10
3.9170431363
 20
1.0924865245
 30
0.0
  0
VERTEX
  5
65E
  8
0
  6
CONTINUOUS
 62
     8
 10
3.8711005917
 20
1.0722525357
 30
0.0
  0
VERTEX
  5
65F
  8
0
  6
CONTINUOUS
 62
     8
 10
3.823642283
 20
1.0532201078
 30
0.0
  0
VERTEX
  5
660
  8
0
  6
CONTINUOUS
 62
     8
 10
3.7747624345
 20
1.035427028
 30
0.0
  0
VERTEX
  5
661
  8
0
  6
CONTINUOUS
 62
     8
 10
3.7245580924
 20
1.0189086227
 30
0.0
  0
VERTEX
  5
662
  8
0
  6
CONTINUOUS
 62
     8
 10
3.6731289329
 20
1.0036976878
 30
0.0
  0
VERTEX
  5
663
  8
0
  6
CONTINUOUS
 62
     8
 10
3.6205770637
 20
0.989824423
 30
0.0
  0
VERTEX
  5
664
  8
0
  6
CONTINUOUS
 62
     8
 10
3.5670068219
 20
0.9773163726
 30
0.0
  0
VERTEX
  5
665
  8
0
  6
CONTINUOUS
 62
     8
 10
3.512524566
 20
0.96619837
 30
0.0
  0
VERTEX
  5
666
  8
0
  6
CONTINUOUS
 62
     8
 10
3.4572384657
 20
0.9564924891
 30
0.0
  0
VERTEX
  5
667
  8
0
  6
CONTINUOUS
 62
     8
 10
3.4012582862
 20
0.9482179999
 30
0.0
  0
VERTEX
  5
668
  8
0
  6
CONTINUOUS
 62
     8
 10
3.3446951712
 20
0.9413913307
 30
0.0
  0
VERTEX
  5
669
  8
0
  6
CONTINUOUS
 62
     8
 10
3.2876614214
 20
0.9360260353
 30
0.0
  0
VERTEX
  5
66A
  8
0
  6
CONTINUOUS
 62
     8
 10
3.2302702721
 20
0.9321327659
 30
0.0
  0
VERTEX
  5
66B
  8
0
  6
CONTINUOUS
 62
     8
 10
3.172635668
 20
0.9297192522
 30
0.0
  0
VERTEX
  5
66C
  8
0
  6
CONTINUOUS
 62
     8
 10
3.1148720374
 20
0.928790286
 30
0.0
  0
VERTEX
  5
66D
  8
0
  6
CONTINUOUS
 62
     8
 10
3.0570940645
 20
0.9293477118
 30
0.0
  0
VERTEX
  5
66E
  8
0
  6
CONTINUOUS
 62
     8
 10
2.9994164623
 20
0.9313904229
 30
0.0
  0
VERTEX
  5
66F
  8
0
  6
CONTINUOUS
 62
     8
 10
2.9419537441
 20
0.9349143635
 30
0.0
  0
VERTEX
  5
670
  8
0
  6
CONTINUOUS
 62
     8
 10
2.8848199971
 20
0.9399125372
 30
0.0
  0
VERTEX
  5
671
  8
0
  6
CONTINUOUS
 62
     8
 10
2.8281286548
 20
0.9463750207
 30
0.0
  0
VERTEX
  5
672
  8
0
  6
CONTINUOUS
 62
     8
 10
2.7719922728
 20
0.9542889832
 30
0.0
  0
VERTEX
  5
673
  8
0
  6
CONTINUOUS
 62
     8
 10
2.7165223046
 20
0.9636387124
 30
0.0
  0
VERTEX
  5
674
  8
0
  6
CONTINUOUS
 62
     8
 10
2.6618288807
 20
0.9744056452
 30
0.0
  0
VERTEX
  5
675
  8
0
  6
CONTINUOUS
 62
     8
 10
2.6080205898
 20
0.9865684048
 30
0.0
  0
VERTEX
  5
676
  8
0
  6
CONTINUOUS
 62
     8
 10
2.5552042634
 20
1.0001028432
 30
0.0
  0
VERTEX
  5
677
  8
0
  6
CONTINUOUS
 62
     8
 10
2.5034847633
 20
1.0149820891
 30
0.0
  0
VERTEX
  5
678
  8
0
  6
CONTINUOUS
 62
     8
 10
2.4529647738
 20
1.0311766011
 30
0.0
  0
VERTEX
  5
679
  8
0
  6
CONTINUOUS
 62
     8
 10
2.4037445977
 20
1.0486542265
 30
0.0
  0
VERTEX
  5
67A
  8
0
  6
CONTINUOUS
 62
     8
 10
2.3559219571
 20
1.067380265
 30
0.0
  0
VERTEX
  5
67B
  8
0
  6
CONTINUOUS
 62
     8
 10
2.3095917994
 20
1.0873175379
 30
0.0
  0
VERTEX
  5
67C
  8
0
  6
CONTINUOUS
 62
     8
 10
2.2648461089
 20
1.1084264615
 30
0.0
  0
VERTEX
  5
67D
  8
0
  6
CONTINUOUS
 62
     8
 10
2.2217737239
 20
1.130665126
 30
0.0
  0
VERTEX
  5
67E
  8
0
  6
CONTINUOUS
 62
     8
 10
2.1804601608
 20
1.1539893787
 30
0.0
  0
VERTEX
  5
67F
  8
0
  6
CONTINUOUS
 62
     8
 10
2.1409874437
 20
1.1783529113
 30
0.0
  0
VERTEX
  5
680
  8
0
  6
CONTINUOUS
 62
     8
 10
2.1034339421
 20
1.2037073524
 30
0.0
  0
VERTEX
  5
681
  8
0
  6
CONTINUOUS
 62
     8
 10
2.0678742151
 20
1.2300023631
 30
0.0
  0
VERTEX
  5
682
  8
0
  6
CONTINUOUS
 62
     8
 10
2.034378863
 20
1.2571857369
 30
0.0
  0
VERTEX
  5
683
  8
0
  6
CONTINUOUS
 62
     8
 10
2.003014388
 20
1.2852035039
 30
0.0
  0
VERTEX
  5
684
  8
0
  6
CONTINUOUS
 62
     8
 10
1.9738430611
 20
1.3140000374
 30
0.0
  0
VERTEX
  5
685
  8
0
  6
CONTINUOUS
 62
     8
 10
1.9469227995
 20
1.3435181645
 30
0.0
  0
VERTEX
  5
686
  8
0
  6
CONTINUOUS
 62
     8
 10
1.9223070507
 20
1.3736992798
 30
0.0
  0
VERTEX
  5
687
  8
0
  6
CONTINUOUS
 62
     8
 10
1.9000446872
 20
1.4044834613
 30
0.0
  0
VERTEX
  5
688
  8
0
  6
CONTINUOUS
 62
     8
 10
1.8801799086
 20
1.43580959
 30
0.0
  0
VERTEX
  5
689
  8
0
  6
CONTINUOUS
 62
     8
 10
1.8627521548
 20
1.4676154707
 30
0.0
  0
VERTEX
  5
68A
  8
0
  6
CONTINUOUS
 62
     8
 10
1.8477960269
 20
1.4998379558
 30
0.0
  0
VERTEX
  5
68B
  8
0
  6
CONTINUOUS
 62
     8
 10
1.8353412189
 20
1.5324130706
 30
0.0
  0
VERTEX
  5
68C
  8
0
  6
CONTINUOUS
 62
     8
 10
1.8254124586
 20
1.5652761401
 30
0.0
  0
VERTEX
  5
68D
  8
0
  6
CONTINUOUS
 62
     8
 10
1.8180294588
 20
1.5983619178
 30
0.0
  0
VERTEX
  5
68E
  8
0
  6
CONTINUOUS
 62
     8
 10
1.8161110521
 20
1.6095921806
 30
0.0
  0
SEQEND
  5
708
  8
0
  6
CONTINUOUS
 62
     8
  0
POLYLINE
  5
180
  8
0
  6
CONTINUOUS
 62
     8
 66
     1
 10
0.0
 20
0.0
 30
0.0
 70
   128
  0
VERTEX
  5
68F
  8
0
  6
CONTINUOUS
 62
     8
 10
2.5631760004
 20
2.1285363822
 30
0.0
  0
VERTEX
  5
690
  8
0
  6
CONTINUOUS
 62
     8
 10
2.5954484662
 20
2.1461227503
 30
0.0
  0
VERTEX
  5
691
  8
0
  6
CONTINUOUS
 62
     8
 10
2.6294224081
 20
2.1626065683
 30
0.0
  0
VERTEX
  5
692
  8
0
  6
CONTINUOUS
 62
     8
 10
2.664984968
 20
2.1779330788
 30
0.0
  0
VERTEX
  5
693
  8
0
  6
CONTINUOUS
 62
     8
 10
2.7020180108
 20
2.1920513685
 30
0.0
  0
VERTEX
  5
694
  8
0
  6
CONTINUOUS
 62
     8
 10
2.7403985163
 20
2.2049145379
 30
0.0
  0
VERTEX
  5
695
  8
0
  6
CONTINUOUS
 62
     8
 10
2.7799989884
 20
2.2164798569
 30
0.0
  0
VERTEX
  5
696
  8
0
  6
CONTINUOUS
 62
     8
 10
2.8206878783
 20
2.2267089067
 30
0.0
  0
VERTEX
  5
697
  8
0
  6
CONTINUOUS
 62
     8
 10
2.8623300217
 20
2.2355677074
 30
0.0
  0
VERTEX
  5
698
  8
0
  6
CONTINUOUS
 62
     8
 10
2.9047870874
 20
2.2430268308
 30
0.0
  0
VERTEX
  5
699
  8
0
  6
CONTINUOUS
 62
     8
 10
2.9479180374
 20
2.2490614987
 30
0.0
  0
VERTEX
  5
69A
  8
0
  6
CONTINUOUS
 62
     8
 10
2.991579595
 20
2.2536516643
 30
0.0
  0
VERTEX
  5
69B
  8
0
  6
CONTINUOUS
 62
     8
 10
3.0356267209
 20
2.2567820797
 30
0.0
  0
VERTEX
  5
69C
  8
0
  6
CONTINUOUS
 62
     8
 10
3.079913095
 20
2.2584423459
 30
0.0
  0
VERTEX
  5
69D
  8
0
  6
CONTINUOUS
 62
     8
 10
3.1242916024
 20
2.2586269477
 30
0.0
  0
VERTEX
  5
69E
  8
0
  6
CONTINUOUS
 62
     8
 10
3.1686148221
 20
2.2573352718
 30
0.0
  0
VERTEX
  5
69F
  8
0
  6
CONTINUOUS
 62
     8
 10
3.212735517
 20
2.2545716092
 30
0.0
  0
VERTEX
  5
6A0
  8
0
  6
CONTINUOUS
 62
     8
 10
3.2565071224
 20
2.2503451402
 30
0.0
  0
VERTEX
  5
6A1
  8
0
  6
CONTINUOUS
 62
     8
 10
3.2997842335
 20
2.244669905
 30
0.0
  0
VERTEX
  5
6A2
  8
0
  6
CONTINUOUS
 62
     8
 10
3.3424230881
 20
2.237564756
 30
0.0
  0
VERTEX
  5
6A3
  8
0
  6
CONTINUOUS
 62
     8
 10
3.3842820443
 20
2.2290532959
 30
0.0
  0
VERTEX
  5
6A4
  8
0
  6
CONTINUOUS
 62
     8
 10
3.4252220506
 20
2.2191637987
 30
0.0
  0
VERTEX
  5
6A5
  8
0
  6
CONTINUOUS
 62
     8
 10
3.4651071087
 20
2.2079291166
 30
0.0
  0
VERTEX
  5
6A6
  8
0
  6
CONTINUOUS
 62
     8
 10
3.5038047243
 20
2.1953865699
 30
0.0
  0
VERTEX
  5
6A7
  8
0
  6
CONTINUOUS
 62
     8
 10
3.5411863478
 20
2.1815778237
 30
0.0
  0
VERTEX
  5
6A8
  8
0
  6
CONTINUOUS
 62
     8
 10
3.5771278013
 20
2.1665487494
 30
0.0
  0
VERTEX
  5
6A9
  8
0
  6
CONTINUOUS
 62
     8
 10
3.6115096908
 20
2.1503492718
 30
0.0
  0
VERTEX
  5
6AA
  8
0
  6
CONTINUOUS
 62
     8
 10
3.6442178032
 20
2.1330332042
 30
0.0
  0
VERTEX
  5
6AB
  8
0
  6
CONTINUOUS
 62
     8
 10
3.6751434854
 20
2.1146580688
 30
0.0
  0
VERTEX
  5
6AC
  8
0
  6
CONTINUOUS
 62
     8
 10
3.7041840054
 20
2.0952849058
 30
0.0
  0
VERTEX
  5
6AD
  8
0
  6
CONTINUOUS
 62
     8
 10
3.7312428936
 20
2.074978071
 30
0.0
  0
VERTEX
  5
6AE
  8
0
  6
CONTINUOUS
 62
     8
 10
3.7562302629
 20
2.0538050216
 30
0.0
  0
VERTEX
  5
6AF
  8
0
  6
CONTINUOUS
 62
     8
 10
3.7790631079
 20
2.0318360925
 30
0.0
  0
VERTEX
  5
6B0
  8
0
  6
CONTINUOUS
 62
     8
 10
3.7996655802
 20
2.0091442621
 30
0.0
  0
VERTEX
  5
6B1
  8
0
  6
CONTINUOUS
 62
     8
 10
3.8063740297
 20
2.0009985957
 30
0.0
  0
SEQEND
  5
709
  8
0
  6
CONTINUOUS
 62
     8
  0
ARC
  5
181
  8
0
  6
CONTINUOUS
 62
     8
 10
2.8287953623
 20
1.6502291637
 30
0.0
 40
0.5471119087633406
 50
119.0448206005
 51
140.1290276547
  0
POLYLINE
  5
182
  8
0
  6
CONTINUOUS
 62
     8
 66
     1
 10
0.0
 20
0.0
 30
0.0
 70
   128
  0
VERTEX
  5
6B2
  8
0
  6
CONTINUOUS
 62
     8
 10
2.577318136
 20
2.1040414848
 30
0.0
  0
VERTEX
  5
6B3
  8
0
  6
CONTINUOUS
 62
     8
 10
2.6093560237
 20
2.1214811907
 30
0.0
  0
VERTEX
  5
6B4
  8
0
  6
CONTINUOUS
 62
     8
 10
2.6431116277
 20
2.1378054054
 30
0.0
  0
VERTEX
  5
6B5
  8
0
  6
CONTINUOUS
 62
     8
 10
2.6784685857
 20
2.1529578558
 30
0.0
  0
VERTEX
  5
6B6
  8
0
  6
CONTINUOUS
 62
     8
 10
2.7153050147
 20
2.1668863085
 30
0.0
  0
VERTEX
  5
6B7
  8
0
  6
CONTINUOUS
 62
     8
 10
2.7534939321
 20
2.1795427491
 30
0.0
  0
VERTEX
  5
6B8
  8
0
  6
CONTINUOUS
 62
     8
 10
2.7929036927
 20
2.1908835482
 30
0.0
  0
VERTEX
  5
6B9
  8
0
  6
CONTINUOUS
 62
     8
 10
2.8333984429
 20
2.2008696117
 30
0.0
  0
VERTEX
  5
6BA
  8
0
  6
CONTINUOUS
 62
     8
 10
2.8748385888
 20
2.2094665157
 30
0.0
  0
VERTEX
  5
6BB
  8
0
  6
CONTINUOUS
 62
     8
 10
2.9170812778
 20
2.2166446248
 30
0.0
  0
VERTEX
  5
6BC
  8
0
  6
CONTINUOUS
 62
     8
 10
2.9599808906
 20
2.2223791946
 30
0.0
  0
VERTEX
  5
6BD
  8
0
  6
CONTINUOUS
 62
     8
 10
3.0033895432
 20
2.2266504569
 30
0.0
  0
VERTEX
  5
6BE
  8
0
  6
CONTINUOUS
 62
     8
 10
3.0471575971
 20
2.2294436876
 30
0.0
  0
VERTEX
  5
6BF
  8
0
  6
CONTINUOUS
 62
     8
 10
3.0911341747
 20
2.230749258
 30
0.0
  0
VERTEX
  5
6C0
  8
0
  6
CONTINUOUS
 62
     8
 10
3.1351676796
 20
2.2305626676
 30
0.0
  0
VERTEX
  5
6C1
  8
0
  6
CONTINUOUS
 62
     8
 10
3.1791063193
 20
2.2288845594
 30
0.0
  0
VERTEX
  5
6C2
  8
0
  6
CONTINUOUS
 62
     8
 10
3.2227986281
 20
2.2257207183
 30
0.0
  0
VERTEX
  5
6C3
  8
0
  6
CONTINUOUS
 62
     8
 10
3.2660939896
 20
2.2210820508
 30
0.0
  0
VERTEX
  5
6C4
  8
0
  6
CONTINUOUS
 62
     8
 10
3.3088431557
 20
2.2149845472
 30
0.0
  0
VERTEX
  5
6C5
  8
0
  6
CONTINUOUS
 62
     8
 10
3.3508987612
 20
2.207449227
 30
0.0
  0
VERTEX
  5
6C6
  8
0
  6
CONTINUOUS
 62
     8
 10
3.3921158317
 20
2.1985020658
 30
0.0
  0
VERTEX
  5
6C7
  8
0
  6
CONTINUOUS
 62
     8
 10
3.4323522834
 20
2.1881739066
 30
0.0
  0
VERTEX
  5
6C8
  8
0
  6
CONTINUOUS
 62
     8
 10
3.471469413
 20
2.1765003524
 30
0.0
  0
VERTEX
  5
6C9
  8
0
  6
CONTINUOUS
 62
     8
 10
3.5093323755
 20
2.1635216446
 30
0.0
  0
VERTEX
  5
6CA
  8
0
  6
CONTINUOUS
 62
     8
 10
3.5458106496
 20
2.1492825234
 30
0.0
  0
VERTEX
  5
6CB
  8
0
  6
CONTINUOUS
 62
     8
 10
3.580778487
 20
2.133832074
 30
0.0
  0
VERTEX
  5
6CC
  8
0
  6
CONTINUOUS
 62
     8
 10
3.6141153463
 20
2.1172235574
 30
0.0
  0
VERTEX
  5
6CD
  8
0
  6
CONTINUOUS
 62
     8
 10
3.6457063086
 20
2.0995142264
 30
0.0
  0
VERTEX
  5
6CE
  8
0
  6
CONTINUOUS
 62
     8
 10
3.6754424731
 20
2.0807651288
 30
0.0
  0
VERTEX
  5
6CF
  8
0
  6
CONTINUOUS
 62
     8
 10
3.7032213333
 20
2.0610408968
 30
0.0
  0
VERTEX
  5
6D0
  8
0
  6
CONTINUOUS
 62
     8
 10
3.7289471295
 20
2.0404095237
 30
0.0
  0
VERTEX
  5
6D1
  8
0
  6
CONTINUOUS
 62
     8
 10
3.7525311798
 20
2.0189421302
 30
0.0
  0
VERTEX
  5
6D2
  8
0
  6
CONTINUOUS
 62
     8
 10
3.7738921848
 20
1.9967127188
 30
0.0
  0
VERTEX
  5
6D3
  8
0
  6
CONTINUOUS
 62
     8
 10
3.7894014235
 20
1.9783428679
 30
0.0
  0
SEQEND
  5
70A
  8
0
  6
CONTINUOUS
 62
     8
  0
ARC
  5
183
  8
0
  6
CONTINUOUS
 62
     8
 10
2.8350018625
 20
1.6395162348
 30
0.0
 40
0.5312105146372113
 50
119.0182233353
 51
140.3044563667
  0
POLYLINE
  5
184
  8
0
  6
CONTINUOUS
 62
     8
 66
     1
 10
0.0
 20
0.0
 30
0.0
 70
   128
  0
VERTEX
  5
6D4
  8
0
  6
CONTINUOUS
 62
     8
 10
2.577318136
 20
1.9836017151
 30
0.0
  0
VERTEX
  5
6D5
  8
0
  6
CONTINUOUS
 62
     8
 10
2.6093560237
 20
2.001041421
 30
0.0
  0
VERTEX
  5
6D6
  8
0
  6
CONTINUOUS
 62
     8
 10
2.6431116277
 20
2.0173656356
 30
0.0
  0
VERTEX
  5
6D7
  8
0
  6
CONTINUOUS
 62
     8
 10
2.6784685857
 20
2.0325180861
 30
0.0
  0
VERTEX
  5
6D8
  8
0
  6
CONTINUOUS
 62
     8
 10
2.7153050147
 20
2.0464465387
 30
0.0
  0
VERTEX
  5
6D9
  8
0
  6
CONTINUOUS
 62
     8
 10
2.7534939321
 20
2.0591029793
 30
0.0
  0
VERTEX
  5
6DA
  8
0
  6
CONTINUOUS
 62
     8
 10
2.7929036927
 20
2.0704437784
 30
0.0
  0
VERTEX
  5
6DB
  8
0
  6
CONTINUOUS
 62
     8
 10
2.8333984429
 20
2.080429842
 30
0.0
  0
VERTEX
  5
6DC
  8
0
  6
CONTINUOUS
 62
     8
 10
2.8748385888
 20
2.089026746
 30
0.0
  0
VERTEX
  5
6DD
  8
0
  6
CONTINUOUS
 62
     8
 10
2.9170812778
 20
2.0962048551
 30
0.0
  0
VERTEX
  5
6DE
  8
0
  6
CONTINUOUS
 62
     8
 10
2.9599808906
 20
2.1019394249
 30
0.0
  0
VERTEX
  5
6DF
  8
0
  6
CONTINUOUS
 62
     8
 10
3.0033895432
 20
2.1062106871
 30
0.0
  0
VERTEX
  5
6E0
  8
0
  6
CONTINUOUS
 62
     8
 10
3.0471575971
 20
2.1090039179
 30
0.0
  0
VERTEX
  5
6E1
  8
0
  6
CONTINUOUS
 62
     8
 10
3.0911341747
 20
2.1103094883
 30
0.0
  0
VERTEX
  5
6E2
  8
0
  6
CONTINUOUS
 62
     8
 10
3.1351676796
 20
2.1101228978
 30
0.0
  0
VERTEX
  5
6E3
  8
0
  6
CONTINUOUS
 62
     8
 10
3.1791063193
 20
2.1084447896
 30
0.0
  0
VERTEX
  5
6E4
  8
0
  6
CONTINUOUS
 62
     8
 10
3.2227986281
 20
2.1052809486
 30
0.0
  0
VERTEX
  5
6E5
  8
0
  6
CONTINUOUS
 62
     8
 10
3.2660939896
 20
2.100642281
 30
0.0
  0
VERTEX
  5
6E6
  8
0
  6
CONTINUOUS
 62
     8
 10
3.3088431557
 20
2.0945447775
 30
0.0
  0
VERTEX
  5
6E7
  8
0
  6
CONTINUOUS
 62
     8
 10
3.3508987612
 20
2.0870094572
 30
0.0
  0
VERTEX
  5
6E8
  8
0
  6
CONTINUOUS
 62
     8
 10
3.3921158317
 20
2.0780622961
 30
0.0
  0
VERTEX
  5
6E9
  8
0
  6
CONTINUOUS
 62
     8
 10
3.4323522834
 20
2.0677341368
 30
0.0
  0
VERTEX
  5
6EA
  8
0
  6
CONTINUOUS
 62
     8
 10
3.471469413
 20
2.0560605827
 30
0.0
  0
VERTEX
  5
6EB
  8
0
  6
CONTINUOUS
 62
     8
 10
3.5093323755
 20
2.0430818749
 30
0.0
  0
VERTEX
  5
6EC
  8
0
  6
CONTINUOUS
 62
     8
 10
3.5458106496
 20
2.0288427537
 30
0.0
  0
VERTEX
  5
6ED
  8
0
  6
CONTINUOUS
 62
     8
 10
3.580778487
 20
2.0133923043
 30
0.0
  0
VERTEX
  5
6EE
  8
0
  6
CONTINUOUS
 62
     8
 10
3.6141153463
 20
1.9967837876
 30
0.0
  0
VERTEX
  5
6EF
  8
0
  6
CONTINUOUS
 62
     8
 10
3.6457063086
 20
1.9790744566
 30
0.0
  0
VERTEX
  5
6F0
  8
0
  6
CONTINUOUS
 62
     8
 10
3.6754424731
 20
1.9603253591
 30
0.0
  0
VERTEX
  5
6F1
  8
0
  6
CONTINUOUS
 62
     8
 10
3.7032213333
 20
1.940601127
 30
0.0
  0
VERTEX
  5
6F2
  8
0
  6
CONTINUOUS
 62
     8
 10
3.7289471295
 20
1.9199697539
 30
0.0
  0
VERTEX
  5
6F3
  8
0
  6
CONTINUOUS
 62
     8
 10
3.7299901423
 20
1.9190768805
 30
0.0
  0
SEQEND
  5
70B
  8
0
  6
CONTINUOUS
 62
     8
  0
ARC
  5
185
  8
0
  6
CONTINUOUS
 62
     8
 10
2.8745451178
 20
1.4618925235
 30
0.0
 40
0.600436807102793
 50
119.6709322776
 51
130.4111472572
  0
ENDSEC
  0
EOF
