  0
SECTION
  2
HEADER
  9
$ACADVER
  1
AC1009
  9
$DWGCODEPAGE
  3
ansi_1252
  9
$INSBASE
 10
0.0
 20
0.0
 30
0.0
  9
$EXTMIN
 10
0.0
 20
0.0
 30
0.0
  9
$EXTMAX
 10
11.0
 20
8.5
 30
0.0
  9
$LIMMIN
 10
0.0
 20
0.0
  9
$LIMMAX
 10
11.0
 20
8.5
  9
$ORTHOMODE
 70
     0
  9
$REGENMODE
 70
     1
  9
$FILLMODE
 70
     1
  9
$QTEXTMODE
 70
     0
  9
$MIRRTEXT
 70
     1
  9
$DRAGMODE
 70
     2
  9
$LTSCALE
 40
1.0
  9
$OSMODE
 70
    37
  9
$ATTMODE
 70
     1
  9
$TEXTSIZE
 40
0.094
  9
$TRACEWID
 40
0.05
  9
$TEXTSTYLE
  7
STANDARD
  9
$CLAYER
  8
0
  9
$CELTYPE
  6
BYLAYER
  9
$CECOLOR
 62
   256
  9
$DIMSCALE
 40
1.0
  9
$DIMASZ
 40
0.094
  9
$DIMEXO
 40
0.05
  9
$DIMDLI
 40
0.38
  9
$DIMRND
 40
0.0
  9
$DIMDLE
 40
0.0
  9
$DIMEXE
 40
0.125
  9
$DIMTP
 40
0.0
  9
$DIMTM
 40
0.0
  9
$DIMTXT
 40
0.094
  9
$DIMCEN
 40
0.09
  9
$DIMTSZ
 40
0.0
  9
$DIMTOL
 70
     0
  9
$DIMLIM
 70
     0
  9
$DIMTIH
 70
     1
  9
$DIMTOH
 70
     1
  9
$DIMSE1
 70
     0
  9
$DIMSE2
 70
     0
  9
$DIMTAD
 70
     0
  9
$DIMZIN
 70
     0
  9
$DIMBLK
  1

  9
$DIMASO
 70
     1
  9
$DIMSHO
 70
     1
  9
$DIMPOST
  1

  9
$DIMAPOST
  1

  9
$DIMALT
 70
     0
  9
$DIMALTD
 70
     2
  9
$DIMALTF
 40
25.4
  9
$DIMLFAC
 40
2.0
  9
$DIMTOFL
 70
     0
  9
$DIMTVP
 40
0.0
  9
$DIMTIX
 70
     0
  9
$DIMSOXD
 70
     0
  9
$DIMSAH
 70
     0
  9
$DIMBLK1
  1

  9
$DIMBLK2
  1

  9
$DIMSTYLE
  2
STANDARD
  9
$DIMCLRD
 70
     0
  9
$DIMCLRE
 70
     0
  9
$DIMCLRT
 70
     0
  9
$DIMTFAC
 40
1.0
  9
$DIMGAP
 40
0.06
  9
$LUNITS
 70
     2
  9
$LUPREC
 70
     3
  9
$SKETCHINC
 40
0.1
  9
$FILLETRAD
 40
0.5
  9
$AUNITS
 70
     0
  9
$AUPREC
 70
     0
  9
$MENU
  1
.
  9
$ELEVATION
 40
0.0
  9
$PELEVATION
 40
0.0
  9
$THICKNESS
 40
0.0
  9
$LIMCHECK
 70
     0
  9
$CHAMFERA
 40
0.0
  9
$CHAMFERB
 40
0.0
  9
$SKPOLY
 70
     0
  9
$TDCREATE
 40
2457742.554492963
  9
$TDUPDATE
 40
2457742.554496076
  9
$TDINDWG
 40
0.0000000116
  9
$TDUSRTIMER
 40
0.0000000116
  9
$USRTIMER
 70
     1
  9
$ANGBASE
 50
0.0
  9
$ANGDIR
 70
     0
  9
$PDMODE
 70
     0
  9
$PDSIZE
 40
-1.0
  9
$PLINEWID
 40
0.0
  9
$COORDS
 70
     1
  9
$SPLFRAME
 70
     0
  9
$SPLINETYPE
 70
     6
  9
$SPLINESEGS
 70
     8
  9
$ATTDIA
 70
     0
  9
$ATTREQ
 70
     1
  9
$HANDLING
 70
     1
  9
$HANDSEED
  5
733
  9
$SURFTAB1
 70
     6
  9
$SURFTAB2
 70
     6
  9
$SURFTYPE
 70
     6
  9
$SURFU
 70
     6
  9
$SURFV
 70
     6
  9
$UCSNAME
  2

  9
$UCSORG
 10
0.0
 20
0.0
 30
0.0
  9
$UCSXDIR
 10
1.0
 20
0.0
 30
0.0
  9
$UCSYDIR
 10
0.0
 20
1.0
 30
0.0
  9
$PUCSNAME
  2

  9
$PUCSORG
 10
0.0
 20
0.0
 30
0.0
  9
$PUCSXDIR
 10
1.0
 20
0.0
 30
0.0
  9
$PUCSYDIR
 10
0.0
 20
1.0
 30
0.0
  9
$USERI1
 70
     0
  9
$USERI2
 70
     0
  9
$USERI3
 70
     0
  9
$USERI4
 70
     0
  9
$USERI5
 70
     0
  9
$USERR1
 40
0.0
  9
$USERR2
 40
0.0
  9
$USERR3
 40
0.0
  9
$USERR4
 40
0.0
  9
$USERR5
 40
0.0
  9
$WORLDVIEW
 70
     1
  9
$SHADEDGE
 70
     3
  9
$SHADEDIF
 70
    70
  9
$TILEMODE
 70
     1
  9
$MAXACTVP
 70
    64
  9
$PLIMCHECK
 70
     0
  9
$PEXTMIN
 10
1.0000000000E+20
 20
1.0000000000E+20
 30
1.0000000000E+20
  9
$PEXTMAX
 10
-1.0000000000E+20
 20
-1.0000000000E+20
 30
-1.0000000000E+20
  9
$PLIMMIN
 10
0.0
 20
0.0
  9
$PLIMMAX
 10
12.0
 20
9.0
  9
$UNITMODE
 70
     0
  9
$VISRETAIN
 70
     1
  9
$PLINEGEN
 70
     0
  9
$PSLTSCALE
 70
     1
  0
ENDSEC
  0
SECTION
  2
TABLES
  0
TABLE
  2
VPORT
 70
     1
  0
VPORT
  2
*ACTIVE
 70
     0
 10
0.0
 20
0.0
 11
1.0
 21
1.0
 12
5.5
 22
4.25
 13
0.0
 23
0.0
 14
0.5
 24
0.5
 15
0.5
 25
0.5
 16
0.0
 26
0.0
 36
1.0
 17
0.0
 27
0.0
 37
0.0
 40
8.5
 41
1.2941176471
 42
50.0
 43
0.0
 44
0.0
 50
0.0
 51
0.0
 71
     0
 72
  2000
 73
     1
 74
     3
 75
     0
 76
     0
 77
     0
 78
     0
  0
ENDTAB
  0
TABLE
  2
LTYPE
 70
     6
  0
LTYPE
  2
CONTINUOUS
 70
     0
  3
Solid line
 72
    65
 73
     0
 40
0.0
  0
LTYPE
  2
HIDDEN
 70
     0
  3
Hidden __ __ __ __ __ __ __ __ __ __ __ __ __ __
 72
    65
 73
     2
 40
0.075
 49
0.05
 49
-0.025
  0
LTYPE
  2
PHANTOM
 70
     0
  3
Phantom ______  __  __  ______  __  __  ______
 72
    65
 73
     6
 40
0.5
 49
0.25
 49
-0.05
 49
0.05
 49
-0.05
 49
0.05
 49
-0.05
  0
LTYPE
  2
CENTER
 70
     0
  3
Center ____ _ ____ _ ____ _ ____ _ ____ _ ____
 72
    65
 73
     4
 40
0.4
 49
0.25
 49
-0.05
 49
0.05
 49
-0.05
  0
LTYPE
  2
CENTERX2
 70
     0
  3
Center (2x) ________  __  ________  __  _____
 72
    65
 73
     4
 40
0.8
 49
0.5
 49
-0.1
 49
0.1
 49
-0.1
  0
LTYPE
  2
DOT2
 70
     0
  3
Dot (.5x) ........................................
 72
    65
 73
     2
 40
0.025
 49
0.0
 49
-0.025
  0
ENDTAB
  0
TABLE
  2
LAYER
 70
     2
  0
LAYER
  2
0
 70
     0
 62
     7
  6
CONTINUOUS
  0
LAYER
  2
FORMAT
 70
     0
 62
     7
  6
CONTINUOUS
  0
ENDTAB
  0
TABLE
  2
STYLE
 70
     1
  0
STYLE
  2
STANDARD
 70
     0
 40
0.0
 41
1.0
 50
0.0
 71
     0
 42
0.094
  3
txt
  4

  0
ENDTAB
  0
TABLE
  2
VIEW
 70
     0
  0
ENDTAB
  0
TABLE
  2
UCS
 70
     0
  0
ENDTAB
  0
TABLE
  2
APPID
 70
     1
  0
APPID
  2
ACAD
 70
     0
  0
ENDTAB
  0
TABLE
  2
DIMSTYLE
 70
     2
  0
DIMSTYLE
  2
STANDARD
 70
     0
  3

  4

  5

  6

  7

 40
1.0
 41
0.18
 42
0.0625
 43
0.38
 44
0.18
 45
0.0
 46
0.0
 47
0.0
 48
0.0
140
0.18
141
0.09
142
0.0
143
25.4
144
1.0
145
0.0
146
1.0
147
0.09
 71
     0
 72
     0
 73
     1
 74
     1
 75
     0
 76
     0
 77
     0
 78
     0
170
     0
171
     2
172
     0
173
     0
174
     0
175
     0
176
     0
177
     0
178
     0
  0
DIMSTYLE
  2
SLDDIMSTYLE0
 70
     0
  3

  4

  5

  6

  7

 40
1.0
 41
0.094
 42
0.0625
 43
0.38
 44
0.0
 45
0.000000001
 46
0.0
 47
0.0
 48
0.0
140
0.094
141
0.09
142
0.0
143
25.4
144
1.0
145
0.0
146
1.0
147
0.0235
 71
     0
 72
     0
 73
     1
 74
     1
 75
     0
 76
     0
 77
     0
 78
    12
170
     0
171
     2
172
     0
173
     1
174
     0
175
     0
176
     0
177
     0
178
     0
  0
ENDTAB
  0
ENDSEC
  0
SECTION
  2
BLOCKS
  0
BLOCK
  8
0
  2
$MODEL_SPACE
 70
     0
 10
0.0
 20
0.0
 30
0.0
  3
$MODEL_SPACE
  1

  0
ENDBLK
  5
21
  8
0
  0
BLOCK
 67
     1
  8
0
  2
$PAPER_SPACE
 70
     0
 10
0.0
 20
0.0
 30
0.0
  3
$PAPER_SPACE
  1

  0
ENDBLK
  5
1D
 67
     1
  8
0
  0
BLOCK
  8
0
  2
SW_NOTE_0
 70
     0
 10
0.0
 20
0.0
 30
0.0
  3
SW_NOTE_0
  1

  0
TEXT
  5
90
  8
0
  6
CONTINUOUS
 62
     0
 10
0.0
 20
0.0735958462
 30
0.0
 40
0.2083333333
  1
Auburn Bearing
 41
0.7
 11
0.0
 21
0.0
 31
0.0
 73
     1
  0
TEXT
  5
91
  8
0
  6
CONTINUOUS
 62
     0
 10
0.3324845058
 20
-0.1225091592
 30
0.0
 40
0.125
  1
& MANUFACTURING
 41
0.7
 11
0.3324845058
 21
-0.1666666669
 31
0.0
 73
     1
  0
TEXT
  5
92
  8
0
  6
CONTINUOUS
 62
     0
 10
0.2038966512
 20
-0.268757631
 30
0.0
 40
0.1041666667
  1
Made in the USA since 1898
 41
0.6326923077
 11
0.2038966512
 21
-0.3055555542
 31
0.0
 73
     1
  0
ENDBLK
  5
8F
  8
0
  0
BLOCK
  8
0
  2
SW_NOTE_1
 70
     0
 10
0.0
 20
0.0
 30
0.0
  3
SW_NOTE_1
  1

  0
TEXT
  5
99
  8
0
  6
CONTINUOUS
 62
     0
 10
0.0
 20
0.0176630031
 30
0.0
 40
0.05
  1
THE INFORMATION CONTAINED IN THIS DRAWING IS THE SOLE PROPERTY OF AUBURN BALL BEARING.  ANY 
 41
0.6391304348
 11
0.0
 21
0.0
 31
0.0
 73
     1
  0
TEXT
  5
9A
  8
0
  6
CONTINUOUS
 62
     0
 10
-0.1618921698
 20
-0.0717070778
 30
0.0
 40
0.05
  1
REPRODUCTION IN WHOLE OR IN PART WITHOUT THE WRITTEN PERMISSION OF AUBURN BALL BEARING IS PROHIBITED.
 41
0.648019802
 11
-0.1618921698
 21
-0.0893700809
 31
0.0
 73
     1
  0
ENDBLK
  5
98
  8
0
  0
BLOCK
  8
0
  2
_D
 70
     0
 10
0.0
 20
0.0
 30
0.0
  3
_D
  1

  0
SOLID
  5
A5
  8
0
  6
CONTINUOUS
 62
     7
 10
6.4790969025
 20
7.4996908143
 30
0.0
 11
6.5730969025
 21
7.4852292758
 31
0.0
 12
6.5730969025
 22
7.5141523527
 32
0.0
 13
6.5730969025
 23
7.5141523527
 33
0.0
  0
SOLID
  5
A6
  8
0
  6
CONTINUOUS
 62
     7
 10
10.0728469025
 20
7.4996908143
 30
0.0
 11
9.9788469025
 21
7.5141523527
 31
0.0
 12
9.9788469025
 22
7.4852292758
 32
0.0
 13
9.9788469025
 23
7.4852292758
 33
0.0
  0
LINE
  5
A7
  8
0
  6
CONTINUOUS
 62
     7
 10
6.4790969025
 20
5.2478945544
 30
0.0
 11
6.4790969025
 21
7.6246908143
 31
0.0
  0
LINE
  5
A8
  8
0
  6
CONTINUOUS
 62
     7
 10
10.0728469025
 20
5.2478945544
 30
0.0
 11
10.0728469025
 21
7.6246908143
 31
0.0
  0
LINE
  5
A9
  8
0
  6
CONTINUOUS
 62
     7
 10
6.4790969025
 20
7.4996908143
 30
0.0
 11
8.0792789182
 21
7.4996908143
 31
0.0
  0
LINE
  5
AA
  8
0
  6
CONTINUOUS
 62
     7
 10
10.0728469025
 20
7.4996908143
 30
0.0
 11
8.5335926266
 21
7.4996908143
 31
0.0
  0
TEXT
  5
AB
  8
0
  6
CONTINUOUS
 62
     7
 10
8.0792789182
 20
7.4575667043
 30
0.0
 40
0.094
  1
%%c
 41
0.7
 11
8.0792789182
 21
7.4243602584
 31
0.0
 73
     1
  0
TEXT
  5
AC
  8
0
  6
CONTINUOUS
 62
     7
 10
8.2210426681
 20
7.4590028156
 30
0.0
 40
0.094
  1
3.594
 41
0.7
 11
8.2210426681
 21
7.4257963698
 31
0.0
 73
     1
  0
ENDBLK
  5
A4
  8
0
  0
BLOCK
  8
0
  2
_D_1
 70
     0
 10
0.0
 20
0.0
 30
0.0
  3
_D_1
  1

  0
SOLID
  5
B1
  8
0
  6
CONTINUOUS
 62
     7
 10
7.1822219025
 20
2.8473778221
 30
0.0
 11
7.2762219025
 21
2.8329162837
 31
0.0
 12
7.2762219025
 22
2.8618393606
 32
0.0
 13
7.2762219025
 23
2.8618393606
 33
0.0
  0
SOLID
  5
B2
  8
0
  6
CONTINUOUS
 62
     7
 10
9.3697219025
 20
2.8473778221
 30
0.0
 11
9.2757219025
 21
2.8618393606
 31
0.0
 12
9.2757219025
 22
2.8329162837
 32
0.0
 13
9.2757219025
 23
2.8329162837
 33
0.0
  0
LINE
  5
B3
  8
0
  6
CONTINUOUS
 62
     7
 10
7.1822219025
 20
5.1478945544
 30
0.0
 11
7.1822219025
 21
2.7223778221
 31
0.0
  0
LINE
  5
B4
  8
0
  6
CONTINUOUS
 62
     7
 10
9.3697219025
 20
5.1478945544
 30
0.0
 11
9.3697219025
 21
2.7223778221
 31
0.0
  0
LINE
  5
B5
  8
0
  6
CONTINUOUS
 62
     7
 10
7.1822219025
 20
2.8473778221
 30
0.0
 11
8.10145661
 21
2.8473778221
 31
0.0
  0
LINE
  5
B6
  8
0
  6
CONTINUOUS
 62
     7
 10
9.3697219025
 20
2.8473778221
 30
0.0
 11
8.5557703184
 21
2.8473778221
 31
0.0
  0
TEXT
  5
B7
  8
0
  6
CONTINUOUS
 62
     7
 10
8.10145661
 20
2.8052537121
 30
0.0
 40
0.094
  1
%%c
 41
0.7
 11
8.10145661
 21
2.7720472663
 31
0.0
 73
     1
  0
TEXT
  5
B8
  8
0
  6
CONTINUOUS
 62
     7
 10
8.2432203598
 20
2.8066898235
 30
0.0
 40
0.094
  1
2.188
 41
0.7
 11
8.2432203598
 21
2.7734833776
 31
0.0
 73
     1
  0
ENDBLK
  5
B0
  8
0
  0
BLOCK
  8
0
  2
SW_CENTERMARKSYMBOL_0
 70
     0
 10
0.0
 20
0.0
 30
0.0
  3
SW_CENTERMARKSYMBOL_0
  1

  0
LINE
  5
BC
  8
0
  6
CONTINUOUS
 62
     0
 10
0.0
 20
0.0
 30
0.0
 11
0.0
 21
0.1
 31
0.0
  0
LINE
  5
BD
  8
0
  6
CONTINUOUS
 62
     0
 10
0.0
 20
0.0
 30
0.0
 11
-0.1
 21
0.0
 31
0.0
  0
LINE
  5
BE
  8
0
  6
CONTINUOUS
 62
     0
 10
0.0
 20
0.0
 30
0.0
 11
0.0
 21
-0.1
 31
0.0
  0
LINE
  5
BF
  8
0
  6
CONTINUOUS
 62
     0
 10
0.0
 20
0.0
 30
0.0
 11
0.1
 21
0.0
 31
0.0
  0
LINE
  5
C0
  8
0
  6
CONTINUOUS
 62
     0
 10
0.0
 20
0.2
 30
0.0
 11
0.0
 21
1.896875
 31
0.0
  0
LINE
  5
C1
  8
0
  6
CONTINUOUS
 62
     0
 10
-0.2
 20
0.0
 30
0.0
 11
-1.896875
 21
0.0
 31
0.0
  0
LINE
  5
C2
  8
0
  6
CONTINUOUS
 62
     0
 10
0.0
 20
-0.2
 30
0.0
 11
0.0
 21
-1.896875
 31
0.0
  0
LINE
  5
C3
  8
0
  6
CONTINUOUS
 62
     0
 10
0.2
 20
0.0
 30
0.0
 11
1.896875
 21
0.0
 31
0.0
  0
ENDBLK
  5
BB
  8
0
  0
BLOCK
  8
0
  2
_D_2
 70
     0
 10
0.0
 20
0.0
 30
0.0
  3
_D_2
  1

  0
SOLID
  5
154
  8
0
  6
CONTINUOUS
 62
     7
 10
4.1773746173
 20
7.6246908143
 30
0.0
 11
4.0833746173
 21
7.6391523527
 31
0.0
 12
4.0833746173
 22
7.6102292758
 32
0.0
 13
4.0833746173
 23
7.6102292758
 33
0.0
  0
SOLID
  5
155
  8
0
  6
CONTINUOUS
 62
     7
 10
3.3653746173
 20
7.6246908143
 30
0.0
 11
3.4593746173
 21
7.6102292758
 31
0.0
 12
3.4593746173
 22
7.6391523527
 32
0.0
 13
3.4593746173
 23
7.6391523527
 33
0.0
  0
LINE
  5
156
  8
0
  6
CONTINUOUS
 62
     7
 10
4.1773746173
 20
7.0247695544
 30
0.0
 11
4.1773746173
 21
7.7496908143
 31
0.0
  0
LINE
  5
157
  8
0
  6
CONTINUOUS
 62
     7
 10
3.3653746173
 20
7.0247695544
 30
0.0
 11
3.3653746173
 21
7.7496908143
 31
0.0
  0
LINE
  5
158
  8
0
  6
CONTINUOUS
 62
     7
 10
4.1773746173
 20
7.6246908143
 30
0.0
 11
3.8772217231
 21
7.6246908143
 31
0.0
  0
LINE
  5
159
  8
0
  6
CONTINUOUS
 62
     7
 10
3.3653746173
 20
7.6246908143
 30
0.0
 11
3.6341272814
 21
7.6246908143
 31
0.0
  0
TEXT
  5
15A
  8
0
  6
CONTINUOUS
 62
     7
 10
3.6341272814
 20
7.5832847622
 30
0.586
 40
0.094
  1
.812
 41
0.7
 11
3.6341272814
 21
7.5500783164
 31
0.586
 73
     1
  0
ENDBLK
  5
153
  8
0
  0
ENDSEC
  0
SECTION
  2
ENTITIES
  0
LINE
  5
75
  8
0
  6
CONTINUOUS
 62
     7
 10
0.2588915831
 20
8.1920731707
 30
0.0
 11
10.629927
 21
8.1920731707
 31
0.0
  0
LINE
  5
76
  8
0
  6
CONTINUOUS
 62
     7
 10
0.2588915831
 20
8.1920731707
 30
0.0
 11
0.2588915831
 21
0.3920731707
 31
0.0
  0
LINE
  5
77
  8
0
  6
CONTINUOUS
 62
     7
 10
10.629927
 20
0.3920731707
 30
0.0
 11
0.2588915831
 21
0.3920731707
 31
0.0
  0
LINE
  5
78
  8
0
  6
CONTINUOUS
 62
     7
 10
10.629927
 20
0.3920731707
 30
0.0
 11
10.629927
 21
8.1920731707
 31
0.0
  0
LINE
  5
79
  8
0
  6
CONTINUOUS
 62
     7
 10
6.895369671
 20
0.6920731707
 30
0.0
 11
6.895369671
 21
0.3920731707
 31
0.0
  0
LINE
  5
7A
  8
0
  6
CONTINUOUS
 62
     7
 10
6.895369671
 20
2.2538646663
 30
0.0
 11
6.895369671
 21
0.6920731707
 31
0.0
  0
LINE
  5
7B
  8
0
  6
CONTINUOUS
 62
     7
 10
6.895369671
 20
0.6920731707
 30
0.0
 11
10.629927
 21
0.6920731707
 31
0.0
  0
LINE
  5
7C
  8
0
  6
CONTINUOUS
 62
     7
 10
6.895369671
 20
1.2938884062
 30
0.0
 11
10.629927
 21
1.2938884062
 31
0.0
  0
LINE
  5
7D
  8
0
  6
CONTINUOUS
 62
     7
 10
7.4789412454
 20
1.0420731707
 30
0.0
 11
10.629927
 21
1.0420731707
 31
0.0
  0
LINE
  5
7E
  8
0
  6
CONTINUOUS
 62
     7
 10
7.4789412454
 20
1.0420731707
 30
0.0
 11
6.895369671
 21
1.0420731707
 31
0.0
  0
LINE
  5
7F
  8
0
  6
CONTINUOUS
 62
     7
 10
10.629927
 20
2.2538646663
 30
0.0
 11
5.7428859
 21
2.2538646663
 31
0.0
  0
LINE
  5
80
  8
0
  6
CONTINUOUS
 62
     7
 10
6.7188368717
 20
0.6155953096
 30
0.0
 11
6.4188368717
 21
0.6155953096
 31
0.0
  0
LINE
  5
81
  8
0
  6
CONTINUOUS
 62
     7
 10
5.9688368717
 20
0.7405953096
 30
0.0
 11
5.9688368717
 21
0.4905953096
 31
0.0
  0
LINE
  5
82
  8
0
  6
CONTINUOUS
 62
     7
 10
5.9688368717
 20
0.7405953096
 30
0.0
 11
6.2688368717
 21
0.6780953096
 31
0.0
  0
LINE
  5
83
  8
0
  6
CONTINUOUS
 62
     7
 10
6.2688368717
 20
0.6780953096
 30
0.0
 11
6.2688368717
 21
0.5530953096
 31
0.0
  0
LINE
  5
84
  8
0
  6
CONTINUOUS
 62
     7
 10
6.2688368717
 20
0.5530953096
 30
0.0
 11
5.9688368717
 21
0.4905953096
 31
0.0
  0
LINE
  5
85
  8
0
  6
CONTINUOUS
 62
     7
 10
6.5688368717
 20
0.7655953096
 30
0.0
 11
6.5688368717
 21
0.4655953096
 31
0.0
  0
LINE
  5
86
  8
0
  6
CONTINUOUS
 62
     7
 10
6.2938368717
 20
0.6155953096
 30
0.0
 11
5.9438368717
 21
0.6155953096
 31
0.0
  0
LINE
  5
87
  8
0
  6
CONTINUOUS
 62
     7
 10
6.895369671
 20
0.8670731707
 30
0.0
 11
5.7428859
 21
0.8670731707
 31
0.0
  0
LINE
  5
88
  8
0
  6
CONTINUOUS
 62
     7
 10
5.7428859
 20
0.3920731707
 30
0.0
 11
5.7428859
 21
2.2538646663
 31
0.0
  0
CIRCLE
  5
89
  8
0
  6
CONTINUOUS
 62
     7
 10
6.5688368717
 20
0.6155953096
 30
0.0
 40
0.1250000000000005
  0
CIRCLE
  5
8A
  8
0
  6
CONTINUOUS
 62
     7
 10
6.5688368717
 20
0.6155953096
 30
0.0
 40
0.0624999999999998
  0
TEXT
  5
8B
  8
0
  6
CONTINUOUS
 62
     7
 10
9.7735262143
 20
0.7778772066
 30
0.0
 40
0.1875
  1
AE-37S
 41
0.7
 11
9.7735262143
 21
0.711640945
 31
0.0
 73
     1
  0
TEXT
  5
8C
  8
0
  6
CONTINUOUS
 62
     7
 10
6.9454407988
 20
0.9373362189
 30
0.0
 40
0.0833333333
  1
ITEM NUMBER
 41
0.7
 11
6.9454407988
 21
0.9078978804
 31
0.0
 73
     1
  0
INSERT
  5
93
  8
0
  6
CONTINUOUS
 62
     7
  2
SW_NOTE_0
 10
7.6846410003
 20
1.7911336193
 30
0.0
  0
TEXT
  5
94
  8
0
  6
CONTINUOUS
 62
     7
 10
7.4296269445
 20
1.1264966581
 30
0.0
 40
0.1041666667
  1
Roller Thrust Bearing, AE-37S,  2.188 x 3.594 x .812
 41
0.6394230769
 11
7.4296269445
 21
1.089698735
 31
0.0
 73
     1
  0
TEXT
  5
95
  8
0
  6
CONTINUOUS
 62
     7
 10
6.9585720202
 20
1.2053935902
 30
0.0
 40
0.065
  1
DESCRIPTION
 41
0.7
 11
6.9585720202
 21
1.1824316862
 31
0.0
 73
     1
  0
INSERT
  5
9B
  8
0
  6
CONTINUOUS
 62
     7
  2
SW_NOTE_1
 10
7.1289909583
 20
0.5372783317
 30
0.0
  0
CIRCLE
  5
9C
  8
0
  6
CONTINUOUS
 62
     7
 10
8.2759719025
 20
5.1978945544
 30
0.0
 40
1.093750000000001
  0
CIRCLE
  5
9D
  8
0
  6
CONTINUOUS
 62
     7
 10
8.2759719025
 20
5.1978945544
 30
0.0
 40
1.113750000000001
  0
CIRCLE
  5
9E
  8
0
  6
CONTINUOUS
 62
     7
 10
8.2759719025
 20
5.1978945544
 30
0.0
 40
1.776875000000001
  0
CIRCLE
  5
9F
  8
0
  6
CONTINUOUS
 62
     7
 10
8.2759719025
 20
5.1978945544
 30
0.0
 40
1.796875000000002
  0
DIMENSION
  5
A0
  8
0
  6
CONTINUOUS
 62
     7
  2
_D
 10
10.0728469025
 20
7.4996908143
 30
0.0
 11
8.3064357724
 21
7.4996908143
 31
0.0
 70
   160
  1
%%c<>
  3
SLDDIMSTYLE0
 13
6.4790969025
 23
5.1978945544
 33
0.0
 14
10.0728469025
 24
5.1978945544
 34
0.0
  0
DIMENSION
  5
AD
  8
0
  6
CONTINUOUS
 62
     7
  2
_D_1
 10
9.3697219025
 20
2.8473778221
 30
0.0
 11
8.3286134642
 21
2.8473778221
 31
0.0
 70
   160
  1
%%c<>
  3
SLDDIMSTYLE0
 13
7.1822219025
 23
5.1978945544
 33
0.0
 14
9.3697219025
 24
5.1978945544
 34
0.0
  0
INSERT
  5
C4
  8
0
  6
CONTINUOUS
 62
     7
  2
SW_CENTERMARKSYMBOL_0
 10
8.2759719025
 20
5.1978945544
 30
0.0
  0
LINE
  5
C5
  8
0
  6
HIDDEN
 62
     7
 10
8.2759719025
 20
7.1927432781
 30
0.0
 11
8.2759719025
 21
3.1388407923
 31
0.0
  0
LINE
  5
C6
  8
0
  6
CONTINUOUS
 62
     7
 10
8.2759719025
 20
7.1927432781
 30
0.0
 11
8.4659719025
 21
7.1927432781
 31
0.0
  0
SOLID
  5
C7
  8
0
  6
CONTINUOUS
 62
     7
 10
8.4659719025
 20
7.1927432781
 30
0.0
 11
8.3409719025
 21
7.2127432781
 31
0.0
 12
8.3409719025
 22
7.1727432781
 32
0.0
 13
8.3409719025
 23
7.1727432781
 33
0.0
  0
LINE
  5
C8
  8
0
  6
CONTINUOUS
 62
     7
 10
8.2759719025
 20
3.1388407923
 30
0.0
 11
8.4659719025
 21
3.1388407923
 31
0.0
  0
SOLID
  5
C9
  8
0
  6
CONTINUOUS
 62
     7
 10
8.4659719025
 20
3.1388407923
 30
0.0
 11
8.3409719025
 21
3.1588407923
 31
0.0
 12
8.3409719025
 22
3.1188407923
 32
0.0
 13
8.3409719025
 23
3.1188407923
 33
0.0
  0
TEXT
  5
CA
  8
0
  6
CONTINUOUS
 62
     7
 10
8.4942153587
 20
7.1733194518
 30
0.0
 40
0.094
  1
A
 41
0.7
 11
8.4942153587
 21
7.2673194518
 31
0.0
 73
     3
  0
TEXT
  5
CB
  8
0
  6
CONTINUOUS
 62
     7
 10
8.4942153587
 20
3.119416966
 30
0.0
 40
0.094
  1
A
 41
0.7
 11
8.4942153587
 21
3.213416966
 31
0.0
 73
     3
  0
LINE
  5
CC
  8
0
  6
CONTINUOUS
 62
     7
 10
3.6153746173
 20
3.4977392538
 30
0.0
 11
3.6420943167
 21
3.4710195544
 31
0.0
  0
LINE
  5
CD
  8
0
  6
CONTINUOUS
 62
     7
 10
3.6153746173
 20
3.5861276015
 30
0.0
 11
3.7304826644
 21
3.4710195544
 31
0.0
  0
LINE
  5
CE
  8
0
  6
CONTINUOUS
 62
     7
 10
3.6153746173
 20
3.6745159491
 30
0.0
 11
3.818871012
 21
3.4710195544
 31
0.0
  0
LINE
  5
CF
  8
0
  6
CONTINUOUS
 62
     7
 10
3.6153746173
 20
3.7629042967
 30
0.0
 11
3.9072593597
 21
3.4710195544
 31
0.0
  0
LINE
  5
D0
  8
0
  6
CONTINUOUS
 62
     7
 10
3.6153746173
 20
3.8512926444
 30
0.0
 11
3.9273746173
 21
3.5392926444
 31
0.0
  0
LINE
  5
D1
  8
0
  6
CONTINUOUS
 62
     7
 10
3.6153746173
 20
3.939680992
 30
0.0
 11
3.9273746173
 21
3.627680992
 31
0.0
  0
LINE
  5
D2
  8
0
  6
CONTINUOUS
 62
     7
 10
3.6185249521
 20
4.0249190049
 30
0.0
 11
3.9273746173
 21
3.7160693397
 31
0.0
  0
LINE
  5
D3
  8
0
  6
CONTINUOUS
 62
     7
 10
3.6976877502
 20
4.0341445544
 30
0.0
 11
3.9273746173
 21
3.8044576873
 31
0.0
  0
LINE
  5
D4
  8
0
  6
CONTINUOUS
 62
     7
 10
3.7860760979
 20
4.0341445544
 30
0.0
 11
3.9273746173
 21
3.892846035
 31
0.0
  0
LINE
  5
D5
  8
0
  6
CONTINUOUS
 62
     7
 10
3.8744644455
 20
4.0341445544
 30
0.0
 11
3.9273746173
 21
3.9812343826
 31
0.0
  0
LINE
  5
D6
  8
0
  6
CONTINUOUS
 62
     7
 10
4.0918381797
 20
4.1041445544
 30
0.0
 11
3.9273746173
 21
3.939680992
 31
0.0
  0
LINE
  5
D7
  8
0
  6
CONTINUOUS
 62
     7
 10
4.1773746173
 20
4.0129042967
 30
0.0
 11
3.9273746173
 21
3.7629042967
 31
0.0
  0
LINE
  5
D8
  8
0
  6
CONTINUOUS
 62
     7
 10
4.1773746173
 20
3.8361276015
 30
0.0
 11
3.9273746173
 21
3.5861276015
 31
0.0
  0
LINE
  5
D9
  8
0
  6
CONTINUOUS
 62
     7
 10
4.1773746173
 20
3.6593509062
 30
0.0
 11
3.9296942404
 21
3.4116705292
 31
0.0
  0
LINE
  5
DA
  8
0
  6
CONTINUOUS
 62
     7
 10
4.1773746173
 20
3.4825742109
 30
0.0
 11
4.0958199609
 21
3.4010195544
 31
0.0
  0
LINE
  5
DB
  8
0
  6
CONTINUOUS
 62
     7
 10
3.9772593597
 20
6.9947695544
 30
0.0
 11
3.9273746173
 21
6.9448848121
 31
0.0
  0
LINE
  5
DC
  8
0
  6
CONTINUOUS
 62
     7
 10
4.1540360549
 20
6.9947695544
 30
0.0
 11
3.9273746173
 21
6.7681081168
 31
0.0
  0
LINE
  5
DD
  8
0
  6
CONTINUOUS
 62
     7
 10
4.1773746173
 20
6.8413314215
 30
0.0
 11
3.9273746173
 21
6.5913314215
 31
0.0
  0
LINE
  5
DE
  8
0
  6
CONTINUOUS
 62
     7
 10
4.1773746173
 20
6.6645547262
 30
0.0
 11
3.9273746173
 21
6.4145547262
 31
0.0
  0
LINE
  5
DF
  8
0
  6
CONTINUOUS
 62
     7
 10
4.1773746173
 20
6.4877780309
 30
0.0
 11
3.9812411408
 21
6.2916445544
 31
0.0
  0
LINE
  5
E0
  8
0
  6
CONTINUOUS
 62
     7
 10
4.1773639245
 20
6.3109906427
 30
0.0
 11
4.158028529
 21
6.2916552473
 31
0.0
  0
LINE
  5
E1
  8
0
  6
CONTINUOUS
 62
     7
 10
3.3847207056
 20
4.1041338615
 30
0.0
 11
3.3653853102
 21
4.0847984661
 31
0.0
  0
LINE
  5
E2
  8
0
  6
CONTINUOUS
 62
     7
 10
3.5615080938
 20
4.1041445544
 30
0.0
 11
3.3653746173
 21
3.9080110779
 31
0.0
  0
LINE
  5
E3
  8
0
  6
CONTINUOUS
 62
     7
 10
3.6153746173
 20
3.9812343826
 30
0.0
 11
3.3653746173
 21
3.7312343826
 31
0.0
  0
LINE
  5
E4
  8
0
  6
CONTINUOUS
 62
     7
 10
3.6153746173
 20
3.8044576873
 30
0.0
 11
3.3653746173
 21
3.5544576873
 31
0.0
  0
LINE
  5
E5
  8
0
  6
CONTINUOUS
 62
     7
 10
3.6153746173
 20
3.627680992
 30
0.0
 11
3.3887131797
 21
3.4010195544
 31
0.0
  0
LINE
  5
E6
  8
0
  6
CONTINUOUS
 62
     7
 10
3.6153746173
 20
3.4509042967
 30
0.0
 11
3.565489875
 21
3.4010195544
 31
0.0
  0
LINE
  5
E7
  8
0
  6
CONTINUOUS
 62
     7
 10
3.4469292738
 20
6.9947695544
 30
0.0
 11
3.3653746173
 21
6.913214898
 31
0.0
  0
LINE
  5
E8
  8
0
  6
CONTINUOUS
 62
     7
 10
3.6130549942
 20
6.9841185796
 30
0.0
 11
3.3653746173
 21
6.7364382027
 31
0.0
  0
LINE
  5
E9
  8
0
  6
CONTINUOUS
 62
     7
 10
3.6153746173
 20
6.8096615074
 30
0.0
 11
3.3653746173
 21
6.5596615074
 31
0.0
  0
LINE
  5
EA
  8
0
  6
CONTINUOUS
 62
     7
 10
3.6153746173
 20
6.6328848121
 30
0.0
 11
3.3653746173
 21
6.3828848121
 31
0.0
  0
LINE
  5
EB
  8
0
  6
CONTINUOUS
 62
     7
 10
3.6153746173
 20
6.4561081168
 30
0.0
 11
3.4509110549
 21
6.2916445544
 31
0.0
  0
LINE
  5
EC
  8
0
  6
CONTINUOUS
 62
     7
 10
3.7182847891
 20
4.0841445544
 30
0.0
 11
3.6682847891
 21
4.0341445544
 31
0.0
  0
LINE
  5
ED
  8
0
  6
CONTINUOUS
 62
     7
 10
3.8912180509
 20
4.0803011209
 30
0.0
 11
3.8450614844
 21
4.0341445544
 31
0.0
  0
LINE
  5
EE
  8
0
  6
CONTINUOUS
 62
     7
 10
3.635489875
 20
3.4710195544
 30
0.0
 11
3.6353746173
 21
3.4709042967
 31
0.0
  0
LINE
  5
EF
  8
0
  6
CONTINUOUS
 62
     7
 10
3.8122665703
 20
3.4710195544
 30
0.0
 11
3.7622665703
 21
3.4210195544
 31
0.0
  0
LINE
  5
F0
  8
0
  6
CONTINUOUS
 62
     7
 10
3.6976877502
 20
6.3616445544
 30
0.0
 11
3.6515311838
 21
6.315487988
 31
0.0
  0
LINE
  5
F1
  8
0
  6
CONTINUOUS
 62
     7
 10
3.8744644455
 20
6.3616445544
 30
0.0
 11
3.8244644455
 21
6.3116445544
 31
0.0
  0
LINE
  5
F2
  8
0
  6
CONTINUOUS
 62
     7
 10
3.7804826644
 20
6.9747695544
 30
0.0
 11
3.7304826644
 21
6.9247695544
 31
0.0
  0
LINE
  5
F3
  8
0
  6
CONTINUOUS
 62
     7
 10
3.9073746173
 20
6.9248848121
 30
0.0
 11
3.9072593597
 21
6.9247695544
 31
0.0
  0
LINE
  5
F4
  8
0
  6
CONTINUOUS
 62
     7
 10
3.6153746173
 20
6.4145547262
 30
0.0
 11
3.6682847891
 21
6.3616445544
 31
0.0
  0
LINE
  5
F5
  8
0
  6
CONTINUOUS
 62
     7
 10
3.6153746173
 20
6.5029430738
 30
0.0
 11
3.7566731367
 21
6.3616445544
 31
0.0
  0
LINE
  5
F6
  8
0
  6
CONTINUOUS
 62
     7
 10
3.6153746173
 20
6.5913314215
 30
0.0
 11
3.8450614844
 21
6.3616445544
 31
0.0
  0
LINE
  5
F7
  8
0
  6
CONTINUOUS
 62
     7
 10
3.6153746173
 20
6.6797197691
 30
0.0
 11
3.9242242825
 21
6.370870104
 31
0.0
  0
LINE
  5
F8
  8
0
  6
CONTINUOUS
 62
     7
 10
3.6153746173
 20
6.7681081168
 30
0.0
 11
3.9273746173
 21
6.4561081168
 31
0.0
  0
LINE
  5
F9
  8
0
  6
CONTINUOUS
 62
     7
 10
3.6153746173
 20
6.8564964644
 30
0.0
 11
3.9273746173
 21
6.5444964644
 31
0.0
  0
LINE
  5
FA
  8
0
  6
CONTINUOUS
 62
     7
 10
3.635489875
 20
6.9247695544
 30
0.0
 11
3.9273746173
 21
6.6328848121
 31
0.0
  0
LINE
  5
FB
  8
0
  6
CONTINUOUS
 62
     7
 10
3.7238782226
 20
6.9247695544
 30
0.0
 11
3.9273746173
 21
6.7212731597
 31
0.0
  0
LINE
  5
FC
  8
0
  6
CONTINUOUS
 62
     7
 10
3.8122665703
 20
6.9247695544
 30
0.0
 11
3.9273746173
 21
6.8096615074
 31
0.0
  0
LINE
  5
FD
  8
0
  6
CONTINUOUS
 62
     7
 10
3.9006549179
 20
6.9247695544
 30
0.0
 11
3.9273746173
 21
6.898049855
 31
0.0
  0
ARC
  5
FE
  8
0
  6
CONTINUOUS
 62
     7
 10
3.6353746173
 20
6.3816445544
 30
0.0
 40
0.0200000000000005
 50
180.0
 51
270.0
  0
LINE
  5
FF
  8
0
  6
CONTINUOUS
 62
     7
 10
3.6153746173
 20
6.3816445544
 30
0.0
 11
3.6153746173
 21
6.9047695544
 31
0.0
  0
ARC
  5
100
  8
0
  6
CONTINUOUS
 62
     7
 10
3.6353746173
 20
6.9047695544
 30
0.0
 40
0.0200000000000005
 50
90.0
 51
180.0
  0
LINE
  5
101
  8
0
  6
CONTINUOUS
 62
     7
 10
3.6353746173
 20
6.9247695544
 30
0.0
 11
3.9073746173
 21
6.9247695544
 31
0.0
  0
ARC
  5
102
  8
0
  6
CONTINUOUS
 62
     7
 10
3.9073746173
 20
6.9047695544
 30
0.0
 40
0.0200000000000005
 50
0.0
 51
90.0
  0
LINE
  5
103
  8
0
  6
CONTINUOUS
 62
     7
 10
3.9273746173
 20
6.9047695544
 30
0.0
 11
3.9273746173
 21
6.3816445544
 31
0.0
  0
ARC
  5
104
  8
0
  6
CONTINUOUS
 62
     7
 10
3.9073746173
 20
6.3816445544
 30
0.0
 40
0.0200000000000005
 50
270.0
 51
0.0
  0
LINE
  5
105
  8
0
  6
CONTINUOUS
 62
     7
 10
3.6353746173
 20
6.3616445544
 30
0.0
 11
3.9073746173
 21
6.3616445544
 31
0.0
  0
LINE
  5
106
  8
0
  6
CONTINUOUS
 62
     7
 10
3.9073746173
 20
3.4410195544
 30
0.0
 11
3.8873746173
 21
3.4210195544
 31
0.0
  0
LINE
  5
107
  8
0
  6
CONTINUOUS
 62
     7
 10
3.8873746173
 20
6.9747695544
 30
0.0
 11
3.9073746173
 21
6.9547695544
 31
0.0
  0
LINE
  5
108
  8
0
  6
CONTINUOUS
 62
     7
 10
3.8873746173
 20
3.4210195544
 30
0.0
 11
3.6553746173
 21
3.4210195544
 31
0.0
  0
LINE
  5
109
  8
0
  6
CONTINUOUS
 62
     7
 10
3.6553746173
 20
6.9747695544
 30
0.0
 11
3.8873746173
 21
6.9747695544
 31
0.0
  0
LINE
  5
10A
  8
0
  6
CONTINUOUS
 62
     7
 10
3.6353746173
 20
6.9547695544
 30
0.0
 11
3.6553746173
 21
6.9747695544
 31
0.0
  0
LINE
  5
10B
  8
0
  6
CONTINUOUS
 62
     7
 10
3.6553746173
 20
3.4210195544
 30
0.0
 11
3.6353746173
 21
3.4410195544
 31
0.0
  0
LINE
  5
10C
  8
0
  6
CONTINUOUS
 62
     7
 10
3.6553746173
 20
6.3116445544
 30
0.0
 11
3.6553746173
 21
4.0841445544
 31
0.0
  0
LINE
  5
10D
  8
0
  6
CONTINUOUS
 62
     7
 10
3.6553746173
 20
4.0841445544
 30
0.0
 11
3.6353746173
 21
4.0641445544
 31
0.0
  0
LINE
  5
10E
  8
0
  6
CONTINUOUS
 62
     7
 10
3.6353746173
 20
6.3316445544
 30
0.0
 11
3.6553746173
 21
6.3116445544
 31
0.0
  0
LINE
  5
10F
  8
0
  6
CONTINUOUS
 62
     7
 10
3.6353746173
 20
6.3316445544
 30
0.0
 11
3.6353746173
 21
4.0641445544
 31
0.0
  0
LINE
  5
110
  8
0
  6
CONTINUOUS
 62
     7
 10
3.8873746173
 20
6.3116445544
 30
0.0
 11
3.8873746173
 21
4.0841445544
 31
0.0
  0
LINE
  5
111
  8
0
  6
CONTINUOUS
 62
     7
 10
3.8873746173
 20
4.0841445544
 30
0.0
 11
3.6553746173
 21
4.0841445544
 31
0.0
  0
LINE
  5
112
  8
0
  6
CONTINUOUS
 62
     7
 10
3.6553746173
 20
6.3116445544
 30
0.0
 11
3.8873746173
 21
6.3116445544
 31
0.0
  0
LINE
  5
113
  8
0
  6
CONTINUOUS
 62
     7
 10
3.9073746173
 20
6.3316445544
 30
0.0
 11
3.8873746173
 21
6.3116445544
 31
0.0
  0
LINE
  5
114
  8
0
  6
CONTINUOUS
 62
     7
 10
3.8873746173
 20
4.0841445544
 30
0.0
 11
3.9073746173
 21
4.0641445544
 31
0.0
  0
LINE
  5
115
  8
0
  6
CONTINUOUS
 62
     7
 10
3.9073746173
 20
6.3316445544
 30
0.0
 11
3.9073746173
 21
4.0641445544
 31
0.0
  0
LINE
  5
116
  8
0
  6
CONTINUOUS
 62
     7
 10
3.6353746173
 20
4.0341445544
 30
0.0
 11
3.9073746173
 21
4.0341445544
 31
0.0
  0
LINE
  5
117
  8
0
  6
CONTINUOUS
 62
     7
 10
3.6353746173
 20
4.0641445544
 30
0.0
 11
3.6353746173
 21
4.0341445544
 31
0.0
  0
LINE
  5
118
  8
0
  6
CONTINUOUS
 62
     7
 10
3.9073746173
 20
4.0641445544
 30
0.0
 11
3.9073746173
 21
4.0341445544
 31
0.0
  0
LINE
  5
119
  8
0
  6
CONTINUOUS
 62
     7
 10
3.6353746173
 20
3.4710195544
 30
0.0
 11
3.9073746173
 21
3.4710195544
 31
0.0
  0
LINE
  5
11A
  8
0
  6
CONTINUOUS
 62
     7
 10
3.6353746173
 20
3.4710195544
 30
0.0
 11
3.6353746173
 21
3.4410195544
 31
0.0
  0
LINE
  5
11B
  8
0
  6
CONTINUOUS
 62
     7
 10
3.9073746173
 20
3.4710195544
 30
0.0
 11
3.9073746173
 21
3.4410195544
 31
0.0
  0
LINE
  5
11C
  8
0
  6
CONTINUOUS
 62
     7
 10
3.6353746173
 20
6.3616445544
 30
0.0
 11
3.6353746173
 21
6.3316445544
 31
0.0
  0
LINE
  5
11D
  8
0
  6
CONTINUOUS
 62
     7
 10
3.9073746173
 20
6.3616445544
 30
0.0
 11
3.9073746173
 21
6.3316445544
 31
0.0
  0
LINE
  5
11E
  8
0
  6
CONTINUOUS
 62
     7
 10
3.6353746173
 20
6.9547695544
 30
0.0
 11
3.6353746173
 21
6.9247695544
 31
0.0
  0
LINE
  5
11F
  8
0
  6
CONTINUOUS
 62
     7
 10
3.9073746173
 20
6.9547695544
 30
0.0
 11
3.9073746173
 21
6.9247695544
 31
0.0
  0
LINE
  5
120
  8
0
  6
CONTINUOUS
 62
     7
 10
3.3853746173
 20
3.4010195544
 30
0.0
 11
3.5953746173
 21
3.4010195544
 31
0.0
  0
LINE
  5
121
  8
0
  6
CONTINUOUS
 62
     7
 10
3.5953746173
 20
6.9947695544
 30
0.0
 11
3.3853746173
 21
6.9947695544
 31
0.0
  0
ARC
  5
122
  8
0
  6
CONTINUOUS
 62
     7
 10
3.3853746173
 20
3.4210195544
 30
0.0
 40
0.0200000000000005
 50
180.0
 51
270.0
  0
ARC
  5
123
  8
0
  6
CONTINUOUS
 62
     7
 10
3.3853746173
 20
6.9747695544
 30
0.0
 40
0.0200000000000005
 50
90.0
 51
180.0
  0
ARC
  5
124
  8
0
  6
CONTINUOUS
 62
     7
 10
3.3853746173
 20
4.0841445544
 30
0.0
 40
0.0199999999999996
 50
90.0
 51
180.0
  0
ARC
  5
125
  8
0
  6
CONTINUOUS
 62
     7
 10
3.3853746173
 20
6.3116445544
 30
0.0
 40
0.0200000000000005
 50
180.0
 51
270.0
  0
LINE
  5
126
  8
0
  6
CONTINUOUS
 62
     7
 10
3.3853746173
 20
6.2916445544
 30
0.0
 11
3.3853746173
 21
4.1041445544
 31
0.0
  0
LINE
  5
127
  8
0
  6
CONTINUOUS
 62
     7
 10
3.3653746173
 20
6.3116445544
 30
0.0
 11
3.3653746173
 21
4.0841445544
 31
0.0
  0
LINE
  5
128
  8
0
  6
CONTINUOUS
 62
     7
 10
3.3853746173
 20
4.1041445544
 30
0.0
 11
3.5953746173
 21
4.1041445544
 31
0.0
  0
LINE
  5
129
  8
0
  6
CONTINUOUS
 62
     7
 10
3.5953746173
 20
6.2916445544
 30
0.0
 11
3.3853746173
 21
6.2916445544
 31
0.0
  0
LINE
  5
12A
  8
0
  6
CONTINUOUS
 62
     7
 10
3.5953746173
 20
6.2916445544
 30
0.0
 11
3.5953746173
 21
4.1041445544
 31
0.0
  0
LINE
  5
12B
  8
0
  6
CONTINUOUS
 62
     7
 10
3.6153746173
 20
6.3116445544
 30
0.0
 11
3.6153746173
 21
4.0841445544
 31
0.0
  0
ARC
  5
12C
  8
0
  6
CONTINUOUS
 62
     7
 10
3.5953746173
 20
4.0841445544
 30
0.0
 40
0.0199999999999996
 50
0.0
 51
90.0
  0
ARC
  5
12D
  8
0
  6
CONTINUOUS
 62
     7
 10
3.5953746173
 20
6.3116445544
 30
0.0
 40
0.0200000000000005
 50
270.0
 51
0.0
  0
ARC
  5
12E
  8
0
  6
CONTINUOUS
 62
     7
 10
3.5953746173
 20
3.4210195544
 30
0.0
 40
0.0200000000000005
 50
270.0
 51
0.0
  0
ARC
  5
12F
  8
0
  6
CONTINUOUS
 62
     7
 10
3.5953746173
 20
6.9747695544
 30
0.0
 40
0.0200000000000005
 50
0.0
 51
90.0
  0
LINE
  5
130
  8
0
  6
CONTINUOUS
 62
     7
 10
3.6153746173
 20
4.0841445544
 30
0.0
 11
3.6153746173
 21
3.4210195544
 31
0.0
  0
LINE
  5
131
  8
0
  6
CONTINUOUS
 62
     7
 10
3.3653746173
 20
4.0841445544
 30
0.0
 11
3.3653746173
 21
3.4210195544
 31
0.0
  0
LINE
  5
132
  8
0
  6
CONTINUOUS
 62
     7
 10
3.6153746173
 20
6.9747695544
 30
0.0
 11
3.6153746173
 21
6.3116445544
 31
0.0
  0
LINE
  5
133
  8
0
  6
CONTINUOUS
 62
     7
 10
3.3653746173
 20
6.9747695544
 30
0.0
 11
3.3653746173
 21
6.3116445544
 31
0.0
  0
LINE
  5
134
  8
0
  6
CONTINUOUS
 62
     7
 10
4.1773746173
 20
6.9747695544
 30
0.0
 11
4.1773746173
 21
6.3116445544
 31
0.0
  0
ARC
  5
135
  8
0
  6
CONTINUOUS
 62
     7
 10
4.1573746173
 20
6.3116445544
 30
0.0
 40
0.0200000000000005
 50
270.0
 51
0.0
  0
LINE
  5
136
  8
0
  6
CONTINUOUS
 62
     7
 10
4.1573746173
 20
6.2916445544
 30
0.0
 11
3.9473746173
 21
6.2916445544
 31
0.0
  0
ARC
  5
137
  8
0
  6
CONTINUOUS
 62
     7
 10
3.9473746173
 20
6.3116445544
 30
0.0
 40
0.0200000000000005
 50
180.0
 51
270.0
  0
LINE
  5
138
  8
0
  6
CONTINUOUS
 62
     7
 10
3.9273746173
 20
6.9747695544
 30
0.0
 11
3.9273746173
 21
6.3116445544
 31
0.0
  0
ARC
  5
139
  8
0
  6
CONTINUOUS
 62
     7
 10
3.9473746173
 20
6.9747695544
 30
0.0
 40
0.0200000000000005
 50
90.0
 51
180.0
  0
LINE
  5
13A
  8
0
  6
CONTINUOUS
 62
     7
 10
4.1573746173
 20
6.9947695544
 30
0.0
 11
3.9473746173
 21
6.9947695544
 31
0.0
  0
ARC
  5
13B
  8
0
  6
CONTINUOUS
 62
     7
 10
4.1573746173
 20
6.9747695544
 30
0.0
 40
0.0200000000000005
 50
0.0
 51
90.0
  0
LINE
  5
13C
  8
0
  6
CONTINUOUS
 62
     7
 10
3.9473746173
 20
3.4010195544
 30
0.0
 11
4.1573746173
 21
3.4010195544
 31
0.0
  0
ARC
  5
13D
  8
0
  6
CONTINUOUS
 62
     7
 10
3.9473746173
 20
3.4210195544
 30
0.0
 40
0.02
 50
180.0
 51
270.0
  0
ARC
  5
13E
  8
0
  6
CONTINUOUS
 62
     7
 10
3.9473746173
 20
4.0841445544
 30
0.0
 40
0.0199999999999996
 50
90.0
 51
180.0
  0
LINE
  5
13F
  8
0
  6
CONTINUOUS
 62
     7
 10
3.9473746173
 20
6.2916445544
 30
0.0
 11
3.9473746173
 21
4.1041445544
 31
0.0
  0
LINE
  5
140
  8
0
  6
CONTINUOUS
 62
     7
 10
3.9273746173
 20
6.3116445544
 30
0.0
 11
3.9273746173
 21
4.0841445544
 31
0.0
  0
LINE
  5
141
  8
0
  6
CONTINUOUS
 62
     7
 10
3.9473746173
 20
4.1041445544
 30
0.0
 11
4.1573746173
 21
4.1041445544
 31
0.0
  0
LINE
  5
142
  8
0
  6
CONTINUOUS
 62
     7
 10
4.1573746173
 20
6.2916445544
 30
0.0
 11
4.1573746173
 21
4.1041445544
 31
0.0
  0
LINE
  5
143
  8
0
  6
CONTINUOUS
 62
     7
 10
4.1773746173
 20
6.3116445544
 30
0.0
 11
4.1773746173
 21
4.0841445544
 31
0.0
  0
ARC
  5
144
  8
0
  6
CONTINUOUS
 62
     7
 10
4.1573746173
 20
4.0841445544
 30
0.0
 40
0.0200000000000005
 50
0.0
 51
90.0
  0
ARC
  5
145
  8
0
  6
CONTINUOUS
 62
     7
 10
4.1573746173
 20
3.4210195544
 30
0.0
 40
0.0200000000000005
 50
270.0
 51
0.0
  0
LINE
  5
146
  8
0
  6
CONTINUOUS
 62
     7
 10
4.1773746173
 20
4.0841445544
 30
0.0
 11
4.1773746173
 21
3.4210195544
 31
0.0
  0
LINE
  5
147
  8
0
  6
CONTINUOUS
 62
     7
 10
3.9273746173
 20
4.0841445544
 30
0.0
 11
3.9273746173
 21
3.4210195544
 31
0.0
  0
ARC
  5
148
  8
0
  6
CONTINUOUS
 62
     7
 10
3.9073746173
 20
4.0141445544
 30
0.0
 40
0.0200000000000005
 50
0.0
 51
90.0
  0
LINE
  5
149
  8
0
  6
CONTINUOUS
 62
     7
 10
3.9273746173
 20
4.0141445544
 30
0.0
 11
3.9273746173
 21
3.4910195544
 31
0.0
  0
ARC
  5
14A
  8
0
  6
CONTINUOUS
 62
     7
 10
3.9073746173
 20
3.4910195544
 30
0.0
 40
0.02
 50
270.0
 51
0.0
  0
ARC
  5
14B
  8
0
  6
CONTINUOUS
 62
     7
 10
3.6353746173
 20
3.4910195544
 30
0.0
 40
0.0200000000000005
 50
180.0
 51
270.0
  0
LINE
  5
14C
  8
0
  6
CONTINUOUS
 62
     7
 10
3.6153746173
 20
3.4910195544
 30
0.0
 11
3.6153746173
 21
4.0141445544
 31
0.0
  0
ARC
  5
14D
  8
0
  6
CONTINUOUS
 62
     7
 10
3.6353746173
 20
4.0141445544
 30
0.0
 40
0.0200000000000005
 50
90.0
 51
180.0
  0
ARC
  5
14E
  8
0
  6
CONTINUOUS
 62
     7
 10
3.7713746173
 20
5.1978945544
 30
0.0
 40
0.156
 50
330.6678898323
 51
29.3321101677
  0
ARC
  5
14F
  8
0
  6
CONTINUOUS
 62
     7
 10
3.7713746173
 20
5.1978945544
 30
0.0
 40
0.1560000000000004
 50
150.6678898323
 51
209.3321101677
  0
DIMENSION
  5
150
  8
0
  6
CONTINUOUS
 62
     7
  2
_D_2
 10
3.3653746173
 20
7.6246908143
 30
0.0
 11
3.7556745022
 21
7.6246908143
 31
0.0
 70
   160
  1
<>
  3
SLDDIMSTYLE0
 13
4.1773746173
 23
6.9747695544
 33
0.0
 14
3.3653746173
 24
6.9747695544
 34
0.0
  0
TEXT
  5
15B
  8
0
  6
CONTINUOUS
 62
     7
 10
3.4209595308
 20
3.2018845026
 30
0.0
 40
0.094
  1
SECTION A-A
 41
0.7
 11
3.4209595308
 21
3.1686780568
 31
0.0
 73
     1
  0
POLYLINE
  5
15C
  8
0
  6
CONTINUOUS
 62
     7
 66
     1
 10
0.0
 20
0.0
 30
0.0
 70
   128
  0
VERTEX
  5
190
  8
0
  6
CONTINUOUS
 62
     7
 10
4.2009098114
 20
2.3034930547
 30
0.0
  0
VERTEX
  5
191
  8
0
  6
CONTINUOUS
 62
     7
 10
4.1995839372
 20
2.3104987738
 30
0.0
  0
VERTEX
  5
192
  8
0
  6
CONTINUOUS
 62
     7
 10
4.1881595127
 20
2.3540172878
 30
0.0
  0
VERTEX
  5
193
  8
0
  6
CONTINUOUS
 62
     7
 10
4.1736098215
 20
2.3972194708
 30
0.0
  0
VERTEX
  5
194
  8
0
  6
CONTINUOUS
 62
     7
 10
4.1559560073
 20
2.4400323146
 30
0.0
  0
VERTEX
  5
195
  8
0
  6
CONTINUOUS
 62
     7
 10
4.1352244473
 20
2.4823814481
 30
0.0
  0
VERTEX
  5
196
  8
0
  6
CONTINUOUS
 62
     7
 10
4.1114475016
 20
2.5241913552
 30
0.0
  0
VERTEX
  5
197
  8
0
  6
CONTINUOUS
 62
     7
 10
4.0846640426
 20
2.5653858918
 30
0.0
  0
VERTEX
  5
198
  8
0
  6
CONTINUOUS
 62
     7
 10
4.0549196964
 20
2.6058889727
 30
0.0
  0
VERTEX
  5
199
  8
0
  6
CONTINUOUS
 62
     7
 10
4.0222668052
 20
2.6456252942
 30
0.0
  0
VERTEX
  5
19A
  8
0
  6
CONTINUOUS
 62
     7
 10
3.9867641686
 20
2.6845209883
 30
0.0
  0
VERTEX
  5
19B
  8
0
  6
CONTINUOUS
 62
     7
 10
3.9484766447
 20
2.7225041456
 30
0.0
  0
VERTEX
  5
19C
  8
0
  6
CONTINUOUS
 62
     7
 10
3.907474691
 20
2.7595051858
 30
0.0
  0
VERTEX
  5
19D
  8
0
  6
CONTINUOUS
 62
     7
 10
3.8638339078
 20
2.7954570876
 30
0.0
  0
VERTEX
  5
19E
  8
0
  6
CONTINUOUS
 62
     7
 10
3.8176346213
 20
2.8302955057
 30
0.0
  0
VERTEX
  5
19F
  8
0
  6
CONTINUOUS
 62
     7
 10
3.7689615262
 20
2.8639588105
 30
0.0
  0
VERTEX
  5
1A0
  8
0
  6
CONTINUOUS
 62
     7
 10
3.7179033886
 20
2.8963880803
 30
0.0
  0
VERTEX
  5
1A1
  8
0
  6
CONTINUOUS
 62
     7
 10
3.6645530225
 20
2.9275269512
 30
0.0
  0
VERTEX
  5
1A2
  8
0
  6
CONTINUOUS
 62
     7
 10
3.6090072293
 20
2.957321561
 30
0.0
  0
VERTEX
  5
1A3
  8
0
  6
CONTINUOUS
 62
     7
 10
3.5513655421
 20
2.9857211058
 30
0.0
  0
VERTEX
  5
1A4
  8
0
  6
CONTINUOUS
 62
     7
 10
3.4917307963
 20
3.012677356
 30
0.0
  0
VERTEX
  5
1A5
  8
0
  6
CONTINUOUS
 62
     7
 10
3.4302089884
 20
3.0381446634
 30
0.0
  0
VERTEX
  5
1A6
  8
0
  6
CONTINUOUS
 62
     7
 10
3.3669091342
 20
3.0620799822
 30
0.0
  0
VERTEX
  5
1A7
  8
0
  6
CONTINUOUS
 62
     7
 10
3.3019431219
 20
3.0844428997
 30
0.0
  0
VERTEX
  5
1A8
  8
0
  6
CONTINUOUS
 62
     7
 10
3.2354255586
 20
3.1051956775
 30
0.0
  0
VERTEX
  5
1A9
  8
0
  6
CONTINUOUS
 62
     7
 10
3.1674736067
 20
3.1243032962
 30
0.0
  0
VERTEX
  5
1AA
  8
0
  6
CONTINUOUS
 62
     7
 10
3.0982068125
 20
3.1417335049
 30
0.0
  0
VERTEX
  5
1AB
  8
0
  6
CONTINUOUS
 62
     7
 10
3.0277469249
 20
3.1574568707
 30
0.0
  0
VERTEX
  5
1AC
  8
0
  6
CONTINUOUS
 62
     7
 10
2.9562177058
 20
3.1714468283
 30
0.0
  0
VERTEX
  5
1AD
  8
0
  6
CONTINUOUS
 62
     7
 10
2.8837447322
 20
3.1836797265
 30
0.0
  0
VERTEX
  5
1AE
  8
0
  6
CONTINUOUS
 62
     7
 10
2.8104551917
 20
3.1941348726
 30
0.0
  0
VERTEX
  5
1AF
  8
0
  6
CONTINUOUS
 62
     7
 10
2.7364776714
 20
3.2027945715
 30
0.0
  0
VERTEX
  5
1B0
  8
0
  6
CONTINUOUS
 62
     7
 10
2.6619419415
 20
3.2096441608
 30
0.0
  0
VERTEX
  5
1B1
  8
0
  6
CONTINUOUS
 62
     7
 10
2.5869787345
 20
3.2146720394
 30
0.0
  0
VERTEX
  5
1B2
  8
0
  6
CONTINUOUS
 62
     7
 10
2.5117195207
 20
3.2178696914
 30
0.0
  0
VERTEX
  5
1B3
  8
0
  6
CONTINUOUS
 62
     7
 10
2.4362962811
 20
3.2192317034
 30
0.0
  0
VERTEX
  5
1B4
  8
0
  6
CONTINUOUS
 62
     7
 10
2.3608412779
 20
3.2187557751
 30
0.0
  0
VERTEX
  5
1B5
  8
0
  6
CONTINUOUS
 62
     7
 10
2.2854868991
 20
3.2164427271
 30
0.0
  0
VERTEX
  5
1B6
  8
0
  6
CONTINUOUS
 62
     7
 10
2.2103654897
 20
3.2122965119
 30
0.0
  0
VERTEX
  5
1B7
  8
0
  6
CONTINUOUS
 62
     7
 10
2.1356087672
 20
3.2063241902
 30
0.0
  0
VERTEX
  5
1B8
  8
0
  6
CONTINUOUS
 62
     7
 10
2.0613478064
 20
3.1985359133
 30
0.0
  0
VERTEX
  5
1B9
  8
0
  6
CONTINUOUS
 62
     7
 10
1.9877128114
 20
3.1889449015
 30
0.0
  0
VERTEX
  5
1BA
  8
0
  6
CONTINUOUS
 62
     7
 10
1.9148328912
 20
3.1775674156
 30
0.0
  0
VERTEX
  5
1BB
  8
0
  6
CONTINUOUS
 62
     7
 10
1.842835838
 20
3.1644227216
 30
0.0
  0
VERTEX
  5
1BC
  8
0
  6
CONTINUOUS
 62
     7
 10
1.7718479105
 20
3.1495330504
 30
0.0
  0
VERTEX
  5
1BD
  8
0
  6
CONTINUOUS
 62
     7
 10
1.701993622
 20
3.1329235508
 30
0.0
  0
VERTEX
  5
1BE
  8
0
  6
CONTINUOUS
 62
     7
 10
1.6333955352
 20
3.1146222384
 30
0.0
  0
VERTEX
  5
1BF
  8
0
  6
CONTINUOUS
 62
     7
 10
1.5661740633
 20
3.0946599391
 30
0.0
  0
VERTEX
  5
1C0
  8
0
  6
CONTINUOUS
 62
     7
 10
1.5004472807
 20
3.0730702297
 30
0.0
  0
VERTEX
  5
1C1
  8
0
  6
CONTINUOUS
 62
     7
 10
1.4363307415
 20
3.0498893761
 30
0.0
  0
VERTEX
  5
1C2
  8
0
  6
CONTINUOUS
 62
     7
 10
1.3739373093
 20
3.0251562705
 30
0.0
  0
VERTEX
  5
1C3
  8
0
  6
CONTINUOUS
 62
     7
 10
1.3133769969
 20
2.9989123697
 30
0.0
  0
VERTEX
  5
1C4
  8
0
  6
CONTINUOUS
 62
     7
 10
1.2547568185
 20
2.9712016378
 30
0.0
  0
VERTEX
  5
1C5
  8
0
  6
CONTINUOUS
 62
     7
 10
1.1981806523
 20
2.942070495
 30
0.0
  0
VERTEX
  5
1C6
  8
0
  6
CONTINUOUS
 62
     7
 10
1.1516640239
 20
2.9161655785
 30
0.0
  0
SEQEND
  5
718
  8
0
  6
CONTINUOUS
 62
     7
  0
POLYLINE
  5
15D
  8
0
  6
CONTINUOUS
 62
     7
 66
     1
 10
0.0
 20
0.0
 30
0.0
 70
   128
  0
VERTEX
  5
1C7
  8
0
  6
CONTINUOUS
 62
     7
 10
1.1516640239
 20
2.9161655785
 30
0.0
  0
VERTEX
  5
1C8
  8
0
  6
CONTINUOUS
 62
     7
 10
1.1237162643
 20
2.8996690251
 30
0.0
  0
VERTEX
  5
1C9
  8
0
  6
CONTINUOUS
 62
     7
 10
1.0724039658
 20
2.8673622598
 30
0.0
  0
VERTEX
  5
1CA
  8
0
  6
CONTINUOUS
 62
     7
 10
1.0234579435
 20
2.8338073223
 30
0.0
  0
VERTEX
  5
1CB
  8
0
  6
CONTINUOUS
 62
     7
 10
0.9769713976
 20
2.7990639216
 30
0.0
  0
VERTEX
  5
1CC
  8
0
  6
CONTINUOUS
 62
     7
 10
0.9330296774
 20
2.7631918859
 30
0.0
  0
VERTEX
  5
1CD
  8
0
  6
CONTINUOUS
 62
     7
 10
0.891713888
 20
2.7262534423
 30
0.0
  0
VERTEX
  5
1CE
  8
0
  6
CONTINUOUS
 62
     7
 10
0.8531009645
 20
2.6883134954
 30
0.0
  0
VERTEX
  5
1CF
  8
0
  6
CONTINUOUS
 62
     7
 10
0.8172634018
 20
2.6494397203
 30
0.0
  0
VERTEX
  5
1D0
  8
0
  6
CONTINUOUS
 62
     7
 10
0.7842689115
 20
2.6097026273
 30
0.0
  0
VERTEX
  5
1D1
  8
0
  6
CONTINUOUS
 62
     7
 10
0.7541799991
 20
2.5691755641
 30
0.0
  0
VERTEX
  5
1D2
  8
0
  6
CONTINUOUS
 62
     7
 10
0.7270534708
 20
2.527934608
 30
0.0
  0
VERTEX
  5
1D3
  8
0
  6
CONTINUOUS
 62
     7
 10
0.7029399023
 20
2.4860583014
 30
0.0
  0
VERTEX
  5
1D4
  8
0
  6
CONTINUOUS
 62
     7
 10
0.6818831255
 20
2.4436271913
 30
0.0
  0
VERTEX
  5
1D5
  8
0
  6
CONTINUOUS
 62
     7
 10
0.6639198195
 20
2.4007231632
 30
0.0
  0
VERTEX
  5
1D6
  8
0
  6
CONTINUOUS
 62
     7
 10
0.6490793003
 20
2.3574286011
 30
0.0
  0
VERTEX
  5
1D7
  8
0
  6
CONTINUOUS
 62
     7
 10
0.6373835966
 20
2.3138254627
 30
0.0
  0
VERTEX
  5
1D8
  8
0
  6
CONTINUOUS
 62
     7
 10
0.6346943611
 20
2.3000162342
 30
0.0
  0
SEQEND
  5
719
  8
0
  6
CONTINUOUS
 62
     7
  0
LINE
  5
15E
  8
0
  6
CONTINUOUS
 62
     7
 10
4.214978573
 20
2.0020434489
 30
0.0
 11
4.214978573
 21
2.1735170194
 31
0.0
  0
LINE
  5
15F
  8
0
  6
CONTINUOUS
 62
     7
 10
0.621228573
 20
2.1735170194
 30
0.0
 11
0.621228573
 21
2.0020434489
 31
0.0
  0
POLYLINE
  5
160
  8
0
  6
CONTINUOUS
 62
     7
 66
     1
 10
0.0
 20
0.0
 30
0.0
 70
   128
  0
VERTEX
  5
1D9
  8
0
  6
CONTINUOUS
 62
     7
 10
0.6354802737
 20
1.8712608474
 30
0.0
  0
VERTEX
  5
1DA
  8
0
  6
CONTINUOUS
 62
     7
 10
0.6441626543
 20
1.8350334744
 30
0.0
  0
VERTEX
  5
1DB
  8
0
  6
CONTINUOUS
 62
     7
 10
0.6577433968
 20
1.7917252556
 30
0.0
  0
VERTEX
  5
1DC
  8
0
  6
CONTINUOUS
 62
     7
 10
0.6744353529
 20
1.7487835468
 30
0.0
  0
VERTEX
  5
1DD
  8
0
  6
CONTINUOUS
 62
     7
 10
0.694213859
 20
1.7062823022
 30
0.0
  0
VERTEX
  5
1DE
  8
0
  6
CONTINUOUS
 62
     7
 10
0.7170484827
 20
1.6642967259
 30
0.0
  0
VERTEX
  5
1DF
  8
0
  6
CONTINUOUS
 62
     7
 10
0.7429024148
 20
1.622902835
 30
0.0
  0
VERTEX
  5
1E0
  8
0
  6
CONTINUOUS
 62
     7
 10
0.7717321357
 20
1.5821768113
 30
0.0
  0
VERTEX
  5
1E1
  8
0
  6
CONTINUOUS
 62
     7
 10
0.8034873708
 20
1.5421942763
 30
0.0
  0
VERTEX
  5
1E2
  8
0
  6
CONTINUOUS
 62
     7
 10
0.8381112892
 20
1.5030296068
 30
0.0
  0
VERTEX
  5
1E3
  8
0
  6
CONTINUOUS
 62
     7
 10
0.8755408671
 20
1.4647553676
 30
0.0
  0
VERTEX
  5
1E4
  8
0
  6
CONTINUOUS
 62
     7
 10
0.9157073368
 20
1.4274418934
 30
0.0
  0
VERTEX
  5
1E5
  8
0
  6
CONTINUOUS
 62
     7
 10
0.9585366487
 20
1.3911570176
 30
0.0
  0
VERTEX
  5
1E6
  8
0
  6
CONTINUOUS
 62
     7
 10
1.0039499039
 20
1.3559659242
 30
0.0
  0
VERTEX
  5
1E7
  8
0
  6
CONTINUOUS
 62
     7
 10
1.0518637302
 20
1.3219310873
 30
0.0
  0
VERTEX
  5
1E8
  8
0
  6
CONTINUOUS
 62
     7
 10
1.1021905982
 20
1.2891122674
 30
0.0
  0
VERTEX
  5
1E9
  8
0
  6
CONTINUOUS
 62
     7
 10
1.1548390793
 20
1.2575665352
 30
0.0
  0
VERTEX
  5
1EA
  8
0
  6
CONTINUOUS
 62
     7
 10
1.2097132764
 20
1.2273487171
 30
0.0
  0
VERTEX
  5
1EB
  8
0
  6
CONTINUOUS
 62
     7
 10
1.2667146516
 20
1.1985104555
 30
0.0
  0
VERTEX
  5
1EC
  8
0
  6
CONTINUOUS
 62
     7
 10
1.3257413803
 20
1.1711007799
 30
0.0
  0
VERTEX
  5
1ED
  8
0
  6
CONTINUOUS
 62
     7
 10
1.3866884331
 20
1.1451661421
 30
0.0
  0
VERTEX
  5
1EE
  8
0
  6
CONTINUOUS
 62
     7
 10
1.449447717
 20
1.1207503995
 30
0.0
  0
VERTEX
  5
1EF
  8
0
  6
CONTINUOUS
 62
     7
 10
1.5139082198
 20
1.0978947866
 30
0.0
  0
VERTEX
  5
1F0
  8
0
  6
CONTINUOUS
 62
     7
 10
1.5799561623
 20
1.0766378774
 30
0.0
  0
VERTEX
  5
1F1
  8
0
  6
CONTINUOUS
 62
     7
 10
1.647475158
 20
1.0570155413
 30
0.0
  0
VERTEX
  5
1F2
  8
0
  6
CONTINUOUS
 62
     7
 10
1.7163463822
 20
1.0390608946
 30
0.0
  0
VERTEX
  5
1F3
  8
0
  6
CONTINUOUS
 62
     7
 10
1.7864487505
 20
1.0228042511
 30
0.0
  0
VERTEX
  5
1F4
  8
0
  6
CONTINUOUS
 62
     7
 10
1.8576591057
 20
1.0082730722
 30
0.0
  0
VERTEX
  5
1F5
  8
0
  6
CONTINUOUS
 62
     7
 10
1.9298524129
 20
0.9954919194
 30
0.0
  0
VERTEX
  5
1F6
  8
0
  6
CONTINUOUS
 62
     7
 10
2.0029019627
 20
0.9844824088
 30
0.0
  0
VERTEX
  5
1F7
  8
0
  6
CONTINUOUS
 62
     7
 10
2.0766795799
 20
0.9752631709
 30
0.0
  0
VERTEX
  5
1F8
  8
0
  6
CONTINUOUS
 62
     7
 10
2.1510558383
 20
0.9678498139
 30
0.0
  0
VERTEX
  5
1F9
  8
0
  6
CONTINUOUS
 62
     7
 10
2.2259002806
 20
0.9622548925
 30
0.0
  0
VERTEX
  5
1FA
  8
0
  6
CONTINUOUS
 62
     7
 10
2.3010816415
 20
0.9584878834
 30
0.0
  0
VERTEX
  5
1FB
  8
0
  6
CONTINUOUS
 62
     7
 10
2.3764680741
 20
0.9565551655
 30
0.0
  0
VERTEX
  5
1FC
  8
0
  6
CONTINUOUS
 62
     7
 10
2.4519273791
 20
0.9564600069
 30
0.0
  0
VERTEX
  5
1FD
  8
0
  6
CONTINUOUS
 62
     7
 10
2.5273272341
 20
0.9582025591
 30
0.0
  0
VERTEX
  5
1FE
  8
0
  6
CONTINUOUS
 62
     7
 10
2.6025351529
 20
0.9617798402
 30
0.0
  0
VERTEX
  5
1FF
  8
0
  6
CONTINUOUS
 62
     7
 10
2.6774192498
 20
0.9671857533
 30
0.0
  0
VERTEX
  5
200
  8
0
  6
CONTINUOUS
 62
     7
 10
2.7518482259
 20
0.9744111053
 30
0.0
  0
VERTEX
  5
201
  8
0
  6
CONTINUOUS
 62
     7
 10
2.8256915824
 20
0.9834436266
 30
0.0
  0
VERTEX
  5
202
  8
0
  6
CONTINUOUS
 62
     7
 10
2.8988198461
 20
0.9942679977
 30
0.0
  0
VERTEX
  5
203
  8
0
  6
CONTINUOUS
 62
     7
 10
2.9711047923
 20
1.006865882
 30
0.0
  0
VERTEX
  5
204
  8
0
  6
CONTINUOUS
 62
     7
 10
3.0424196629
 20
1.0212159653
 30
0.0
  0
VERTEX
  5
205
  8
0
  6
CONTINUOUS
 62
     7
 10
3.11263938
 20
1.0372939998
 30
0.0
  0
VERTEX
  5
206
  8
0
  6
CONTINUOUS
 62
     7
 10
3.1816407533
 20
1.055072855
 30
0.0
  0
VERTEX
  5
207
  8
0
  6
CONTINUOUS
 62
     7
 10
3.249302681
 20
1.0745225717
 30
0.0
  0
VERTEX
  5
208
  8
0
  6
CONTINUOUS
 62
     7
 10
3.3155063423
 20
1.0956104213
 30
0.0
  0
VERTEX
  5
209
  8
0
  6
CONTINUOUS
 62
     7
 10
3.3801353811
 20
1.1183009667
 30
0.0
  0
VERTEX
  5
20A
  8
0
  6
CONTINUOUS
 62
     7
 10
3.4430760806
 20
1.142556125
 30
0.0
  0
VERTEX
  5
20B
  8
0
  6
CONTINUOUS
 62
     7
 10
3.5042175255
 20
1.1683352297
 30
0.0
  0
VERTEX
  5
20C
  8
0
  6
CONTINUOUS
 62
     7
 10
3.5634517551
 20
1.1955950899
 30
0.0
  0
VERTEX
  5
20D
  8
0
  6
CONTINUOUS
 62
     7
 10
3.6206739027
 20
1.2242900435
 30
0.0
  0
VERTEX
  5
20E
  8
0
  6
CONTINUOUS
 62
     7
 10
3.6757823256
 20
1.2543720017
 30
0.0
  0
VERTEX
  5
20F
  8
0
  6
CONTINUOUS
 62
     7
 10
3.7286787244
 20
1.28579048
 30
0.0
  0
VERTEX
  5
210
  8
0
  6
CONTINUOUS
 62
     7
 10
3.7792682563
 20
1.3184926111
 30
0.0
  0
VERTEX
  5
211
  8
0
  6
CONTINUOUS
 62
     7
 10
3.8274596457
 20
1.352423137
 30
0.0
  0
VERTEX
  5
212
  8
0
  6
CONTINUOUS
 62
     7
 10
3.8731644622
 20
1.3875237012
 30
0.0
  0
VERTEX
  5
213
  8
0
  6
CONTINUOUS
 62
     7
 10
3.9162988213
 20
1.4237338478
 30
0.0
  0
VERTEX
  5
214
  8
0
  6
CONTINUOUS
 62
     7
 10
3.9567828887
 20
1.4609905284
 30
0.0
  0
VERTEX
  5
215
  8
0
  6
CONTINUOUS
 62
     7
 10
3.9945410767
 20
1.4992279866
 30
0.0
  0
VERTEX
  5
216
  8
0
  6
CONTINUOUS
 62
     7
 10
4.029502336
 20
1.5383776714
 30
0.0
  0
VERTEX
  5
217
  8
0
  6
CONTINUOUS
 62
     7
 10
4.0616005236
 20
1.578368187
 30
0.0
  0
VERTEX
  5
218
  8
0
  6
CONTINUOUS
 62
     7
 10
4.0907748493
 20
1.6191253196
 30
0.0
  0
VERTEX
  5
219
  8
0
  6
CONTINUOUS
 62
     7
 10
4.1169703852
 20
1.6605721892
 30
0.0
  0
VERTEX
  5
21A
  8
0
  6
CONTINUOUS
 62
     7
 10
4.1401385989
 20
1.7026295714
 30
0.0
  0
VERTEX
  5
21B
  8
0
  6
CONTINUOUS
 62
     7
 10
4.1602378443
 20
1.7452164229
 30
0.0
  0
VERTEX
  5
21C
  8
0
  6
CONTINUOUS
 62
     7
 10
4.1772337196
 20
1.788250607
 30
0.0
  0
VERTEX
  5
21D
  8
0
  6
CONTINUOUS
 62
     7
 10
4.1910991959
 20
1.8316497725
 30
0.0
  0
VERTEX
  5
21E
  8
0
  6
CONTINUOUS
 62
     7
 10
4.2000799232
 20
1.8682612207
 30
0.0
  0
SEQEND
  5
71A
  8
0
  6
CONTINUOUS
 62
     7
  0
POLYLINE
  5
161
  8
0
  6
CONTINUOUS
 62
     7
 66
     1
 10
0.0
 20
0.0
 30
0.0
 70
   128
  0
VERTEX
  5
21F
  8
0
  6
CONTINUOUS
 62
     7
 10
3.5034260116
 20
2.0982354651
 30
0.0
  0
VERTEX
  5
220
  8
0
  6
CONTINUOUS
 62
     7
 10
3.5015222207
 20
2.0885198846
 30
0.0
  0
VERTEX
  5
221
  8
0
  6
CONTINUOUS
 62
     7
 10
3.4918800669
 20
2.0555772171
 30
0.0
  0
VERTEX
  5
222
  8
0
  6
CONTINUOUS
 62
     7
 10
3.4791377889
 20
2.0229876959
 30
0.0
  0
VERTEX
  5
223
  8
0
  6
CONTINUOUS
 62
     7
 10
3.4633433587
 20
1.9908477108
 30
0.0
  0
VERTEX
  5
224
  8
0
  6
CONTINUOUS
 62
     7
 10
3.444550986
 20
1.9592458827
 30
0.0
  0
VERTEX
  5
225
  8
0
  6
CONTINUOUS
 62
     7
 10
3.4228192309
 20
1.9282654208
 30
0.0
  0
VERTEX
  5
226
  8
0
  6
CONTINUOUS
 62
     7
 10
3.3982107293
 20
1.8979866486
 30
0.0
  0
VERTEX
  5
227
  8
0
  6
CONTINUOUS
 62
     7
 10
3.3707929347
 20
1.8684888493
 30
0.0
  0
VERTEX
  5
228
  8
0
  6
CONTINUOUS
 62
     7
 10
3.3406392284
 20
1.8398511942
 30
0.0
  0
VERTEX
  5
229
  8
0
  6
CONTINUOUS
 62
     7
 10
3.3078299484
 20
1.8121528906
 30
0.0
  0
VERTEX
  5
22A
  8
0
  6
CONTINUOUS
 62
     7
 10
3.2724531204
 20
1.7854728139
 30
0.0
  0
VERTEX
  5
22B
  8
0
  6
CONTINUOUS
 62
     7
 10
3.2346048404
 20
1.7598888723
 30
0.0
  0
VERTEX
  5
22C
  8
0
  6
CONTINUOUS
 62
     7
 10
3.1943893464
 20
1.7354772835
 30
0.0
  0
VERTEX
  5
22D
  8
0
  6
CONTINUOUS
 62
     7
 10
3.1519202895
 20
1.7123126175
 30
0.0
  0
VERTEX
  5
22E
  8
0
  6
CONTINUOUS
 62
     7
 10
3.1073174674
 20
1.6904654284
 30
0.0
  0
VERTEX
  5
22F
  8
0
  6
CONTINUOUS
 62
     7
 10
3.0607075757
 20
1.6700026456
 30
0.0
  0
VERTEX
  5
230
  8
0
  6
CONTINUOUS
 62
     7
 10
3.012224037
 20
1.6509873147
 30
0.0
  0
VERTEX
  5
231
  8
0
  6
CONTINUOUS
 62
     7
 10
2.9620064754
 20
1.6334782235
 30
0.0
  0
VERTEX
  5
232
  8
0
  6
CONTINUOUS
 62
     7
 10
2.9102001725
 20
1.6175296004
 30
0.0
  0
VERTEX
  5
233
  8
0
  6
CONTINUOUS
 62
     7
 10
2.8569555165
 20
1.6031908738
 30
0.0
  0
VERTEX
  5
234
  8
0
  6
CONTINUOUS
 62
     7
 10
2.802427455
 20
1.5905064803
 30
0.0
  0
VERTEX
  5
235
  8
0
  6
CONTINUOUS
 62
     7
 10
2.7467749516
 20
1.579515711
 30
0.0
  0
VERTEX
  5
236
  8
0
  6
CONTINUOUS
 62
     7
 10
2.6901604502
 20
1.5702525898
 30
0.0
  0
VERTEX
  5
237
  8
0
  6
CONTINUOUS
 62
     7
 10
2.6327493447
 20
1.5627457765
 30
0.0
  0
VERTEX
  5
238
  8
0
  6
CONTINUOUS
 62
     7
 10
2.5747094549
 20
1.5570184906
 30
0.0
  0
VERTEX
  5
239
  8
0
  6
CONTINUOUS
 62
     7
 10
2.5162105063
 20
1.5530884527
 30
0.0
  0
VERTEX
  5
23A
  8
0
  6
CONTINUOUS
 62
     7
 10
2.4574236147
 20
1.5509678416
 30
0.0
  0
VERTEX
  5
23B
  8
0
  6
CONTINUOUS
 62
     7
 10
2.3985207724
 20
1.5506632649
 30
0.0
  0
VERTEX
  5
23C
  8
0
  6
CONTINUOUS
 62
     7
 10
2.3396743378
 20
1.5521757427
 30
0.0
  0
VERTEX
  5
23D
  8
0
  6
CONTINUOUS
 62
     7
 10
2.2810570133
 20
1.5555006677
 30
0.0
  0
VERTEX
  5
23E
  8
0
  6
CONTINUOUS
 62
     7
 10
2.2228404482
 20
1.5606278282
 30
0.0
  0
VERTEX
  5
23F
  8
0
  6
CONTINUOUS
 62
     7
 10
2.1651950238
 20
1.5675414483
 30
0.0
  0
VERTEX
  5
240
  8
0
  6
CONTINUOUS
 62
     7
 10
2.1082894457
 20
1.5762202176
 30
0.0
  0
VERTEX
  5
241
  8
0
  6
CONTINUOUS
 62
     7
 10
2.0522902359
 20
1.5866373343
 30
0.0
  0
VERTEX
  5
242
  8
0
  6
CONTINUOUS
 62
     7
 10
1.997361224
 20
1.5987605598
 30
0.0
  0
VERTEX
  5
243
  8
0
  6
CONTINUOUS
 62
     7
 10
1.9436630348
 20
1.6125522882
 30
0.0
  0
VERTEX
  5
244
  8
0
  6
CONTINUOUS
 62
     7
 10
1.8913525731
 20
1.6279696311
 30
0.0
  0
VERTEX
  5
245
  8
0
  6
CONTINUOUS
 62
     7
 10
1.8405825016
 20
1.6449645216
 30
0.0
  0
VERTEX
  5
246
  8
0
  6
CONTINUOUS
 62
     7
 10
1.7915007121
 20
1.6634838416
 30
0.0
  0
VERTEX
  5
247
  8
0
  6
CONTINUOUS
 62
     7
 10
1.744249787
 20
1.6834695802
 30
0.0
  0
VERTEX
  5
248
  8
0
  6
CONTINUOUS
 62
     7
 10
1.6989664519
 20
1.7048590299
 30
0.0
  0
VERTEX
  5
249
  8
0
  6
CONTINUOUS
 62
     7
 10
1.6557810186
 20
1.7275850362
 30
0.0
  0
VERTEX
  5
24A
  8
0
  6
CONTINUOUS
 62
     7
 10
1.6148168251
 20
1.7515763145
 30
0.0
  0
VERTEX
  5
24B
  8
0
  6
CONTINUOUS
 62
     7
 10
1.576189682
 20
1.776757855
 30
0.0
  0
VERTEX
  5
24C
  8
0
  6
CONTINUOUS
 62
     7
 10
1.540007345
 20
1.8030514384
 30
0.0
  0
VERTEX
  5
24D
  8
0
  6
CONTINUOUS
 62
     7
 10
1.506370486
 20
1.8303750483
 30
0.0
  0
VERTEX
  5
24E
  8
0
  6
CONTINUOUS
 62
     7
 10
1.4753699042
 20
1.8586452453
 30
0.0
  0
VERTEX
  5
24F
  8
0
  6
CONTINUOUS
 62
     7
 10
1.4470869145
 20
1.887777831
 30
0.0
  0
VERTEX
  5
250
  8
0
  6
CONTINUOUS
 62
     7
 10
1.4215936444
 20
1.9176887479
 30
0.0
  0
VERTEX
  5
251
  8
0
  6
CONTINUOUS
 62
     7
 10
1.3989534172
 20
1.948295228
 30
0.0
  0
VERTEX
  5
252
  8
0
  6
CONTINUOUS
 62
     7
 10
1.3792215958
 20
1.9795168207
 30
0.0
  0
VERTEX
  5
253
  8
0
  6
CONTINUOUS
 62
     7
 10
1.3624469165
 20
2.0112760083
 30
0.0
  0
VERTEX
  5
254
  8
0
  6
CONTINUOUS
 62
     7
 10
1.3486731861
 20
2.0434980087
 30
0.0
  0
VERTEX
  5
255
  8
0
  6
CONTINUOUS
 62
     7
 10
1.3379409599
 20
2.0761093513
 30
0.0
  0
VERTEX
  5
256
  8
0
  6
CONTINUOUS
 62
     7
 10
1.3302885176
 20
2.1090350304
 30
0.0
  0
VERTEX
  5
257
  8
0
  6
CONTINUOUS
 62
     7
 10
1.3302264936
 20
2.1094883224
 30
0.0
  0
SEQEND
  5
71B
  8
0
  6
CONTINUOUS
 62
     7
  0
POLYLINE
  5
162
  8
0
  6
CONTINUOUS
 62
     7
 66
     1
 10
0.0
 20
0.0
 30
0.0
 70
   128
  0
VERTEX
  5
258
  8
0
  6
CONTINUOUS
 62
     7
 10
1.3352466799
 20
2.0877018594
 30
0.0
  0
VERTEX
  5
259
  8
0
  6
CONTINUOUS
 62
     7
 10
1.3391668136
 20
2.103723755
 30
0.0
  0
VERTEX
  5
25A
  8
0
  6
CONTINUOUS
 62
     7
 10
1.3503808934
 20
2.1365005741
 30
0.0
  0
VERTEX
  5
25B
  8
0
  6
CONTINUOUS
 62
     7
 10
1.3646718252
 20
2.1688744679
 30
0.0
  0
VERTEX
  5
25C
  8
0
  6
CONTINUOUS
 62
     7
 10
1.3819881367
 20
2.2007532053
 30
0.0
  0
VERTEX
  5
25D
  8
0
  6
CONTINUOUS
 62
     7
 10
1.4022732957
 20
2.2320512329
 30
0.0
  0
VERTEX
  5
25E
  8
0
  6
CONTINUOUS
 62
     7
 10
1.4254667287
 20
2.2626870844
 30
0.0
  0
VERTEX
  5
25F
  8
0
  6
CONTINUOUS
 62
     7
 10
1.4515034947
 20
2.292581135
 30
0.0
  0
VERTEX
  5
260
  8
0
  6
CONTINUOUS
 62
     7
 10
1.4803132862
 20
2.3216542194
 30
0.0
  0
VERTEX
  5
261
  8
0
  6
CONTINUOUS
 62
     7
 10
1.5118193194
 20
2.3498271278
 30
0.0
  0
VERTEX
  5
262
  8
0
  6
CONTINUOUS
 62
     7
 10
1.5459374413
 20
2.3770207528
 30
0.0
  0
VERTEX
  5
263
  8
0
  6
CONTINUOUS
 62
     7
 10
1.5825755753
 20
2.4031566194
 30
0.0
  0
VERTEX
  5
264
  8
0
  6
CONTINUOUS
 62
     7
 10
1.6216335033
 20
2.4281575827
 30
0.0
  0
VERTEX
  5
265
  8
0
  6
CONTINUOUS
 62
     7
 10
1.6405625828
 20
2.4393597389
 30
0.0
  0
VERTEX
  5
266
  8
0
  6
CONTINUOUS
 62
     7
 10
1.6625571724
 20
2.4517054137
 30
0.0
  0
VERTEX
  5
267
  8
0
  6
CONTINUOUS
 62
     7
 10
1.7060919024
 20
2.4742240823
 30
0.0
  0
VERTEX
  5
268
  8
0
  6
CONTINUOUS
 62
     7
 10
1.751703841
 20
2.4953945693
 30
0.0
  0
VERTEX
  5
269
  8
0
  6
CONTINUOUS
 62
     7
 10
1.7992576583
 20
2.5151489528
 30
0.0
  0
VERTEX
  5
26A
  8
0
  6
CONTINUOUS
 62
     7
 10
1.8486167952
 20
2.533426251
 30
0.0
  0
VERTEX
  5
26B
  8
0
  6
CONTINUOUS
 62
     7
 10
1.8996387602
 20
2.5501698978
 30
0.0
  0
VERTEX
  5
26C
  8
0
  6
CONTINUOUS
 62
     7
 10
1.9521756771
 20
2.5653280124
 30
0.0
  0
VERTEX
  5
26D
  8
0
  6
CONTINUOUS
 62
     7
 10
2.0060748338
 20
2.5788536145
 30
0.0
  0
VERTEX
  5
26E
  8
0
  6
CONTINUOUS
 62
     7
 10
2.0611792287
 20
2.5907047958
 30
0.0
  0
VERTEX
  5
26F
  8
0
  6
CONTINUOUS
 62
     7
 10
2.11732811
 20
2.6008448571
 30
0.0
  0
VERTEX
  5
270
  8
0
  6
CONTINUOUS
 62
     7
 10
2.1743575086
 20
2.6092424172
 30
0.0
  0
VERTEX
  5
271
  8
0
  6
CONTINUOUS
 62
     7
 10
2.2321007654
 20
2.6158714993
 30
0.0
  0
VERTEX
  5
272
  8
0
  6
CONTINUOUS
 62
     7
 10
2.2903890532
 20
2.6207115978
 30
0.0
  0
VERTEX
  5
273
  8
0
  6
CONTINUOUS
 62
     7
 10
2.3490518943
 20
2.623747729
 30
0.0
  0
VERTEX
  5
274
  8
0
  6
CONTINUOUS
 62
     7
 10
2.4079176754
 20
2.624970467
 30
0.0
  0
VERTEX
  5
275
  8
0
  6
CONTINUOUS
 62
     7
 10
2.4668141595
 20
2.6243759671
 30
0.0
  0
VERTEX
  5
276
  8
0
  6
CONTINUOUS
 62
     7
 10
2.5255688033
 20
2.6219659865
 30
0.0
  0
VERTEX
  5
277
  8
0
  6
CONTINUOUS
 62
     7
 10
2.5840092618
 20
2.6177479137
 30
0.0
  0
VERTEX
  5
278
  8
0
  6
CONTINUOUS
 62
     7
 10
2.6419644995
 20
2.6117347154
 30
0.0
  0
VERTEX
  5
279
  8
0
  6
CONTINUOUS
 62
     7
 10
2.6992649007
 20
2.60394491
 30
0.0
  0
VERTEX
  5
27A
  8
0
  6
CONTINUOUS
 62
     7
 10
2.7557427764
 20
2.5944025303
 30
0.0
  0
VERTEX
  5
27B
  8
0
  6
CONTINUOUS
 62
     7
 10
2.8112328727
 20
2.5831370754
 30
0.0
  0
VERTEX
  5
27C
  8
0
  6
CONTINUOUS
 62
     7
 10
2.8655728813
 20
2.5701834486
 30
0.0
  0
VERTEX
  5
27D
  8
0
  6
CONTINUOUS
 62
     7
 10
2.9186039526
 20
2.5555818804
 30
0.0
  0
VERTEX
  5
27E
  8
0
  6
CONTINUOUS
 62
     7
 10
2.9701712147
 20
2.5393778355
 30
0.0
  0
VERTEX
  5
27F
  8
0
  6
CONTINUOUS
 62
     7
 10
3.0201242984
 20
2.521621897
 30
0.0
  0
VERTEX
  5
280
  8
0
  6
CONTINUOUS
 62
     7
 10
3.0683178704
 20
2.5023696252
 30
0.0
  0
VERTEX
  5
281
  8
0
  6
CONTINUOUS
 62
     7
 10
3.1146121764
 20
2.481681382
 30
0.0
  0
VERTEX
  5
282
  8
0
  6
CONTINUOUS
 62
     7
 10
3.1588735938
 20
2.4596221096
 30
0.0
  0
VERTEX
  5
283
  8
0
  6
CONTINUOUS
 62
     7
 10
3.2009751903
 20
2.4362610501
 30
0.0
  0
VERTEX
  5
284
  8
0
  6
CONTINUOUS
 62
     7
 10
3.2407972837
 20
2.4116713879
 30
0.0
  0
VERTEX
  5
285
  8
0
  6
CONTINUOUS
 62
     7
 10
3.2782279846
 20
2.3859297927
 30
0.0
  0
VERTEX
  5
286
  8
0
  6
CONTINUOUS
 62
     7
 10
3.3131631617
 20
2.3591162775
 30
0.0
  0
VERTEX
  5
287
  8
0
  6
CONTINUOUS
 62
     7
 10
3.3455066628
 20
2.3313139261
 30
0.0
  0
VERTEX
  5
288
  8
0
  6
CONTINUOUS
 62
     7
 10
3.3751725056
 20
2.302606585
 30
0.0
  0
VERTEX
  5
289
  8
0
  6
CONTINUOUS
 62
     7
 10
3.4020839424
 20
2.2730785256
 30
0.0
  0
VERTEX
  5
28A
  8
0
  6
CONTINUOUS
 62
     7
 10
3.4261732756
 20
2.2428133092
 30
0.0
  0
VERTEX
  5
28B
  8
0
  6
CONTINUOUS
 62
     7
 10
3.4473812563
 20
2.2118926685
 30
0.0
  0
VERTEX
  5
28C
  8
0
  6
CONTINUOUS
 62
     7
 10
3.4656559945
 20
2.1803956396
 30
0.0
  0
VERTEX
  5
28D
  8
0
  6
CONTINUOUS
 62
     7
 10
3.4809514158
 20
2.1483982949
 30
0.0
  0
VERTEX
  5
28E
  8
0
  6
CONTINUOUS
 62
     7
 10
3.4932255072
 20
2.1159745009
 30
0.0
  0
VERTEX
  5
28F
  8
0
  6
CONTINUOUS
 62
     7
 10
3.5012267207
 20
2.0875103013
 30
0.0
  0
SEQEND
  5
71C
  8
0
  6
CONTINUOUS
 62
     7
  0
LINE
  5
163
  8
0
  6
CONTINUOUS
 62
     7
 10
4.194978573
 20
1.7636135318
 30
0.0
 11
4.194978573
 21
1.8474647069
 31
0.0
  0
LINE
  5
164
  8
0
  6
CONTINUOUS
 62
     7
 10
0.641228573
 20
1.8472759758
 30
0.0
 11
0.641228573
 21
1.7636135318
 31
0.0
  0
LINE
  5
165
  8
0
  6
CONTINUOUS
 62
     7
 10
1.1614590541
 20
1.0384038265
 30
0.0
 11
1.1756034876
 21
1.0302357646
 31
0.0
  0
LINE
  5
166
  8
0
  6
CONTINUOUS
 62
     7
 10
3.6606036584
 20
1.0302357646
 30
0.0
 11
3.674748092
 21
1.0384038265
 31
0.0
  0
POLYLINE
  5
167
  8
0
  6
CONTINUOUS
 62
     7
 66
     1
 10
0.0
 20
0.0
 30
0.0
 70
   128
  0
VERTEX
  5
290
  8
0
  6
CONTINUOUS
 62
     7
 10
4.2009098114
 20
1.8445971184
 30
0.0
  0
VERTEX
  5
291
  8
0
  6
CONTINUOUS
 62
     7
 10
4.1995839372
 20
1.8516028376
 30
0.0
  0
VERTEX
  5
292
  8
0
  6
CONTINUOUS
 62
     7
 10
4.197727919
 20
1.8586728791
 30
0.0
  0
SEQEND
  5
71D
  8
0
  6
CONTINUOUS
 62
     7
  0
POLYLINE
  5
168
  8
0
  6
CONTINUOUS
 62
     7
 66
     1
 10
0.0
 20
0.0
 30
0.0
 70
   128
  0
VERTEX
  5
293
  8
0
  6
CONTINUOUS
 62
     7
 10
0.6384454936
 20
1.8588884196
 30
0.0
  0
VERTEX
  5
294
  8
0
  6
CONTINUOUS
 62
     7
 10
0.6373835966
 20
1.8549295264
 30
0.0
  0
VERTEX
  5
295
  8
0
  6
CONTINUOUS
 62
     7
 10
0.6346943611
 20
1.8411202979
 30
0.0
  0
SEQEND
  5
71E
  8
0
  6
CONTINUOUS
 62
     7
  0
LINE
  5
169
  8
0
  6
CONTINUOUS
 62
     7
 10
4.214978573
 20
1.5431475126
 30
0.0
 11
4.214978573
 21
1.7146210831
 31
0.0
  0
LINE
  5
16A
  8
0
  6
CONTINUOUS
 62
     7
 10
0.621228573
 20
1.7146210831
 30
0.0
 11
0.621228573
 21
1.5431475126
 31
0.0
  0
POLYLINE
  5
16B
  8
0
  6
CONTINUOUS
 62
     7
 66
     1
 10
0.0
 20
0.0
 30
0.0
 70
   128
  0
VERTEX
  5
296
  8
0
  6
CONTINUOUS
 62
     7
 10
0.6354802737
 20
1.4123649111
 30
0.0
  0
VERTEX
  5
297
  8
0
  6
CONTINUOUS
 62
     7
 10
0.6441626543
 20
1.3761375381
 30
0.0
  0
VERTEX
  5
298
  8
0
  6
CONTINUOUS
 62
     7
 10
0.6577433968
 20
1.3328293194
 30
0.0
  0
VERTEX
  5
299
  8
0
  6
CONTINUOUS
 62
     7
 10
0.6744353529
 20
1.2898876105
 30
0.0
  0
VERTEX
  5
29A
  8
0
  6
CONTINUOUS
 62
     7
 10
0.694213859
 20
1.2473863659
 30
0.0
  0
VERTEX
  5
29B
  8
0
  6
CONTINUOUS
 62
     7
 10
0.7170484827
 20
1.2054007896
 30
0.0
  0
VERTEX
  5
29C
  8
0
  6
CONTINUOUS
 62
     7
 10
0.7429024148
 20
1.1640068987
 30
0.0
  0
VERTEX
  5
29D
  8
0
  6
CONTINUOUS
 62
     7
 10
0.7717321357
 20
1.1232808751
 30
0.0
  0
VERTEX
  5
29E
  8
0
  6
CONTINUOUS
 62
     7
 10
0.8034873708
 20
1.08329834
 30
0.0
  0
VERTEX
  5
29F
  8
0
  6
CONTINUOUS
 62
     7
 10
0.8381112892
 20
1.0441336705
 30
0.0
  0
VERTEX
  5
2A0
  8
0
  6
CONTINUOUS
 62
     7
 10
0.8755408671
 20
1.0058594313
 30
0.0
  0
VERTEX
  5
2A1
  8
0
  6
CONTINUOUS
 62
     7
 10
0.9157073368
 20
0.9685459571
 30
0.0
  0
VERTEX
  5
2A2
  8
0
  6
CONTINUOUS
 62
     7
 10
0.9585366487
 20
0.9322610813
 30
0.0
  0
VERTEX
  5
2A3
  8
0
  6
CONTINUOUS
 62
     7
 10
1.0039499039
 20
0.8970699879
 30
0.0
  0
VERTEX
  5
2A4
  8
0
  6
CONTINUOUS
 62
     7
 10
1.0518637302
 20
0.863035151
 30
0.0
  0
VERTEX
  5
2A5
  8
0
  6
CONTINUOUS
 62
     7
 10
1.1021905982
 20
0.8302163311
 30
0.0
  0
VERTEX
  5
2A6
  8
0
  6
CONTINUOUS
 62
     7
 10
1.1548390793
 20
0.7986705989
 30
0.0
  0
VERTEX
  5
2A7
  8
0
  6
CONTINUOUS
 62
     7
 10
1.2097132764
 20
0.7684527808
 30
0.0
  0
VERTEX
  5
2A8
  8
0
  6
CONTINUOUS
 62
     7
 10
1.2667146516
 20
0.7396145192
 30
0.0
  0
VERTEX
  5
2A9
  8
0
  6
CONTINUOUS
 62
     7
 10
1.3257413803
 20
0.7122048437
 30
0.0
  0
VERTEX
  5
2AA
  8
0
  6
CONTINUOUS
 62
     7
 10
1.3866884331
 20
0.6862702058
 30
0.0
  0
VERTEX
  5
2AB
  8
0
  6
CONTINUOUS
 62
     7
 10
1.449447717
 20
0.6618544632
 30
0.0
  0
VERTEX
  5
2AC
  8
0
  6
CONTINUOUS
 62
     7
 10
1.5139082198
 20
0.6389988503
 30
0.0
  0
VERTEX
  5
2AD
  8
0
  6
CONTINUOUS
 62
     7
 10
1.5799561623
 20
0.6177419411
 30
0.0
  0
VERTEX
  5
2AE
  8
0
  6
CONTINUOUS
 62
     7
 10
1.647475158
 20
0.598119605
 30
0.0
  0
VERTEX
  5
2AF
  8
0
  6
CONTINUOUS
 62
     7
 10
1.7163463822
 20
0.5801649583
 30
0.0
  0
VERTEX
  5
2B0
  8
0
  6
CONTINUOUS
 62
     7
 10
1.7864487505
 20
0.5639083148
 30
0.0
  0
VERTEX
  5
2B1
  8
0
  6
CONTINUOUS
 62
     7
 10
1.8576591057
 20
0.549377136
 30
0.0
  0
VERTEX
  5
2B2
  8
0
  6
CONTINUOUS
 62
     7
 10
1.9298524129
 20
0.5365959831
 30
0.0
  0
VERTEX
  5
2B3
  8
0
  6
CONTINUOUS
 62
     7
 10
2.0029019627
 20
0.5255864725
 30
0.0
  0
VERTEX
  5
2B4
  8
0
  6
CONTINUOUS
 62
     7
 10
2.0766795799
 20
0.5163672346
 30
0.0
  0
VERTEX
  5
2B5
  8
0
  6
CONTINUOUS
 62
     7
 10
2.1510558383
 20
0.5089538776
 30
0.0
  0
VERTEX
  5
2B6
  8
0
  6
CONTINUOUS
 62
     7
 10
2.2259002806
 20
0.5033589562
 30
0.0
  0
VERTEX
  5
2B7
  8
0
  6
CONTINUOUS
 62
     7
 10
2.3010816415
 20
0.4995919472
 30
0.0
  0
VERTEX
  5
2B8
  8
0
  6
CONTINUOUS
 62
     7
 10
2.3764680741
 20
0.4976592292
 30
0.0
  0
VERTEX
  5
2B9
  8
0
  6
CONTINUOUS
 62
     7
 10
2.4519273791
 20
0.4975640706
 30
0.0
  0
VERTEX
  5
2BA
  8
0
  6
CONTINUOUS
 62
     7
 10
2.5273272341
 20
0.4993066228
 30
0.0
  0
VERTEX
  5
2BB
  8
0
  6
CONTINUOUS
 62
     7
 10
2.6025351529
 20
0.5028839039
 30
0.0
  0
VERTEX
  5
2BC
  8
0
  6
CONTINUOUS
 62
     7
 10
2.6774192498
 20
0.508289817
 30
0.0
  0
VERTEX
  5
2BD
  8
0
  6
CONTINUOUS
 62
     7
 10
2.7518482259
 20
0.515515169
 30
0.0
  0
VERTEX
  5
2BE
  8
0
  6
CONTINUOUS
 62
     7
 10
2.8256915824
 20
0.5245476903
 30
0.0
  0
VERTEX
  5
2BF
  8
0
  6
CONTINUOUS
 62
     7
 10
2.8988198461
 20
0.5353720614
 30
0.0
  0
VERTEX
  5
2C0
  8
0
  6
CONTINUOUS
 62
     7
 10
2.9711047923
 20
0.5479699458
 30
0.0
  0
VERTEX
  5
2C1
  8
0
  6
CONTINUOUS
 62
     7
 10
3.0424196629
 20
0.562320029
 30
0.0
  0
VERTEX
  5
2C2
  8
0
  6
CONTINUOUS
 62
     7
 10
3.11263938
 20
0.5783980636
 30
0.0
  0
VERTEX
  5
2C3
  8
0
  6
CONTINUOUS
 62
     7
 10
3.1816407533
 20
0.5961769187
 30
0.0
  0
VERTEX
  5
2C4
  8
0
  6
CONTINUOUS
 62
     7
 10
3.249302681
 20
0.6156266354
 30
0.0
  0
VERTEX
  5
2C5
  8
0
  6
CONTINUOUS
 62
     7
 10
3.3155063423
 20
0.636714485
 30
0.0
  0
VERTEX
  5
2C6
  8
0
  6
CONTINUOUS
 62
     7
 10
3.3801353811
 20
0.6594050304
 30
0.0
  0
VERTEX
  5
2C7
  8
0
  6
CONTINUOUS
 62
     7
 10
3.4430760806
 20
0.6836601887
 30
0.0
  0
VERTEX
  5
2C8
  8
0
  6
CONTINUOUS
 62
     7
 10
3.5042175255
 20
0.7094392934
 30
0.0
  0
VERTEX
  5
2C9
  8
0
  6
CONTINUOUS
 62
     7
 10
3.5634517551
 20
0.7366991536
 30
0.0
  0
VERTEX
  5
2CA
  8
0
  6
CONTINUOUS
 62
     7
 10
3.6206739027
 20
0.7653941072
 30
0.0
  0
VERTEX
  5
2CB
  8
0
  6
CONTINUOUS
 62
     7
 10
3.6757823256
 20
0.7954760655
 30
0.0
  0
VERTEX
  5
2CC
  8
0
  6
CONTINUOUS
 62
     7
 10
3.7286787244
 20
0.8268945437
 30
0.0
  0
VERTEX
  5
2CD
  8
0
  6
CONTINUOUS
 62
     7
 10
3.7792682563
 20
0.8595966748
 30
0.0
  0
VERTEX
  5
2CE
  8
0
  6
CONTINUOUS
 62
     7
 10
3.8274596457
 20
0.8935272007
 30
0.0
  0
VERTEX
  5
2CF
  8
0
  6
CONTINUOUS
 62
     7
 10
3.8731644622
 20
0.9286277649
 30
0.0
  0
VERTEX
  5
2D0
  8
0
  6
CONTINUOUS
 62
     7
 10
3.9162988213
 20
0.9648379115
 30
0.0
  0
VERTEX
  5
2D1
  8
0
  6
CONTINUOUS
 62
     7
 10
3.9567828887
 20
1.0020945921
 30
0.0
  0
VERTEX
  5
2D2
  8
0
  6
CONTINUOUS
 62
     7
 10
3.9945410767
 20
1.0403320503
 30
0.0
  0
VERTEX
  5
2D3
  8
0
  6
CONTINUOUS
 62
     7
 10
4.029502336
 20
1.0794817351
 30
0.0
  0
VERTEX
  5
2D4
  8
0
  6
CONTINUOUS
 62
     7
 10
4.0616005236
 20
1.1194722507
 30
0.0
  0
VERTEX
  5
2D5
  8
0
  6
CONTINUOUS
 62
     7
 10
4.0907748493
 20
1.1602293833
 30
0.0
  0
VERTEX
  5
2D6
  8
0
  6
CONTINUOUS
 62
     7
 10
4.1169703852
 20
1.2016762529
 30
0.0
  0
VERTEX
  5
2D7
  8
0
  6
CONTINUOUS
 62
     7
 10
4.1401385989
 20
1.2437336352
 30
0.0
  0
VERTEX
  5
2D8
  8
0
  6
CONTINUOUS
 62
     7
 10
4.1602378443
 20
1.2863204866
 30
0.0
  0
VERTEX
  5
2D9
  8
0
  6
CONTINUOUS
 62
     7
 10
4.1772337196
 20
1.3293546707
 30
0.0
  0
VERTEX
  5
2DA
  8
0
  6
CONTINUOUS
 62
     7
 10
4.1910991959
 20
1.3727538362
 30
0.0
  0
VERTEX
  5
2DB
  8
0
  6
CONTINUOUS
 62
     7
 10
4.2000799232
 20
1.4093652844
 30
0.0
  0
SEQEND
  5
71F
  8
0
  6
CONTINUOUS
 62
     7
  0
POLYLINE
  5
16C
  8
0
  6
CONTINUOUS
 62
     7
 66
     1
 10
0.0
 20
0.0
 30
0.0
 70
   128
  0
VERTEX
  5
2DC
  8
0
  6
CONTINUOUS
 62
     7
 10
1.4758256526
 20
1.858229637
 30
0.0
  0
VERTEX
  5
2DD
  8
0
  6
CONTINUOUS
 62
     7
 10
1.4803132862
 20
1.8627582831
 30
0.0
  0
VERTEX
  5
2DE
  8
0
  6
CONTINUOUS
 62
     7
 10
1.5118193194
 20
1.8909311915
 30
0.0
  0
VERTEX
  5
2DF
  8
0
  6
CONTINUOUS
 62
     7
 10
1.5459374413
 20
1.9181248165
 30
0.0
  0
VERTEX
  5
2E0
  8
0
  6
CONTINUOUS
 62
     7
 10
1.5825755753
 20
1.9442606831
 30
0.0
  0
VERTEX
  5
2E1
  8
0
  6
CONTINUOUS
 62
     7
 10
1.6216335033
 20
1.9692616464
 30
0.0
  0
VERTEX
  5
2E2
  8
0
  6
CONTINUOUS
 62
     7
 10
1.6405625828
 20
1.9804638026
 30
0.0
  0
VERTEX
  5
2E3
  8
0
  6
CONTINUOUS
 62
     7
 10
1.6625571724
 20
1.9928094774
 30
0.0
  0
VERTEX
  5
2E4
  8
0
  6
CONTINUOUS
 62
     7
 10
1.7060919024
 20
2.015328146
 30
0.0
  0
VERTEX
  5
2E5
  8
0
  6
CONTINUOUS
 62
     7
 10
1.751703841
 20
2.036498633
 30
0.0
  0
VERTEX
  5
2E6
  8
0
  6
CONTINUOUS
 62
     7
 10
1.7992576583
 20
2.0562530165
 30
0.0
  0
VERTEX
  5
2E7
  8
0
  6
CONTINUOUS
 62
     7
 10
1.8486167952
 20
2.0745303147
 30
0.0
  0
VERTEX
  5
2E8
  8
0
  6
CONTINUOUS
 62
     7
 10
1.8996387602
 20
2.0912739615
 30
0.0
  0
VERTEX
  5
2E9
  8
0
  6
CONTINUOUS
 62
     7
 10
1.9521756771
 20
2.1064320761
 30
0.0
  0
VERTEX
  5
2EA
  8
0
  6
CONTINUOUS
 62
     7
 10
2.0060748338
 20
2.1199576782
 30
0.0
  0
VERTEX
  5
2EB
  8
0
  6
CONTINUOUS
 62
     7
 10
2.0611792287
 20
2.1318088595
 30
0.0
  0
VERTEX
  5
2EC
  8
0
  6
CONTINUOUS
 62
     7
 10
2.11732811
 20
2.1419489208
 30
0.0
  0
VERTEX
  5
2ED
  8
0
  6
CONTINUOUS
 62
     7
 10
2.1743575086
 20
2.1503464809
 30
0.0
  0
VERTEX
  5
2EE
  8
0
  6
CONTINUOUS
 62
     7
 10
2.2321007654
 20
2.1569755631
 30
0.0
  0
VERTEX
  5
2EF
  8
0
  6
CONTINUOUS
 62
     7
 10
2.2903890532
 20
2.1618156616
 30
0.0
  0
VERTEX
  5
2F0
  8
0
  6
CONTINUOUS
 62
     7
 10
2.3490518943
 20
2.1648517927
 30
0.0
  0
VERTEX
  5
2F1
  8
0
  6
CONTINUOUS
 62
     7
 10
2.4079176754
 20
2.1660745308
 30
0.0
  0
VERTEX
  5
2F2
  8
0
  6
CONTINUOUS
 62
     7
 10
2.4668141595
 20
2.1654800309
 30
0.0
  0
VERTEX
  5
2F3
  8
0
  6
CONTINUOUS
 62
     7
 10
2.5255688033
 20
2.1630700502
 30
0.0
  0
VERTEX
  5
2F4
  8
0
  6
CONTINUOUS
 62
     7
 10
2.5840092618
 20
2.1588519774
 30
0.0
  0
VERTEX
  5
2F5
  8
0
  6
CONTINUOUS
 62
     7
 10
2.6419644995
 20
2.1528387792
 30
0.0
  0
VERTEX
  5
2F6
  8
0
  6
CONTINUOUS
 62
     7
 10
2.6992649007
 20
2.1450489737
 30
0.0
  0
VERTEX
  5
2F7
  8
0
  6
CONTINUOUS
 62
     7
 10
2.7557427764
 20
2.1355065941
 30
0.0
  0
VERTEX
  5
2F8
  8
0
  6
CONTINUOUS
 62
     7
 10
2.8112328727
 20
2.1242411392
 30
0.0
  0
VERTEX
  5
2F9
  8
0
  6
CONTINUOUS
 62
     7
 10
2.8655728813
 20
2.1112875123
 30
0.0
  0
VERTEX
  5
2FA
  8
0
  6
CONTINUOUS
 62
     7
 10
2.9186039526
 20
2.0966859441
 30
0.0
  0
VERTEX
  5
2FB
  8
0
  6
CONTINUOUS
 62
     7
 10
2.9701712147
 20
2.0804818992
 30
0.0
  0
VERTEX
  5
2FC
  8
0
  6
CONTINUOUS
 62
     7
 10
3.0201242984
 20
2.0627259607
 30
0.0
  0
VERTEX
  5
2FD
  8
0
  6
CONTINUOUS
 62
     7
 10
3.0683178704
 20
2.0434736889
 30
0.0
  0
VERTEX
  5
2FE
  8
0
  6
CONTINUOUS
 62
     7
 10
3.1146121764
 20
2.0227854457
 30
0.0
  0
VERTEX
  5
2FF
  8
0
  6
CONTINUOUS
 62
     7
 10
3.1588735938
 20
2.0007261733
 30
0.0
  0
VERTEX
  5
300
  8
0
  6
CONTINUOUS
 62
     7
 10
3.2009751903
 20
1.9773651138
 30
0.0
  0
VERTEX
  5
301
  8
0
  6
CONTINUOUS
 62
     7
 10
3.2407972837
 20
1.9527754516
 30
0.0
  0
VERTEX
  5
302
  8
0
  6
CONTINUOUS
 62
     7
 10
3.2782279846
 20
1.9270338564
 30
0.0
  0
VERTEX
  5
303
  8
0
  6
CONTINUOUS
 62
     7
 10
3.3131631617
 20
1.9002203412
 30
0.0
  0
VERTEX
  5
304
  8
0
  6
CONTINUOUS
 62
     7
 10
3.3455066628
 20
1.8724179899
 30
0.0
  0
VERTEX
  5
305
  8
0
  6
CONTINUOUS
 62
     7
 10
3.3600805126
 20
1.8583150204
 30
0.0
  0
SEQEND
  5
720
  8
0
  6
CONTINUOUS
 62
     7
  0
POLYLINE
  5
16D
  8
0
  6
CONTINUOUS
 62
     7
 66
     1
 10
0.0
 20
0.0
 30
0.0
 70
   128
  0
VERTEX
  5
306
  8
0
  6
CONTINUOUS
 62
     7
 10
1.1616632112
 20
2.9151754175
 30
0.0
  0
VERTEX
  5
307
  8
0
  6
CONTINUOUS
 62
     7
 10
1.2188809464
 20
2.9467664421
 30
0.0
  0
VERTEX
  5
308
  8
0
  6
CONTINUOUS
 62
     7
 10
1.2784796271
 20
2.9768546749
 30
0.0
  0
VERTEX
  5
309
  8
0
  6
CONTINUOUS
 62
     7
 10
1.3403409256
 20
3.0053803785
 30
0.0
  0
VERTEX
  5
30A
  8
0
  6
CONTINUOUS
 62
     7
 10
1.4043420222
 20
3.0322869178
 30
0.0
  0
VERTEX
  5
30B
  8
0
  6
CONTINUOUS
 62
     7
 10
1.4703558484
 20
3.0575208722
 30
0.0
  0
VERTEX
  5
30C
  8
0
  6
CONTINUOUS
 62
     7
 10
1.5382513401
 20
3.0810321421
 30
0.0
  0
VERTEX
  5
30D
  8
0
  6
CONTINUOUS
 62
     7
 10
1.6078936969
 20
3.102774048
 30
0.0
  0
VERTEX
  5
30E
  8
0
  6
CONTINUOUS
 62
     7
 10
1.6791446504
 20
3.1227034235
 30
0.0
  0
VERTEX
  5
30F
  8
0
  6
CONTINUOUS
 62
     7
 10
1.7518627384
 20
3.1407807006
 30
0.0
  0
VERTEX
  5
310
  8
0
  6
CONTINUOUS
 62
     7
 10
1.825903586
 20
3.1569699884
 30
0.0
  0
VERTEX
  5
311
  8
0
  6
CONTINUOUS
 62
     7
 10
1.9011201918
 20
3.1712391448
 30
0.0
  0
VERTEX
  5
312
  8
0
  6
CONTINUOUS
 62
     7
 10
1.9773632203
 20
3.1835598395
 30
0.0
  0
VERTEX
  5
313
  8
0
  6
CONTINUOUS
 62
     7
 10
2.0544812979
 20
3.1939076111
 30
0.0
  0
VERTEX
  5
314
  8
0
  6
CONTINUOUS
 62
     7
 10
2.1323213139
 20
3.2022619149
 30
0.0
  0
VERTEX
  5
315
  8
0
  6
CONTINUOUS
 62
     7
 10
2.2107287241
 20
3.2086061643
 30
0.0
  0
VERTEX
  5
316
  8
0
  6
CONTINUOUS
 62
     7
 10
2.2895478579
 20
3.2129277633
 30
0.0
  0
VERTEX
  5
317
  8
0
  6
CONTINUOUS
 62
     7
 10
2.3686222272
 20
3.2152181318
 30
0.0
  0
VERTEX
  5
318
  8
0
  6
CONTINUOUS
 62
     7
 10
2.4477948371
 20
3.2154727225
 30
0.0
  0
VERTEX
  5
319
  8
0
  6
CONTINUOUS
 62
     7
 10
2.5269084977
 20
3.2136910299
 30
0.0
  0
VERTEX
  5
31A
  8
0
  6
CONTINUOUS
 62
     7
 10
2.6058061363
 20
3.2098765914
 30
0.0
  0
VERTEX
  5
31B
  8
0
  6
CONTINUOUS
 62
     7
 10
2.6843311088
 20
3.2040369803
 30
0.0
  0
VERTEX
  5
31C
  8
0
  6
CONTINUOUS
 62
     7
 10
2.7623275111
 20
3.1961837905
 30
0.0
  0
VERTEX
  5
31D
  8
0
  6
CONTINUOUS
 62
     7
 10
2.8396404887
 20
3.1863326138
 30
0.0
  0
VERTEX
  5
31E
  8
0
  6
CONTINUOUS
 62
     7
 10
2.9161165437
 20
3.1745030088
 30
0.0
  0
VERTEX
  5
31F
  8
0
  6
CONTINUOUS
 62
     7
 10
2.9916038401
 20
3.1607184621
 30
0.0
  0
VERTEX
  5
320
  8
0
  6
CONTINUOUS
 62
     7
 10
3.0659525048
 20
3.1450063417
 30
0.0
  0
VERTEX
  5
321
  8
0
  6
CONTINUOUS
 62
     7
 10
3.1390149254
 20
3.1273978424
 30
0.0
  0
VERTEX
  5
322
  8
0
  6
CONTINUOUS
 62
     7
 10
3.2106460433
 20
3.1079279244
 30
0.0
  0
VERTEX
  5
323
  8
0
  6
CONTINUOUS
 62
     7
 10
3.2807036414
 20
3.0866352434
 30
0.0
  0
VERTEX
  5
324
  8
0
  6
CONTINUOUS
 62
     7
 10
3.349048627
 20
3.0635620739
 30
0.0
  0
VERTEX
  5
325
  8
0
  6
CONTINUOUS
 62
     7
 10
3.4155453073
 20
3.0387542258
 30
0.0
  0
VERTEX
  5
326
  8
0
  6
CONTINUOUS
 62
     7
 10
3.4800616594
 20
3.0122609525
 30
0.0
  0
VERTEX
  5
327
  8
0
  6
CONTINUOUS
 62
     7
 10
3.542469592
 20
2.9841348542
 30
0.0
  0
VERTEX
  5
328
  8
0
  6
CONTINUOUS
 62
     7
 10
3.6026451999
 20
2.9544317725
 30
0.0
  0
VERTEX
  5
329
  8
0
  6
CONTINUOUS
 62
     7
 10
3.6604690101
 20
2.9232106801
 30
0.0
  0
VERTEX
  5
32A
  8
0
  6
CONTINUOUS
 62
     7
 10
3.7158262188
 20
2.8905335638
 30
0.0
  0
VERTEX
  5
32B
  8
0
  6
CONTINUOUS
 62
     7
 10
3.7686069192
 20
2.8564653007
 30
0.0
  0
VERTEX
  5
32C
  8
0
  6
CONTINUOUS
 62
     7
 10
3.8187063202
 20
2.8210735304
 30
0.0
  0
VERTEX
  5
32D
  8
0
  6
CONTINUOUS
 62
     7
 10
3.8660249542
 20
2.7844285199
 30
0.0
  0
VERTEX
  5
32E
  8
0
  6
CONTINUOUS
 62
     7
 10
3.9104688742
 20
2.7466030245
 30
0.0
  0
VERTEX
  5
32F
  8
0
  6
CONTINUOUS
 62
     7
 10
3.9519498411
 20
2.7076721432
 30
0.0
  0
VERTEX
  5
330
  8
0
  6
CONTINUOUS
 62
     7
 10
3.9903854982
 20
2.6677131697
 30
0.0
  0
VERTEX
  5
331
  8
0
  6
CONTINUOUS
 62
     7
 10
4.0256995351
 20
2.6268054388
 30
0.0
  0
VERTEX
  5
332
  8
0
  6
CONTINUOUS
 62
     7
 10
4.057821839
 20
2.585030169
 30
0.0
  0
VERTEX
  5
333
  8
0
  6
CONTINUOUS
 62
     7
 10
4.0866886341
 20
2.5424703012
 30
0.0
  0
VERTEX
  5
334
  8
0
  6
CONTINUOUS
 62
     7
 10
4.112242608
 20
2.4992103342
 30
0.0
  0
VERTEX
  5
335
  8
0
  6
CONTINUOUS
 62
     7
 10
4.1344330256
 20
2.4553361566
 30
0.0
  0
VERTEX
  5
336
  8
0
  6
CONTINUOUS
 62
     7
 10
4.15321583
 20
2.4109348765
 30
0.0
  0
VERTEX
  5
337
  8
0
  6
CONTINUOUS
 62
     7
 10
4.1685537296
 20
2.3660946486
 30
0.0
  0
VERTEX
  5
338
  8
0
  6
CONTINUOUS
 62
     7
 10
4.1804162724
 20
2.3209044989
 30
0.0
  0
VERTEX
  5
339
  8
0
  6
CONTINUOUS
 62
     7
 10
4.1887799066
 20
2.2754541484
 30
0.0
  0
VERTEX
  5
33A
  8
0
  6
CONTINUOUS
 62
     7
 10
4.1936280267
 20
2.2298338344
 30
0.0
  0
VERTEX
  5
33B
  8
0
  6
CONTINUOUS
 62
     7
 10
4.1949510074
 20
2.1841341319
 30
0.0
  0
VERTEX
  5
33C
  8
0
  6
CONTINUOUS
 62
     7
 10
4.192746222
 20
2.1384457735
 30
0.0
  0
VERTEX
  5
33D
  8
0
  6
CONTINUOUS
 62
     7
 10
4.1870180479
 20
2.0928594691
 30
0.0
  0
VERTEX
  5
33E
  8
0
  6
CONTINUOUS
 62
     7
 10
4.1777778578
 20
2.0474657261
 30
0.0
  0
VERTEX
  5
33F
  8
0
  6
CONTINUOUS
 62
     7
 10
4.1650439974
 20
2.0023546697
 30
0.0
  0
VERTEX
  5
340
  8
0
  6
CONTINUOUS
 62
     7
 10
4.1488417484
 20
1.9576158635
 30
0.0
  0
VERTEX
  5
341
  8
0
  6
CONTINUOUS
 62
     7
 10
4.1292032789
 20
1.9133381324
 30
0.0
  0
VERTEX
  5
342
  8
0
  6
CONTINUOUS
 62
     7
 10
4.1061675794
 20
1.8696093858
 30
0.0
  0
VERTEX
  5
343
  8
0
  6
CONTINUOUS
 62
     7
 10
4.0797803851
 20
1.826516443
 30
0.0
  0
VERTEX
  5
344
  8
0
  6
CONTINUOUS
 62
     7
 10
4.0500940853
 20
1.784144861
 30
0.0
  0
VERTEX
  5
345
  8
0
  6
CONTINUOUS
 62
     7
 10
4.0171676193
 20
1.7425787647
 30
0.0
  0
VERTEX
  5
346
  8
0
  6
CONTINUOUS
 62
     7
 10
3.9810663598
 20
1.7019006797
 30
0.0
  0
VERTEX
  5
347
  8
0
  6
CONTINUOUS
 62
     7
 10
3.9418619822
 20
1.6621913687
 30
0.0
  0
VERTEX
  5
348
  8
0
  6
CONTINUOUS
 62
     7
 10
3.8996323234
 20
1.6235296707
 30
0.0
  0
VERTEX
  5
349
  8
0
  6
CONTINUOUS
 62
     7
 10
3.8544612265
 20
1.585992345
 30
0.0
  0
VERTEX
  5
34A
  8
0
  6
CONTINUOUS
 62
     7
 10
3.8064383743
 20
1.5496539185
 30
0.0
  0
VERTEX
  5
34B
  8
0
  6
CONTINUOUS
 62
     7
 10
3.7556591119
 20
1.5145865378
 30
0.0
  0
VERTEX
  5
34C
  8
0
  6
CONTINUOUS
 62
     7
 10
3.7022242568
 20
1.4808598259
 30
0.0
  0
VERTEX
  5
34D
  8
0
  6
CONTINUOUS
 62
     7
 10
3.6462398989
 20
1.448540744
 30
0.0
  0
VERTEX
  5
34E
  8
0
  6
CONTINUOUS
 62
     7
 10
3.5878171901
 20
1.4176934588
 30
0.0
  0
VERTEX
  5
34F
  8
0
  6
CONTINUOUS
 62
     7
 10
3.5270721231
 20
1.3883792146
 30
0.0
  0
VERTEX
  5
350
  8
0
  6
CONTINUOUS
 62
     7
 10
3.4641253018
 20
1.3606562121
 30
0.0
  0
VERTEX
  5
351
  8
0
  6
CONTINUOUS
 62
     7
 10
3.3991017011
 20
1.3345794929
 30
0.0
  0
VERTEX
  5
352
  8
0
  6
CONTINUOUS
 62
     7
 10
3.3321304194
 20
1.3102008298
 30
0.0
  0
VERTEX
  5
353
  8
0
  6
CONTINUOUS
 62
     7
 10
3.263344422
 20
1.2875686244
 30
0.0
  0
VERTEX
  5
354
  8
0
  6
CONTINUOUS
 62
     7
 10
3.1928802772
 20
1.2667278108
 30
0.0
  0
VERTEX
  5
355
  8
0
  6
CONTINUOUS
 62
     7
 10
3.1208778849
 20
1.2477197666
 30
0.0
  0
VERTEX
  5
356
  8
0
  6
CONTINUOUS
 62
     7
 10
3.0474801993
 20
1.2305822305
 30
0.0
  0
VERTEX
  5
357
  8
0
  6
CONTINUOUS
 62
     7
 10
2.9728329447
 20
1.2153492275
 30
0.0
  0
VERTEX
  5
358
  8
0
  6
CONTINUOUS
 62
     7
 10
2.8970843262
 20
1.2020510012
 30
0.0
  0
VERTEX
  5
359
  8
0
  6
CONTINUOUS
 62
     7
 10
2.8203847358
 20
1.1907139541
 30
0.0
  0
VERTEX
  5
35A
  8
0
  6
CONTINUOUS
 62
     7
 10
2.7428864534
 20
1.1813605949
 30
0.0
  0
VERTEX
  5
35B
  8
0
  6
CONTINUOUS
 62
     7
 10
2.6647433446
 20
1.1740094937
 30
0.0
  0
VERTEX
  5
35C
  8
0
  6
CONTINUOUS
 62
     7
 10
2.5861105554
 20
1.1686752455
 30
0.0
  0
VERTEX
  5
35D
  8
0
  6
CONTINUOUS
 62
     7
 10
2.5071442039
 20
1.165368441
 30
0.0
  0
VERTEX
  5
35E
  8
0
  6
CONTINUOUS
 62
     7
 10
2.4280010705
 20
1.1640956455
 30
0.0
  0
VERTEX
  5
35F
  8
0
  6
CONTINUOUS
 62
     7
 10
2.3488382865
 20
1.164859386
 30
0.0
  0
VERTEX
  5
360
  8
0
  6
CONTINUOUS
 62
     7
 10
2.2698130223
 20
1.1676581462
 30
0.0
  0
VERTEX
  5
361
  8
0
  6
CONTINUOUS
 62
     7
 10
2.1910821753
 20
1.1724863694
 30
0.0
  0
VERTEX
  5
362
  8
0
  6
CONTINUOUS
 62
     7
 10
2.1128020582
 20
1.1793344696
 30
0.0
  0
VERTEX
  5
363
  8
0
  6
CONTINUOUS
 62
     7
 10
2.035128089
 20
1.1881888506
 30
0.0
  0
VERTEX
  5
364
  8
0
  6
CONTINUOUS
 62
     7
 10
1.9582144822
 20
1.1990319327
 30
0.0
  0
VERTEX
  5
365
  8
0
  6
CONTINUOUS
 62
     7
 10
1.8822139427
 20
1.2118421882
 30
0.0
  0
VERTEX
  5
366
  8
0
  6
CONTINUOUS
 62
     7
 10
1.8072773624
 20
1.2265941833
 30
0.0
  0
VERTEX
  5
367
  8
0
  6
CONTINUOUS
 62
     7
 10
1.7335535209
 20
1.2432586294
 30
0.0
  0
VERTEX
  5
368
  8
0
  6
CONTINUOUS
 62
     7
 10
1.6611887903
 20
1.2618024407
 30
0.0
  0
VERTEX
  5
369
  8
0
  6
CONTINUOUS
 62
     7
 10
1.5903268439
 20
1.2821888002
 30
0.0
  0
VERTEX
  5
36A
  8
0
  6
CONTINUOUS
 62
     7
 10
1.5211083715
 20
1.3043772328
 30
0.0
  0
VERTEX
  5
36B
  8
0
  6
CONTINUOUS
 62
     7
 10
1.4536708002
 20
1.3283236853
 30
0.0
  0
VERTEX
  5
36C
  8
0
  6
CONTINUOUS
 62
     7
 10
1.3881480208
 20
1.3539806142
 30
0.0
  0
VERTEX
  5
36D
  8
0
  6
CONTINUOUS
 62
     7
 10
1.3246701228
 20
1.3812970801
 30
0.0
  0
VERTEX
  5
36E
  8
0
  6
CONTINUOUS
 62
     7
 10
1.2633631357
 20
1.4102188487
 30
0.0
  0
VERTEX
  5
36F
  8
0
  6
CONTINUOUS
 62
     7
 10
1.2043487789
 20
1.4406884985
 30
0.0
  0
VERTEX
  5
370
  8
0
  6
CONTINUOUS
 62
     7
 10
1.1477442198
 20
1.4726455348
 30
0.0
  0
VERTEX
  5
371
  8
0
  6
CONTINUOUS
 62
     7
 10
1.0936618417
 20
1.5060265099
 30
0.0
  0
VERTEX
  5
372
  8
0
  6
CONTINUOUS
 62
     7
 10
1.04220902
 20
1.540765149
 30
0.0
  0
VERTEX
  5
373
  8
0
  6
CONTINUOUS
 62
     7
 10
0.9934879096
 20
1.5767924816
 30
0.0
  0
VERTEX
  5
374
  8
0
  6
CONTINUOUS
 62
     7
 10
0.9475952418
 20
1.6140369789
 30
0.0
  0
VERTEX
  5
375
  8
0
  6
CONTINUOUS
 62
     7
 10
0.9046221321
 20
1.6524246953
 30
0.0
  0
VERTEX
  5
376
  8
0
  6
CONTINUOUS
 62
     7
 10
0.8646538997
 20
1.6918794157
 30
0.0
  0
VERTEX
  5
377
  8
0
  6
CONTINUOUS
 62
     7
 10
0.8277698978
 20
1.7323228062
 30
0.0
  0
VERTEX
  5
378
  8
0
  6
CONTINUOUS
 62
     7
 10
0.7940433563
 20
1.7736745703
 30
0.0
  0
VERTEX
  5
379
  8
0
  6
CONTINUOUS
 62
     7
 10
0.763541236
 20
1.815852608
 30
0.0
  0
VERTEX
  5
37A
  8
0
  6
CONTINUOUS
 62
     7
 10
0.736324096
 20
1.8587731785
 30
0.0
  0
VERTEX
  5
37B
  8
0
  6
CONTINUOUS
 62
     7
 10
0.7124459735
 20
1.9023510671
 30
0.0
  0
VERTEX
  5
37C
  8
0
  6
CONTINUOUS
 62
     7
 10
0.6919542764
 20
1.946499754
 30
0.0
  0
VERTEX
  5
37D
  8
0
  6
CONTINUOUS
 62
     7
 10
0.6748896888
 20
1.9911315859
 30
0.0
  0
VERTEX
  5
37E
  8
0
  6
CONTINUOUS
 62
     7
 10
0.6612860911
 20
2.0361579506
 30
0.0
  0
VERTEX
  5
37F
  8
0
  6
CONTINUOUS
 62
     7
 10
0.6511704918
 20
2.0814894523
 30
0.0
  0
VERTEX
  5
380
  8
0
  6
CONTINUOUS
 62
     7
 10
0.6445629747
 20
2.1270360895
 30
0.0
  0
VERTEX
  5
381
  8
0
  6
CONTINUOUS
 62
     7
 10
0.6414766582
 20
2.1727074337
 30
0.0
  0
VERTEX
  5
382
  8
0
  6
CONTINUOUS
 62
     7
 10
0.64191767
 20
2.2184128085
 30
0.0
  0
VERTEX
  5
383
  8
0
  6
CONTINUOUS
 62
     7
 10
0.6458851345
 20
2.2640614702
 30
0.0
  0
VERTEX
  5
384
  8
0
  6
CONTINUOUS
 62
     7
 10
0.6533711747
 20
2.3095627877
 30
0.0
  0
VERTEX
  5
385
  8
0
  6
CONTINUOUS
 62
     7
 10
0.6643609277
 20
2.3548264221
 30
0.0
  0
VERTEX
  5
386
  8
0
  6
CONTINUOUS
 62
     7
 10
0.6788325744
 20
2.3997625069
 30
0.0
  0
VERTEX
  5
387
  8
0
  6
CONTINUOUS
 62
     7
 10
0.6967573826
 20
2.4442818255
 30
0.0
  0
VERTEX
  5
388
  8
0
  6
CONTINUOUS
 62
     7
 10
0.7180997644
 20
2.4882959889
 30
0.0
  0
VERTEX
  5
389
  8
0
  6
CONTINUOUS
 62
     7
 10
0.7428173464
 20
2.5317176112
 30
0.0
  0
VERTEX
  5
38A
  8
0
  6
CONTINUOUS
 62
     7
 10
0.7708610541
 20
2.5744604827
 30
0.0
  0
VERTEX
  5
38B
  8
0
  6
CONTINUOUS
 62
     7
 10
0.8021752094
 20
2.6164397414
 30
0.0
  0
VERTEX
  5
38C
  8
0
  6
CONTINUOUS
 62
     7
 10
0.8366976409
 20
2.6575720413
 30
0.0
  0
VERTEX
  5
38D
  8
0
  6
CONTINUOUS
 62
     7
 10
0.8743598074
 20
2.6977757181
 30
0.0
  0
VERTEX
  5
38E
  8
0
  6
CONTINUOUS
 62
     7
 10
0.9150869343
 20
2.7369709512
 30
0.0
  0
VERTEX
  5
38F
  8
0
  6
CONTINUOUS
 62
     7
 10
0.9587981616
 20
2.7750799219
 30
0.0
  0
VERTEX
  5
390
  8
0
  6
CONTINUOUS
 62
     7
 10
1.0054067048
 20
2.8120269685
 30
0.0
  0
VERTEX
  5
391
  8
0
  6
CONTINUOUS
 62
     7
 10
1.0548200268
 20
2.847738736
 30
0.0
  0
VERTEX
  5
392
  8
0
  6
CONTINUOUS
 62
     7
 10
1.106940022
 20
2.882144322
 30
0.0
  0
VERTEX
  5
393
  8
0
  6
CONTINUOUS
 62
     7
 10
1.1616632112
 20
2.9151754175
 30
0.0
  0
SEQEND
  5
721
  8
0
  6
CONTINUOUS
 62
     7
  0
ARC
  5
16E
  8
0
  6
CONTINUOUS
 62
     7
 10
3.6095626991
 20
2.1735084374
 30
0.0
 40
0.6053714049768746
 50
347.507249462
 51
12.1322637323
  0
ARC
  5
16F
  8
0
  6
CONTINUOUS
 62
     7
 10
1.2261034891
 20
2.1735070969
 30
0.0
 40
0.6048394954847824
 50
168.1855820215
 51
192.2181935832
  0
ARC
  5
170
  8
0
  6
CONTINUOUS
 62
     7
 10
3.6062578731
 20
2.0026032594
 30
0.0
 40
0.6087209573402894
 50
347.5223049335
 51
359.9473078968
  0
ARC
  5
171
  8
0
  6
CONTINUOUS
 62
     7
 10
1.2279795433
 20
2.0024021822
 30
0.0
 40
0.606751076327913
 50
180.0338753519
 51
192.2147247991
  0
POLYLINE
  5
172
  8
0
  6
CONTINUOUS
 62
     7
 66
     1
 10
0.0
 20
0.0
 30
0.0
 70
   128
  0
VERTEX
  5
394
  8
0
  6
CONTINUOUS
 62
     7
 10
1.6305633955
 20
2.6444851029
 30
0.0
  0
VERTEX
  5
395
  8
0
  6
CONTINUOUS
 62
     7
 10
1.676379884
 20
2.6694780585
 30
0.0
  0
VERTEX
  5
396
  8
0
  6
CONTINUOUS
 62
     7
 10
1.7245723372
 20
2.692934614
 30
0.0
  0
VERTEX
  5
397
  8
0
  6
CONTINUOUS
 62
     7
 10
1.77498638
 20
2.7147796308
 30
0.0
  0
VERTEX
  5
398
  8
0
  6
CONTINUOUS
 62
     7
 10
1.8274605211
 20
2.7349431328
 30
0.0
  0
VERTEX
  5
399
  8
0
  6
CONTINUOUS
 62
     7
 10
1.8818266699
 20
2.7533605303
 30
0.0
  0
VERTEX
  5
39A
  8
0
  6
CONTINUOUS
 62
     7
 10
1.9379106753
 20
2.7699728267
 30
0.0
  0
VERTEX
  5
39B
  8
0
  6
CONTINUOUS
 62
     7
 10
1.9955328833
 20
2.7847268079
 30
0.0
  0
VERTEX
  5
39C
  8
0
  6
CONTINUOUS
 62
     7
 10
2.0545087127
 20
2.7975752123
 30
0.0
  0
VERTEX
  5
39D
  8
0
  6
CONTINUOUS
 62
     7
 10
2.114649246
 20
2.8084768828
 30
0.0
  0
VERTEX
  5
39E
  8
0
  6
CONTINUOUS
 62
     7
 10
2.175761835
 20
2.817396898
 30
0.0
  0
VERTEX
  5
39F
  8
0
  6
CONTINUOUS
 62
     7
 10
2.2376507176
 20
2.8243066843
 30
0.0
  0
VERTEX
  5
3A0
  8
0
  6
CONTINUOUS
 62
     7
 10
2.3001176451
 20
2.8291841076
 30
0.0
  0
VERTEX
  5
3A1
  8
0
  6
CONTINUOUS
 62
     7
 10
2.3629625172
 20
2.8320135441
 30
0.0
  0
VERTEX
  5
3A2
  8
0
  6
CONTINUOUS
 62
     7
 10
2.4259840226
 20
2.8327859303
 30
0.0
  0
VERTEX
  5
3A3
  8
0
  6
CONTINUOUS
 62
     7
 10
2.4889802846
 20
2.8314987919
 30
0.0
  0
VERTEX
  5
3A4
  8
0
  6
CONTINUOUS
 62
     7
 10
2.5517495071
 20
2.828156252
 30
0.0
  0
VERTEX
  5
3A5
  8
0
  6
CONTINUOUS
 62
     7
 10
2.6140906214
 20
2.8227690179
 30
0.0
  0
VERTEX
  5
3A6
  8
0
  6
CONTINUOUS
 62
     7
 10
2.6758039301
 20
2.8153543464
 30
0.0
  0
VERTEX
  5
3A7
  8
0
  6
CONTINUOUS
 62
     7
 10
2.7366917469
 20
2.805935989
 30
0.0
  0
VERTEX
  5
3A8
  8
0
  6
CONTINUOUS
 62
     7
 10
2.7965590297
 20
2.7945441154
 30
0.0
  0
VERTEX
  5
3A9
  8
0
  6
CONTINUOUS
 62
     7
 10
2.8552140056
 20
2.7812152174
 30
0.0
  0
VERTEX
  5
3AA
  8
0
  6
CONTINUOUS
 62
     7
 10
2.912468785
 20
2.7659919914
 30
0.0
  0
VERTEX
  5
3AB
  8
0
  6
CONTINUOUS
 62
     7
 10
2.9681399636
 20
2.748923202
 30
0.0
  0
VERTEX
  5
3AC
  8
0
  6
CONTINUOUS
 62
     7
 10
3.0220492098
 20
2.7300635256
 30
0.0
  0
VERTEX
  5
3AD
  8
0
  6
CONTINUOUS
 62
     7
 10
3.074023836
 20
2.7094733755
 30
0.0
  0
VERTEX
  5
3AE
  8
0
  6
CONTINUOUS
 62
     7
 10
3.1238973519
 20
2.6872187082
 30
0.0
  0
VERTEX
  5
3AF
  8
0
  6
CONTINUOUS
 62
     7
 10
3.1715099975
 20
2.663370812
 30
0.0
  0
VERTEX
  5
3B0
  8
0
  6
CONTINUOUS
 62
     7
 10
3.2167092553
 20
2.6380060789
 30
0.0
  0
VERTEX
  5
3B1
  8
0
  6
CONTINUOUS
 62
     7
 10
3.2593503382
 20
2.6112057599
 30
0.0
  0
VERTEX
  5
3B2
  8
0
  6
CONTINUOUS
 62
     7
 10
3.2992966542
 20
2.5830557044
 30
0.0
  0
VERTEX
  5
3B3
  8
0
  6
CONTINUOUS
 62
     7
 10
3.3364202431
 20
2.5536460856
 30
0.0
  0
VERTEX
  5
3B4
  8
0
  6
CONTINUOUS
 62
     7
 10
3.3706021868
 20
2.5230711113
 30
0.0
  0
VERTEX
  5
3B5
  8
0
  6
CONTINUOUS
 62
     7
 10
3.4017329903
 20
2.4914287224
 30
0.0
  0
VERTEX
  5
3B6
  8
0
  6
CONTINUOUS
 62
     7
 10
3.4297129323
 20
2.458820279
 30
0.0
  0
VERTEX
  5
3B7
  8
0
  6
CONTINUOUS
 62
     7
 10
3.4544523845
 20
2.4253502358
 30
0.0
  0
VERTEX
  5
3B8
  8
0
  6
CONTINUOUS
 62
     7
 10
3.475872099
 20
2.3911258074
 30
0.0
  0
VERTEX
  5
3B9
  8
0
  6
CONTINUOUS
 62
     7
 10
3.493903462
 20
2.3562566249
 30
0.0
  0
VERTEX
  5
3BA
  8
0
  6
CONTINUOUS
 62
     7
 10
3.5084887137
 20
2.320854385
 30
0.0
  0
VERTEX
  5
3BB
  8
0
  6
CONTINUOUS
 62
     7
 10
3.519581133
 20
2.2850324915
 30
0.0
  0
VERTEX
  5
3BC
  8
0
  6
CONTINUOUS
 62
     7
 10
3.5271451877
 20
2.248905693
 30
0.0
  0
VERTEX
  5
3BD
  8
0
  6
CONTINUOUS
 62
     7
 10
3.5311566477
 20
2.2125897143
 30
0.0
  0
VERTEX
  5
3BE
  8
0
  6
CONTINUOUS
 62
     7
 10
3.5316026631
 20
2.1762008865
 30
0.0
  0
VERTEX
  5
3BF
  8
0
  6
CONTINUOUS
 62
     7
 10
3.5284818053
 20
2.139855774
 30
0.0
  0
VERTEX
  5
3C0
  8
0
  6
CONTINUOUS
 62
     7
 10
3.5218040713
 20
2.1036708011
 30
0.0
  0
VERTEX
  5
3C1
  8
0
  6
CONTINUOUS
 62
     7
 10
3.5115908518
 20
2.0677618793
 30
0.0
  0
VERTEX
  5
3C2
  8
0
  6
CONTINUOUS
 62
     7
 10
3.4978748629
 20
2.0322440356
 30
0.0
  0
VERTEX
  5
3C3
  8
0
  6
CONTINUOUS
 62
     7
 10
3.480700041
 20
1.9972310443
 30
0.0
  0
VERTEX
  5
3C4
  8
0
  6
CONTINUOUS
 62
     7
 10
3.4601214023
 20
1.9628350628
 30
0.0
  0
VERTEX
  5
3C5
  8
0
  6
CONTINUOUS
 62
     7
 10
3.4362048663
 20
1.9291662715
 30
0.0
  0
VERTEX
  5
3C6
  8
0
  6
CONTINUOUS
 62
     7
 10
3.409027045
 20
1.896332522
 30
0.0
  0
VERTEX
  5
3C7
  8
0
  6
CONTINUOUS
 62
     7
 10
3.3786749971
 20
1.8644389904
 30
0.0
  0
VERTEX
  5
3C8
  8
0
  6
CONTINUOUS
 62
     7
 10
3.3452459492
 20
1.8335878415
 30
0.0
  0
VERTEX
  5
3C9
  8
0
  6
CONTINUOUS
 62
     7
 10
3.3088469849
 20
1.8038779007
 30
0.0
  0
VERTEX
  5
3CA
  8
0
  6
CONTINUOUS
 62
     7
 10
3.2695947009
 20
1.775404338
 30
0.0
  0
VERTEX
  5
3CB
  8
0
  6
CONTINUOUS
 62
     7
 10
3.227614834
 20
1.7482583628
 30
0.0
  0
VERTEX
  5
3CC
  8
0
  6
CONTINUOUS
 62
     7
 10
3.1830418586
 20
1.7225269318
 30
0.0
  0
VERTEX
  5
3CD
  8
0
  6
CONTINUOUS
 62
     7
 10
3.1360185552
 20
1.6982924705
 30
0.0
  0
VERTEX
  5
3CE
  8
0
  6
CONTINUOUS
 62
     7
 10
3.0866955537
 20
1.6756326093
 30
0.0
  0
VERTEX
  5
3CF
  8
0
  6
CONTINUOUS
 62
     7
 10
3.0352308505
 20
1.6546199344
 30
0.0
  0
VERTEX
  5
3D0
  8
0
  6
CONTINUOUS
 62
     7
 10
2.9817893027
 20
1.6353217559
 30
0.0
  0
VERTEX
  5
3D1
  8
0
  6
CONTINUOUS
 62
     7
 10
2.9265420994
 20
1.6177998916
 30
0.0
  0
VERTEX
  5
3D2
  8
0
  6
CONTINUOUS
 62
     7
 10
2.8696662143
 20
1.6021104693
 30
0.0
  0
VERTEX
  5
3D3
  8
0
  6
CONTINUOUS
 62
     7
 10
2.8113438379
 20
1.588303747
 30
0.0
  0
VERTEX
  5
3D4
  8
0
  6
CONTINUOUS
 62
     7
 10
2.7517617944
 20
1.5764239517
 30
0.0
  0
VERTEX
  5
3D5
  8
0
  6
CONTINUOUS
 62
     7
 10
2.6911109431
 20
1.5665091381
 30
0.0
  0
VERTEX
  5
3D6
  8
0
  6
CONTINUOUS
 62
     7
 10
2.6295855668
 20
1.5585910663
 30
0.0
  0
VERTEX
  5
3D7
  8
0
  6
CONTINUOUS
 62
     7
 10
2.5673827499
 20
1.5526951001
 30
0.0
  0
VERTEX
  5
3D8
  8
0
  6
CONTINUOUS
 62
     7
 10
2.5047017468
 20
1.5488401263
 30
0.0
  0
VERTEX
  5
3D9
  8
0
  6
CONTINUOUS
 62
     7
 10
2.4417433437
 20
1.5470384934
 30
0.0
  0
VERTEX
  5
3DA
  8
0
  6
CONTINUOUS
 62
     7
 10
2.3787092152
 20
1.5472959727
 30
0.0
  0
VERTEX
  5
3DB
  8
0
  6
CONTINUOUS
 62
     7
 10
2.3158012788
 20
1.5496117393
 30
0.0
  0
VERTEX
  5
3DC
  8
0
  6
CONTINUOUS
 62
     7
 10
2.2532210475
 20
1.5539783751
 30
0.0
  0
VERTEX
  5
3DD
  8
0
  6
CONTINUOUS
 62
     7
 10
2.1911689845
 20
1.5603818924
 30
0.0
  0
VERTEX
  5
3DE
  8
0
  6
CONTINUOUS
 62
     7
 10
2.1298438615
 20
1.568801779
 30
0.0
  0
VERTEX
  5
3DF
  8
0
  6
CONTINUOUS
 62
     7
 10
2.0694421213
 20
1.5792110633
 30
0.0
  0
VERTEX
  5
3E0
  8
0
  6
CONTINUOUS
 62
     7
 10
2.0101572488
 20
1.5915764013
 30
0.0
  0
VERTEX
  5
3E1
  8
0
  6
CONTINUOUS
 62
     7
 10
1.9521791513
 20
1.6058581831
 30
0.0
  0
VERTEX
  5
3E2
  8
0
  6
CONTINUOUS
 62
     7
 10
1.8956935502
 20
1.6220106597
 30
0.0
  0
VERTEX
  5
3E3
  8
0
  6
CONTINUOUS
 62
     7
 10
1.840881386
 20
1.6399820901
 30
0.0
  0
VERTEX
  5
3E4
  8
0
  6
CONTINUOUS
 62
     7
 10
1.7879182384
 20
1.6597149062
 30
0.0
  0
VERTEX
  5
3E5
  8
0
  6
CONTINUOUS
 62
     7
 10
1.7369737644
 20
1.6811458978
 30
0.0
  0
VERTEX
  5
3E6
  8
0
  6
CONTINUOUS
 62
     7
 10
1.6882111546
 20
1.7042064152
 30
0.0
  0
VERTEX
  5
3E7
  8
0
  6
CONTINUOUS
 62
     7
 10
1.6417866102
 20
1.7288225884
 30
0.0
  0
VERTEX
  5
3E8
  8
0
  6
CONTINUOUS
 62
     7
 10
1.5978488431
 20
1.7549155645
 30
0.0
  0
VERTEX
  5
3E9
  8
0
  6
CONTINUOUS
 62
     7
 10
1.5565385991
 20
1.7824017598
 30
0.0
  0
VERTEX
  5
3EA
  8
0
  6
CONTINUOUS
 62
     7
 10
1.5179882076
 20
1.8111931277
 30
0.0
  0
VERTEX
  5
3EB
  8
0
  6
CONTINUOUS
 62
     7
 10
1.4823211569
 20
1.8411974407
 30
0.0
  0
VERTEX
  5
3EC
  8
0
  6
CONTINUOUS
 62
     7
 10
1.4496516994
 20
1.8723185861
 30
0.0
  0
VERTEX
  5
3ED
  8
0
  6
CONTINUOUS
 62
     7
 10
1.4200844852
 20
1.9044568734
 30
0.0
  0
VERTEX
  5
3EE
  8
0
  6
CONTINUOUS
 62
     7
 10
1.393714227
 20
1.937509354
 30
0.0
  0
VERTEX
  5
3EF
  8
0
  6
CONTINUOUS
 62
     7
 10
1.3706253967
 20
1.9713701509
 30
0.0
  0
VERTEX
  5
3F0
  8
0
  6
CONTINUOUS
 62
     7
 10
1.3508919548
 20
2.0059307976
 30
0.0
  0
VERTEX
  5
3F1
  8
0
  6
CONTINUOUS
 62
     7
 10
1.3345771135
 20
2.041080586
 30
0.0
  0
VERTEX
  5
3F2
  8
0
  6
CONTINUOUS
 62
     7
 10
1.3217331341
 20
2.0767069208
 30
0.0
  0
VERTEX
  5
3F3
  8
0
  6
CONTINUOUS
 62
     7
 10
1.3124011597
 20
2.1126956801
 30
0.0
  0
VERTEX
  5
3F4
  8
0
  6
CONTINUOUS
 62
     7
 10
1.3066110835
 20
2.1489315809
 30
0.0
  0
VERTEX
  5
3F5
  8
0
  6
CONTINUOUS
 62
     7
 10
1.3043814528
 20
2.1852985489
 30
0.0
  0
VERTEX
  5
3F6
  8
0
  6
CONTINUOUS
 62
     7
 10
1.3057194098
 20
2.2216800896
 30
0.0
  0
VERTEX
  5
3F7
  8
0
  6
CONTINUOUS
 62
     7
 10
1.3106206687
 20
2.257959662
 30
0.0
  0
VERTEX
  5
3F8
  8
0
  6
CONTINUOUS
 62
     7
 10
1.3190695292
 20
2.2940210516
 30
0.0
  0
VERTEX
  5
3F9
  8
0
  6
CONTINUOUS
 62
     7
 10
1.331038927
 20
2.3297487431
 30
0.0
  0
VERTEX
  5
3FA
  8
0
  6
CONTINUOUS
 62
     7
 10
1.3464905207
 20
2.3650282898
 30
0.0
  0
VERTEX
  5
3FB
  8
0
  6
CONTINUOUS
 62
     7
 10
1.365374814
 20
2.3997466807
 30
0.0
  0
VERTEX
  5
3FC
  8
0
  6
CONTINUOUS
 62
     7
 10
1.3876313149
 20
2.4337927022
 30
0.0
  0
VERTEX
  5
3FD
  8
0
  6
CONTINUOUS
 62
     7
 10
1.4131887291
 20
2.4670572949
 30
0.0
  0
VERTEX
  5
3FE
  8
0
  6
CONTINUOUS
 62
     7
 10
1.4419651885
 20
2.499433902
 30
0.0
  0
VERTEX
  5
3FF
  8
0
  6
CONTINUOUS
 62
     7
 10
1.4738685134
 20
2.5308188117
 30
0.0
  0
VERTEX
  5
400
  8
0
  6
CONTINUOUS
 62
     7
 10
1.5087965079
 20
2.5611114885
 30
0.0
  0
VERTEX
  5
401
  8
0
  6
CONTINUOUS
 62
     7
 10
1.5466372871
 20
2.590214896
 30
0.0
  0
VERTEX
  5
402
  8
0
  6
CONTINUOUS
 62
     7
 10
1.5872696355
 20
2.618035807
 30
0.0
  0
VERTEX
  5
403
  8
0
  6
CONTINUOUS
 62
     7
 10
1.6305633955
 20
2.6444851029
 30
0.0
  0
SEQEND
  5
722
  8
0
  6
CONTINUOUS
 62
     7
  0
ARC
  5
173
  8
0
  6
CONTINUOUS
 62
     7
 10
3.143627669
 20
2.1735083811
 30
0.0
 40
0.3682030487936465
 50
347.7556357149
 51
11.6275965725
  0
ARC
  5
174
  8
0
  6
CONTINUOUS
 62
     7
 10
1.6919617978
 20
2.1735190006
 30
0.0
 40
0.3675907376608535
 50
169.3694388304
 51
190.409696105
  0
POLYLINE
  5
175
  8
0
  6
CONTINUOUS
 62
     7
 66
     1
 10
0.0
 20
0.0
 30
0.0
 70
   128
  0
VERTEX
  5
404
  8
0
  6
CONTINUOUS
 62
     7
 10
4.1390888142
 20
1.6978045814
 30
0.0
  0
VERTEX
  5
405
  8
0
  6
CONTINUOUS
 62
     7
 10
4.1292032789
 20
1.676541297
 30
0.0
  0
VERTEX
  5
406
  8
0
  6
CONTINUOUS
 62
     7
 10
4.1061675794
 20
1.6328125503
 30
0.0
  0
VERTEX
  5
407
  8
0
  6
CONTINUOUS
 62
     7
 10
4.0797803851
 20
1.5897196075
 30
0.0
  0
VERTEX
  5
408
  8
0
  6
CONTINUOUS
 62
     7
 10
4.0500940853
 20
1.5473480255
 30
0.0
  0
VERTEX
  5
409
  8
0
  6
CONTINUOUS
 62
     7
 10
4.0171676193
 20
1.5057819292
 30
0.0
  0
VERTEX
  5
40A
  8
0
  6
CONTINUOUS
 62
     7
 10
3.9810663598
 20
1.4651038443
 30
0.0
  0
VERTEX
  5
40B
  8
0
  6
CONTINUOUS
 62
     7
 10
3.9418619822
 20
1.4253945332
 30
0.0
  0
VERTEX
  5
40C
  8
0
  6
CONTINUOUS
 62
     7
 10
3.8996323234
 20
1.3867328353
 30
0.0
  0
VERTEX
  5
40D
  8
0
  6
CONTINUOUS
 62
     7
 10
3.8544612265
 20
1.3491955096
 30
0.0
  0
VERTEX
  5
40E
  8
0
  6
CONTINUOUS
 62
     7
 10
3.8064383743
 20
1.3128570831
 30
0.0
  0
VERTEX
  5
40F
  8
0
  6
CONTINUOUS
 62
     7
 10
3.7556591119
 20
1.2777897024
 30
0.0
  0
VERTEX
  5
410
  8
0
  6
CONTINUOUS
 62
     7
 10
3.7022242568
 20
1.2440629904
 30
0.0
  0
VERTEX
  5
411
  8
0
  6
CONTINUOUS
 62
     7
 10
3.6462398989
 20
1.2117439086
 30
0.0
  0
VERTEX
  5
412
  8
0
  6
CONTINUOUS
 62
     7
 10
3.5878171901
 20
1.1808966233
 30
0.0
  0
VERTEX
  5
413
  8
0
  6
CONTINUOUS
 62
     7
 10
3.5270721231
 20
1.1515823791
 30
0.0
  0
VERTEX
  5
414
  8
0
  6
CONTINUOUS
 62
     7
 10
3.4641253018
 20
1.1238593767
 30
0.0
  0
VERTEX
  5
415
  8
0
  6
CONTINUOUS
 62
     7
 10
3.3991017011
 20
1.0977826574
 30
0.0
  0
VERTEX
  5
416
  8
0
  6
CONTINUOUS
 62
     7
 10
3.3321304194
 20
1.0734039943
 30
0.0
  0
VERTEX
  5
417
  8
0
  6
CONTINUOUS
 62
     7
 10
3.263344422
 20
1.0507717889
 30
0.0
  0
VERTEX
  5
418
  8
0
  6
CONTINUOUS
 62
     7
 10
3.1928802772
 20
1.0299309754
 30
0.0
  0
VERTEX
  5
419
  8
0
  6
CONTINUOUS
 62
     7
 10
3.1208778849
 20
1.0109229312
 30
0.0
  0
VERTEX
  5
41A
  8
0
  6
CONTINUOUS
 62
     7
 10
3.0474801993
 20
0.9937853951
 30
0.0
  0
VERTEX
  5
41B
  8
0
  6
CONTINUOUS
 62
     7
 10
2.9728329447
 20
0.978552392
 30
0.0
  0
VERTEX
  5
41C
  8
0
  6
CONTINUOUS
 62
     7
 10
2.8970843262
 20
0.9652541658
 30
0.0
  0
VERTEX
  5
41D
  8
0
  6
CONTINUOUS
 62
     7
 10
2.8203847358
 20
0.9539171187
 30
0.0
  0
VERTEX
  5
41E
  8
0
  6
CONTINUOUS
 62
     7
 10
2.7428864534
 20
0.9445637594
 30
0.0
  0
VERTEX
  5
41F
  8
0
  6
CONTINUOUS
 62
     7
 10
2.6647433446
 20
0.9372126583
 30
0.0
  0
VERTEX
  5
420
  8
0
  6
CONTINUOUS
 62
     7
 10
2.5861105554
 20
0.9318784101
 30
0.0
  0
VERTEX
  5
421
  8
0
  6
CONTINUOUS
 62
     7
 10
2.5071442039
 20
0.9285716055
 30
0.0
  0
VERTEX
  5
422
  8
0
  6
CONTINUOUS
 62
     7
 10
2.4280010705
 20
0.92729881
 30
0.0
  0
VERTEX
  5
423
  8
0
  6
CONTINUOUS
 62
     7
 10
2.3488382865
 20
0.9280625505
 30
0.0
  0
VERTEX
  5
424
  8
0
  6
CONTINUOUS
 62
     7
 10
2.2698130223
 20
0.9308613107
 30
0.0
  0
VERTEX
  5
425
  8
0
  6
CONTINUOUS
 62
     7
 10
2.1910821753
 20
0.9356895339
 30
0.0
  0
VERTEX
  5
426
  8
0
  6
CONTINUOUS
 62
     7
 10
2.1128020582
 20
0.9425376341
 30
0.0
  0
VERTEX
  5
427
  8
0
  6
CONTINUOUS
 62
     7
 10
2.035128089
 20
0.9513920151
 30
0.0
  0
VERTEX
  5
428
  8
0
  6
CONTINUOUS
 62
     7
 10
1.9582144822
 20
0.9622350973
 30
0.0
  0
VERTEX
  5
429
  8
0
  6
CONTINUOUS
 62
     7
 10
1.8822139427
 20
0.9750453527
 30
0.0
  0
VERTEX
  5
42A
  8
0
  6
CONTINUOUS
 62
     7
 10
1.8072773624
 20
0.9897973478
 30
0.0
  0
VERTEX
  5
42B
  8
0
  6
CONTINUOUS
 62
     7
 10
1.7335535209
 20
1.0064617939
 30
0.0
  0
VERTEX
  5
42C
  8
0
  6
CONTINUOUS
 62
     7
 10
1.6611887903
 20
1.0250056052
 30
0.0
  0
VERTEX
  5
42D
  8
0
  6
CONTINUOUS
 62
     7
 10
1.5903268439
 20
1.0453919648
 30
0.0
  0
VERTEX
  5
42E
  8
0
  6
CONTINUOUS
 62
     7
 10
1.5211083715
 20
1.0675803974
 30
0.0
  0
VERTEX
  5
42F
  8
0
  6
CONTINUOUS
 62
     7
 10
1.4536708002
 20
1.0915268498
 30
0.0
  0
VERTEX
  5
430
  8
0
  6
CONTINUOUS
 62
     7
 10
1.3881480208
 20
1.1171837787
 30
0.0
  0
VERTEX
  5
431
  8
0
  6
CONTINUOUS
 62
     7
 10
1.3246701228
 20
1.1445002447
 30
0.0
  0
VERTEX
  5
432
  8
0
  6
CONTINUOUS
 62
     7
 10
1.2633631357
 20
1.1734220133
 30
0.0
  0
VERTEX
  5
433
  8
0
  6
CONTINUOUS
 62
     7
 10
1.2043487789
 20
1.2038916631
 30
0.0
  0
VERTEX
  5
434
  8
0
  6
CONTINUOUS
 62
     7
 10
1.1477442198
 20
1.2358486994
 30
0.0
  0
VERTEX
  5
435
  8
0
  6
CONTINUOUS
 62
     7
 10
1.0936618417
 20
1.2692296745
 30
0.0
  0
VERTEX
  5
436
  8
0
  6
CONTINUOUS
 62
     7
 10
1.04220902
 20
1.3039683135
 30
0.0
  0
VERTEX
  5
437
  8
0
  6
CONTINUOUS
 62
     7
 10
0.9934879096
 20
1.3399956461
 30
0.0
  0
VERTEX
  5
438
  8
0
  6
CONTINUOUS
 62
     7
 10
0.9475952418
 20
1.3772401434
 30
0.0
  0
VERTEX
  5
439
  8
0
  6
CONTINUOUS
 62
     7
 10
0.9046221321
 20
1.4156278599
 30
0.0
  0
VERTEX
  5
43A
  8
0
  6
CONTINUOUS
 62
     7
 10
0.8646538997
 20
1.4550825802
 30
0.0
  0
VERTEX
  5
43B
  8
0
  6
CONTINUOUS
 62
     7
 10
0.8277698978
 20
1.4955259708
 30
0.0
  0
VERTEX
  5
43C
  8
0
  6
CONTINUOUS
 62
     7
 10
0.7940433563
 20
1.5368777349
 30
0.0
  0
VERTEX
  5
43D
  8
0
  6
CONTINUOUS
 62
     7
 10
0.763541236
 20
1.5790557725
 30
0.0
  0
VERTEX
  5
43E
  8
0
  6
CONTINUOUS
 62
     7
 10
0.736324096
 20
1.6219763431
 30
0.0
  0
VERTEX
  5
43F
  8
0
  6
CONTINUOUS
 62
     7
 10
0.7124459735
 20
1.6655542317
 30
0.0
  0
VERTEX
  5
440
  8
0
  6
CONTINUOUS
 62
     7
 10
0.6925199801
 20
1.7083695054
 30
0.0
  0
SEQEND
  5
723
  8
0
  6
CONTINUOUS
 62
     7
  0
POLYLINE
  5
176
  8
0
  6
CONTINUOUS
 62
     7
 66
     1
 10
0.0
 20
0.0
 30
0.0
 70
   128
  0
VERTEX
  5
441
  8
0
  6
CONTINUOUS
 62
     7
 10
4.194978573
 20
1.7636135318
 30
0.0
  0
VERTEX
  5
442
  8
0
  6
CONTINUOUS
 62
     7
 10
4.1949510074
 20
1.7578998281
 30
0.0
  0
VERTEX
  5
443
  8
0
  6
CONTINUOUS
 62
     7
 10
4.192746222
 20
1.7122114697
 30
0.0
  0
VERTEX
  5
444
  8
0
  6
CONTINUOUS
 62
     7
 10
4.1870180479
 20
1.6666251653
 30
0.0
  0
VERTEX
  5
445
  8
0
  6
CONTINUOUS
 62
     7
 10
4.1777778578
 20
1.6212314223
 30
0.0
  0
VERTEX
  5
446
  8
0
  6
CONTINUOUS
 62
     7
 10
4.1650439974
 20
1.5761203658
 30
0.0
  0
VERTEX
  5
447
  8
0
  6
CONTINUOUS
 62
     7
 10
4.1488417484
 20
1.5313815597
 30
0.0
  0
VERTEX
  5
448
  8
0
  6
CONTINUOUS
 62
     7
 10
4.1292032789
 20
1.4871038286
 30
0.0
  0
VERTEX
  5
449
  8
0
  6
CONTINUOUS
 62
     7
 10
4.1061675794
 20
1.443375082
 30
0.0
  0
VERTEX
  5
44A
  8
0
  6
CONTINUOUS
 62
     7
 10
4.0797803851
 20
1.4002821391
 30
0.0
  0
VERTEX
  5
44B
  8
0
  6
CONTINUOUS
 62
     7
 10
4.0500940853
 20
1.3579105572
 30
0.0
  0
VERTEX
  5
44C
  8
0
  6
CONTINUOUS
 62
     7
 10
4.0171676193
 20
1.3163444609
 30
0.0
  0
VERTEX
  5
44D
  8
0
  6
CONTINUOUS
 62
     7
 10
3.9810663598
 20
1.2756663759
 30
0.0
  0
VERTEX
  5
44E
  8
0
  6
CONTINUOUS
 62
     7
 10
3.9418619822
 20
1.2359570649
 30
0.0
  0
VERTEX
  5
44F
  8
0
  6
CONTINUOUS
 62
     7
 10
3.8996323234
 20
1.1972953669
 30
0.0
  0
VERTEX
  5
450
  8
0
  6
CONTINUOUS
 62
     7
 10
3.8544612265
 20
1.1597580412
 30
0.0
  0
VERTEX
  5
451
  8
0
  6
CONTINUOUS
 62
     7
 10
3.8064383743
 20
1.1234196147
 30
0.0
  0
VERTEX
  5
452
  8
0
  6
CONTINUOUS
 62
     7
 10
3.7556591119
 20
1.088352234
 30
0.0
  0
VERTEX
  5
453
  8
0
  6
CONTINUOUS
 62
     7
 10
3.7022242568
 20
1.0546255221
 30
0.0
  0
VERTEX
  5
454
  8
0
  6
CONTINUOUS
 62
     7
 10
3.6462398989
 20
1.0223064402
 30
0.0
  0
VERTEX
  5
455
  8
0
  6
CONTINUOUS
 62
     7
 10
3.5878171901
 20
0.991459155
 30
0.0
  0
VERTEX
  5
456
  8
0
  6
CONTINUOUS
 62
     7
 10
3.5270721231
 20
0.9621449108
 30
0.0
  0
VERTEX
  5
457
  8
0
  6
CONTINUOUS
 62
     7
 10
3.4641253018
 20
0.9344219083
 30
0.0
  0
VERTEX
  5
458
  8
0
  6
CONTINUOUS
 62
     7
 10
3.3991017011
 20
0.9083451891
 30
0.0
  0
VERTEX
  5
459
  8
0
  6
CONTINUOUS
 62
     7
 10
3.3321304194
 20
0.883966526
 30
0.0
  0
VERTEX
  5
45A
  8
0
  6
CONTINUOUS
 62
     7
 10
3.263344422
 20
0.8613343206
 30
0.0
  0
VERTEX
  5
45B
  8
0
  6
CONTINUOUS
 62
     7
 10
3.1928802772
 20
0.840493507
 30
0.0
  0
VERTEX
  5
45C
  8
0
  6
CONTINUOUS
 62
     7
 10
3.1208778849
 20
0.8214854628
 30
0.0
  0
VERTEX
  5
45D
  8
0
  6
CONTINUOUS
 62
     7
 10
3.0474801993
 20
0.8043479267
 30
0.0
  0
VERTEX
  5
45E
  8
0
  6
CONTINUOUS
 62
     7
 10
2.9728329447
 20
0.7891149237
 30
0.0
  0
VERTEX
  5
45F
  8
0
  6
CONTINUOUS
 62
     7
 10
2.8970843262
 20
0.7758166974
 30
0.0
  0
VERTEX
  5
460
  8
0
  6
CONTINUOUS
 62
     7
 10
2.8203847358
 20
0.7644796503
 30
0.0
  0
VERTEX
  5
461
  8
0
  6
CONTINUOUS
 62
     7
 10
2.7428864534
 20
0.7551262911
 30
0.0
  0
VERTEX
  5
462
  8
0
  6
CONTINUOUS
 62
     7
 10
2.6647433446
 20
0.7477751899
 30
0.0
  0
VERTEX
  5
463
  8
0
  6
CONTINUOUS
 62
     7
 10
2.5861105554
 20
0.7424409417
 30
0.0
  0
VERTEX
  5
464
  8
0
  6
CONTINUOUS
 62
     7
 10
2.5071442039
 20
0.7391341372
 30
0.0
  0
VERTEX
  5
465
  8
0
  6
CONTINUOUS
 62
     7
 10
2.4280010705
 20
0.7378613417
 30
0.0
  0
VERTEX
  5
466
  8
0
  6
CONTINUOUS
 62
     7
 10
2.3488382865
 20
0.7386250822
 30
0.0
  0
VERTEX
  5
467
  8
0
  6
CONTINUOUS
 62
     7
 10
2.2698130223
 20
0.7414238424
 30
0.0
  0
VERTEX
  5
468
  8
0
  6
CONTINUOUS
 62
     7
 10
2.1910821753
 20
0.7462520656
 30
0.0
  0
VERTEX
  5
469
  8
0
  6
CONTINUOUS
 62
     7
 10
2.1128020582
 20
0.7531001658
 30
0.0
  0
VERTEX
  5
46A
  8
0
  6
CONTINUOUS
 62
     7
 10
2.035128089
 20
0.7619545468
 30
0.0
  0
VERTEX
  5
46B
  8
0
  6
CONTINUOUS
 62
     7
 10
1.9582144822
 20
0.7727976289
 30
0.0
  0
VERTEX
  5
46C
  8
0
  6
CONTINUOUS
 62
     7
 10
1.8822139427
 20
0.7856078844
 30
0.0
  0
VERTEX
  5
46D
  8
0
  6
CONTINUOUS
 62
     7
 10
1.8072773624
 20
0.8003598795
 30
0.0
  0
VERTEX
  5
46E
  8
0
  6
CONTINUOUS
 62
     7
 10
1.7335535209
 20
0.8170243256
 30
0.0
  0
VERTEX
  5
46F
  8
0
  6
CONTINUOUS
 62
     7
 10
1.6611887903
 20
0.8355681369
 30
0.0
  0
VERTEX
  5
470
  8
0
  6
CONTINUOUS
 62
     7
 10
1.5903268439
 20
0.8559544964
 30
0.0
  0
VERTEX
  5
471
  8
0
  6
CONTINUOUS
 62
     7
 10
1.5211083715
 20
0.878142929
 30
0.0
  0
VERTEX
  5
472
  8
0
  6
CONTINUOUS
 62
     7
 10
1.4536708002
 20
0.9020893815
 30
0.0
  0
VERTEX
  5
473
  8
0
  6
CONTINUOUS
 62
     7
 10
1.3881480208
 20
0.9277463104
 30
0.0
  0
VERTEX
  5
474
  8
0
  6
CONTINUOUS
 62
     7
 10
1.3246701228
 20
0.9550627763
 30
0.0
  0
VERTEX
  5
475
  8
0
  6
CONTINUOUS
 62
     7
 10
1.2633631357
 20
0.9839845449
 30
0.0
  0
VERTEX
  5
476
  8
0
  6
CONTINUOUS
 62
     7
 10
1.2043487789
 20
1.0144541947
 30
0.0
  0
VERTEX
  5
477
  8
0
  6
CONTINUOUS
 62
     7
 10
1.1477442198
 20
1.046411231
 30
0.0
  0
VERTEX
  5
478
  8
0
  6
CONTINUOUS
 62
     7
 10
1.0936618417
 20
1.0797922061
 30
0.0
  0
VERTEX
  5
479
  8
0
  6
CONTINUOUS
 62
     7
 10
1.04220902
 20
1.1145308451
 30
0.0
  0
VERTEX
  5
47A
  8
0
  6
CONTINUOUS
 62
     7
 10
0.9934879096
 20
1.1505581778
 30
0.0
  0
VERTEX
  5
47B
  8
0
  6
CONTINUOUS
 62
     7
 10
0.9475952418
 20
1.1878026751
 30
0.0
  0
VERTEX
  5
47C
  8
0
  6
CONTINUOUS
 62
     7
 10
0.9046221321
 20
1.2261903915
 30
0.0
  0
VERTEX
  5
47D
  8
0
  6
CONTINUOUS
 62
     7
 10
0.8646538997
 20
1.2656451118
 30
0.0
  0
VERTEX
  5
47E
  8
0
  6
CONTINUOUS
 62
     7
 10
0.8277698978
 20
1.3060885024
 30
0.0
  0
VERTEX
  5
47F
  8
0
  6
CONTINUOUS
 62
     7
 10
0.7940433563
 20
1.3474402665
 30
0.0
  0
VERTEX
  5
480
  8
0
  6
CONTINUOUS
 62
     7
 10
0.763541236
 20
1.3896183042
 30
0.0
  0
VERTEX
  5
481
  8
0
  6
CONTINUOUS
 62
     7
 10
0.736324096
 20
1.4325388747
 30
0.0
  0
VERTEX
  5
482
  8
0
  6
CONTINUOUS
 62
     7
 10
0.7124459735
 20
1.4761167633
 30
0.0
  0
VERTEX
  5
483
  8
0
  6
CONTINUOUS
 62
     7
 10
0.6919542764
 20
1.5202654502
 30
0.0
  0
VERTEX
  5
484
  8
0
  6
CONTINUOUS
 62
     7
 10
0.6748896888
 20
1.5648972821
 30
0.0
  0
VERTEX
  5
485
  8
0
  6
CONTINUOUS
 62
     7
 10
0.6612860911
 20
1.6099236468
 30
0.0
  0
VERTEX
  5
486
  8
0
  6
CONTINUOUS
 62
     7
 10
0.6511704918
 20
1.6552551485
 30
0.0
  0
VERTEX
  5
487
  8
0
  6
CONTINUOUS
 62
     7
 10
0.6445629747
 20
1.7008017857
 30
0.0
  0
VERTEX
  5
488
  8
0
  6
CONTINUOUS
 62
     7
 10
0.6414766582
 20
1.7464731299
 30
0.0
  0
VERTEX
  5
489
  8
0
  6
CONTINUOUS
 62
     7
 10
0.641228573
 20
1.7636135318
 30
0.0
  0
SEQEND
  5
724
  8
0
  6
CONTINUOUS
 62
     7
  0
POLYLINE
  5
177
  8
0
  6
CONTINUOUS
 62
     7
 66
     1
 10
0.0
 20
0.0
 30
0.0
 70
   128
  0
VERTEX
  5
48A
  8
0
  6
CONTINUOUS
 62
     7
 10
3.6606036584
 20
1.0302357646
 30
0.0
  0
VERTEX
  5
48B
  8
0
  6
CONTINUOUS
 62
     7
 10
3.6604017992
 20
1.0301192148
 30
0.0
  0
VERTEX
  5
48C
  8
0
  6
CONTINUOUS
 62
     7
 10
3.6034153884
 20
0.998665932
 30
0.0
  0
VERTEX
  5
48D
  8
0
  6
CONTINUOUS
 62
     7
 10
3.5440419173
 20
0.9687202637
 30
0.0
  0
VERTEX
  5
48E
  8
0
  6
CONTINUOUS
 62
     7
 10
3.4824009563
 20
0.9403425165
 30
0.0
  0
VERTEX
  5
48F
  8
0
  6
CONTINUOUS
 62
     7
 10
3.4186166419
 20
0.9135898396
 30
0.0
  0
VERTEX
  5
490
  8
0
  6
CONTINUOUS
 62
     7
 10
3.3528174274
 20
0.8885161091
 30
0.0
  0
VERTEX
  5
491
  8
0
  6
CONTINUOUS
 62
     7
 10
3.2851358236
 20
0.8651718203
 30
0.0
  0
VERTEX
  5
492
  8
0
  6
CONTINUOUS
 62
     7
 10
3.2157081322
 20
0.8436039855
 30
0.0
  0
VERTEX
  5
493
  8
0
  6
CONTINUOUS
 62
     7
 10
3.1446741714
 20
0.8238560393
 30
0.0
  0
VERTEX
  5
494
  8
0
  6
CONTINUOUS
 62
     7
 10
3.0721769941
 20
0.8059677516
 30
0.0
  0
VERTEX
  5
495
  8
0
  6
CONTINUOUS
 62
     7
 10
2.9983626
 20
0.789975147
 30
0.0
  0
VERTEX
  5
496
  8
0
  6
CONTINUOUS
 62
     7
 10
2.9233796414
 20
0.7759104323
 30
0.0
  0
VERTEX
  5
497
  8
0
  6
CONTINUOUS
 62
     7
 10
2.847379124
 20
0.7638019322
 30
0.0
  0
VERTEX
  5
498
  8
0
  6
CONTINUOUS
 62
     7
 10
2.7705141029
 20
0.7536740315
 30
0.0
  0
VERTEX
  5
499
  8
0
  6
CONTINUOUS
 62
     7
 10
2.6929393738
 20
0.7455471265
 30
0.0
  0
VERTEX
  5
49A
  8
0
  6
CONTINUOUS
 62
     7
 10
2.614811162
 20
0.7394375836
 30
0.0
  0
VERTEX
  5
49B
  8
0
  6
CONTINUOUS
 62
     7
 10
2.5362868072
 20
0.7353577067
 30
0.0
  0
VERTEX
  5
49C
  8
0
  6
CONTINUOUS
 62
     7
 10
2.4575244472
 20
0.7333157121
 30
0.0
  0
VERTEX
  5
49D
  8
0
  6
CONTINUOUS
 62
     7
 10
2.3786826988
 20
0.7333157121
 30
0.0
  0
VERTEX
  5
49E
  8
0
  6
CONTINUOUS
 62
     7
 10
2.2999203388
 20
0.7353577067
 30
0.0
  0
VERTEX
  5
49F
  8
0
  6
CONTINUOUS
 62
     7
 10
2.2213959841
 20
0.7394375836
 30
0.0
  0
VERTEX
  5
4A0
  8
0
  6
CONTINUOUS
 62
     7
 10
2.1432677722
 20
0.7455471265
 30
0.0
  0
VERTEX
  5
4A1
  8
0
  6
CONTINUOUS
 62
     7
 10
2.0656930432
 20
0.7536740315
 30
0.0
  0
VERTEX
  5
4A2
  8
0
  6
CONTINUOUS
 62
     7
 10
1.988828022
 20
0.7638019322
 30
0.0
  0
VERTEX
  5
4A3
  8
0
  6
CONTINUOUS
 62
     7
 10
1.9128275046
 20
0.7759104323
 30
0.0
  0
VERTEX
  5
4A4
  8
0
  6
CONTINUOUS
 62
     7
 10
1.837844546
 20
0.789975147
 30
0.0
  0
VERTEX
  5
4A5
  8
0
  6
CONTINUOUS
 62
     7
 10
1.7640301519
 20
0.8059677516
 30
0.0
  0
VERTEX
  5
4A6
  8
0
  6
CONTINUOUS
 62
     7
 10
1.6915329746
 20
0.8238560393
 30
0.0
  0
VERTEX
  5
4A7
  8
0
  6
CONTINUOUS
 62
     7
 10
1.6204990138
 20
0.8436039855
 30
0.0
  0
VERTEX
  5
4A8
  8
0
  6
CONTINUOUS
 62
     7
 10
1.5510713224
 20
0.8651718203
 30
0.0
  0
VERTEX
  5
4A9
  8
0
  6
CONTINUOUS
 62
     7
 10
1.4833897186
 20
0.8885161091
 30
0.0
  0
VERTEX
  5
4AA
  8
0
  6
CONTINUOUS
 62
     7
 10
1.4175905041
 20
0.9135898396
 30
0.0
  0
VERTEX
  5
4AB
  8
0
  6
CONTINUOUS
 62
     7
 10
1.3538061897
 20
0.9403425165
 30
0.0
  0
VERTEX
  5
4AC
  8
0
  6
CONTINUOUS
 62
     7
 10
1.2921652287
 20
0.9687202637
 30
0.0
  0
VERTEX
  5
4AD
  8
0
  6
CONTINUOUS
 62
     7
 10
1.2327917576
 20
0.998665932
 30
0.0
  0
VERTEX
  5
4AE
  8
0
  6
CONTINUOUS
 62
     7
 10
1.1758053468
 20
1.0301192148
 30
0.0
  0
VERTEX
  5
4AF
  8
0
  6
CONTINUOUS
 62
     7
 10
1.1756034876
 20
1.0302357646
 30
0.0
  0
SEQEND
  5
725
  8
0
  6
CONTINUOUS
 62
     7
  0
POLYLINE
  5
178
  8
0
  6
CONTINUOUS
 62
     7
 66
     1
 10
0.0
 20
0.0
 30
0.0
 70
   128
  0
VERTEX
  5
4B0
  8
0
  6
CONTINUOUS
 62
     7
 10
1.6305633955
 20
2.4076882674
 30
0.0
  0
VERTEX
  5
4B1
  8
0
  6
CONTINUOUS
 62
     7
 10
1.676379884
 20
2.4326812231
 30
0.0
  0
VERTEX
  5
4B2
  8
0
  6
CONTINUOUS
 62
     7
 10
1.7245723372
 20
2.4561377785
 30
0.0
  0
VERTEX
  5
4B3
  8
0
  6
CONTINUOUS
 62
     7
 10
1.77498638
 20
2.4779827953
 30
0.0
  0
VERTEX
  5
4B4
  8
0
  6
CONTINUOUS
 62
     7
 10
1.8274605211
 20
2.4981462974
 30
0.0
  0
VERTEX
  5
4B5
  8
0
  6
CONTINUOUS
 62
     7
 10
1.8818266699
 20
2.5165636948
 30
0.0
  0
VERTEX
  5
4B6
  8
0
  6
CONTINUOUS
 62
     7
 10
1.9379106753
 20
2.5331759912
 30
0.0
  0
VERTEX
  5
4B7
  8
0
  6
CONTINUOUS
 62
     7
 10
1.9955328833
 20
2.5479299724
 30
0.0
  0
VERTEX
  5
4B8
  8
0
  6
CONTINUOUS
 62
     7
 10
2.0545087127
 20
2.5607783769
 30
0.0
  0
VERTEX
  5
4B9
  8
0
  6
CONTINUOUS
 62
     7
 10
2.114649246
 20
2.5716800474
 30
0.0
  0
VERTEX
  5
4BA
  8
0
  6
CONTINUOUS
 62
     7
 10
2.175761835
 20
2.5806000625
 30
0.0
  0
VERTEX
  5
4BB
  8
0
  6
CONTINUOUS
 62
     7
 10
2.2376507176
 20
2.5875098488
 30
0.0
  0
VERTEX
  5
4BC
  8
0
  6
CONTINUOUS
 62
     7
 10
2.3001176451
 20
2.5923872722
 30
0.0
  0
VERTEX
  5
4BD
  8
0
  6
CONTINUOUS
 62
     7
 10
2.3629625172
 20
2.5952167087
 30
0.0
  0
VERTEX
  5
4BE
  8
0
  6
CONTINUOUS
 62
     7
 10
2.4259840226
 20
2.5959890948
 30
0.0
  0
VERTEX
  5
4BF
  8
0
  6
CONTINUOUS
 62
     7
 10
2.4889802846
 20
2.5947019564
 30
0.0
  0
VERTEX
  5
4C0
  8
0
  6
CONTINUOUS
 62
     7
 10
2.5517495071
 20
2.5913594166
 30
0.0
  0
VERTEX
  5
4C1
  8
0
  6
CONTINUOUS
 62
     7
 10
2.6140906214
 20
2.5859721824
 30
0.0
  0
VERTEX
  5
4C2
  8
0
  6
CONTINUOUS
 62
     7
 10
2.6758039301
 20
2.5785575109
 30
0.0
  0
VERTEX
  5
4C3
  8
0
  6
CONTINUOUS
 62
     7
 10
2.7366917469
 20
2.5691391535
 30
0.0
  0
VERTEX
  5
4C4
  8
0
  6
CONTINUOUS
 62
     7
 10
2.7965590297
 20
2.55774728
 30
0.0
  0
VERTEX
  5
4C5
  8
0
  6
CONTINUOUS
 62
     7
 10
2.8552140056
 20
2.544418382
 30
0.0
  0
VERTEX
  5
4C6
  8
0
  6
CONTINUOUS
 62
     7
 10
2.912468785
 20
2.529195156
 30
0.0
  0
VERTEX
  5
4C7
  8
0
  6
CONTINUOUS
 62
     7
 10
2.9681399636
 20
2.5121263666
 30
0.0
  0
VERTEX
  5
4C8
  8
0
  6
CONTINUOUS
 62
     7
 10
3.0220492098
 20
2.4932666902
 30
0.0
  0
VERTEX
  5
4C9
  8
0
  6
CONTINUOUS
 62
     7
 10
3.074023836
 20
2.4726765401
 30
0.0
  0
VERTEX
  5
4CA
  8
0
  6
CONTINUOUS
 62
     7
 10
3.1238973519
 20
2.4504218727
 30
0.0
  0
VERTEX
  5
4CB
  8
0
  6
CONTINUOUS
 62
     7
 10
3.1715099975
 20
2.4265739765
 30
0.0
  0
VERTEX
  5
4CC
  8
0
  6
CONTINUOUS
 62
     7
 10
3.2167092553
 20
2.4012092435
 30
0.0
  0
VERTEX
  5
4CD
  8
0
  6
CONTINUOUS
 62
     7
 10
3.2593503382
 20
2.3744089245
 30
0.0
  0
VERTEX
  5
4CE
  8
0
  6
CONTINUOUS
 62
     7
 10
3.2992966542
 20
2.346258869
 30
0.0
  0
VERTEX
  5
4CF
  8
0
  6
CONTINUOUS
 62
     7
 10
3.3364202431
 20
2.3168492502
 30
0.0
  0
VERTEX
  5
4D0
  8
0
  6
CONTINUOUS
 62
     7
 10
3.3706021868
 20
2.2862742759
 30
0.0
  0
VERTEX
  5
4D1
  8
0
  6
CONTINUOUS
 62
     7
 10
3.4017329903
 20
2.254631887
 30
0.0
  0
VERTEX
  5
4D2
  8
0
  6
CONTINUOUS
 62
     7
 10
3.4297129323
 20
2.2220234436
 30
0.0
  0
VERTEX
  5
4D3
  8
0
  6
CONTINUOUS
 62
     7
 10
3.4544523845
 20
2.1885534003
 30
0.0
  0
VERTEX
  5
4D4
  8
0
  6
CONTINUOUS
 62
     7
 10
3.475872099
 20
2.1543289719
 30
0.0
  0
VERTEX
  5
4D5
  8
0
  6
CONTINUOUS
 62
     7
 10
3.4924728875
 20
2.1225118768
 30
0.0
  0
SEQEND
  5
726
  8
0
  6
CONTINUOUS
 62
     7
  0
ARC
  5
179
  8
0
  6
CONTINUOUS
 62
     7
 10
1.9443171189
 20
1.8050656913
 30
0.0
 40
0.6794081013676335
 50
117.503610485
 51
151.9641728906
  0
POLYLINE
  5
17A
  8
0
  6
CONTINUOUS
 62
     7
 66
     1
 10
0.0
 20
0.0
 30
0.0
 70
   128
  0
VERTEX
  5
4D6
  8
0
  6
CONTINUOUS
 62
     7
 10
1.6305633955
 20
2.2182507991
 30
0.0
  0
VERTEX
  5
4D7
  8
0
  6
CONTINUOUS
 62
     7
 10
1.676379884
 20
2.2432437547
 30
0.0
  0
VERTEX
  5
4D8
  8
0
  6
CONTINUOUS
 62
     7
 10
1.7245723372
 20
2.2667003102
 30
0.0
  0
VERTEX
  5
4D9
  8
0
  6
CONTINUOUS
 62
     7
 10
1.77498638
 20
2.288545327
 30
0.0
  0
VERTEX
  5
4DA
  8
0
  6
CONTINUOUS
 62
     7
 10
1.8274605211
 20
2.308708829
 30
0.0
  0
VERTEX
  5
4DB
  8
0
  6
CONTINUOUS
 62
     7
 10
1.8818266699
 20
2.3271262265
 30
0.0
  0
VERTEX
  5
4DC
  8
0
  6
CONTINUOUS
 62
     7
 10
1.9379106753
 20
2.3437385229
 30
0.0
  0
VERTEX
  5
4DD
  8
0
  6
CONTINUOUS
 62
     7
 10
1.9955328833
 20
2.358492504
 30
0.0
  0
VERTEX
  5
4DE
  8
0
  6
CONTINUOUS
 62
     7
 10
2.0545087127
 20
2.3713409085
 30
0.0
  0
VERTEX
  5
4DF
  8
0
  6
CONTINUOUS
 62
     7
 10
2.114649246
 20
2.382242579
 30
0.0
  0
VERTEX
  5
4E0
  8
0
  6
CONTINUOUS
 62
     7
 10
2.175761835
 20
2.3911625942
 30
0.0
  0
VERTEX
  5
4E1
  8
0
  6
CONTINUOUS
 62
     7
 10
2.2376507176
 20
2.3980723805
 30
0.0
  0
VERTEX
  5
4E2
  8
0
  6
CONTINUOUS
 62
     7
 10
2.3001176451
 20
2.4029498038
 30
0.0
  0
VERTEX
  5
4E3
  8
0
  6
CONTINUOUS
 62
     7
 10
2.3629625172
 20
2.4057792403
 30
0.0
  0
VERTEX
  5
4E4
  8
0
  6
CONTINUOUS
 62
     7
 10
2.4259840226
 20
2.4065516265
 30
0.0
  0
VERTEX
  5
4E5
  8
0
  6
CONTINUOUS
 62
     7
 10
2.4889802846
 20
2.4052644881
 30
0.0
  0
VERTEX
  5
4E6
  8
0
  6
CONTINUOUS
 62
     7
 10
2.5517495071
 20
2.4019219482
 30
0.0
  0
VERTEX
  5
4E7
  8
0
  6
CONTINUOUS
 62
     7
 10
2.6140906214
 20
2.3965347141
 30
0.0
  0
VERTEX
  5
4E8
  8
0
  6
CONTINUOUS
 62
     7
 10
2.6758039301
 20
2.3891200426
 30
0.0
  0
VERTEX
  5
4E9
  8
0
  6
CONTINUOUS
 62
     7
 10
2.7366917469
 20
2.3797016852
 30
0.0
  0
VERTEX
  5
4EA
  8
0
  6
CONTINUOUS
 62
     7
 10
2.7965590297
 20
2.3683098116
 30
0.0
  0
VERTEX
  5
4EB
  8
0
  6
CONTINUOUS
 62
     7
 10
2.8552140056
 20
2.3549809136
 30
0.0
  0
VERTEX
  5
4EC
  8
0
  6
CONTINUOUS
 62
     7
 10
2.912468785
 20
2.3397576876
 30
0.0
  0
VERTEX
  5
4ED
  8
0
  6
CONTINUOUS
 62
     7
 10
2.9681399636
 20
2.3226888982
 30
0.0
  0
VERTEX
  5
4EE
  8
0
  6
CONTINUOUS
 62
     7
 10
3.0220492098
 20
2.3038292218
 30
0.0
  0
VERTEX
  5
4EF
  8
0
  6
CONTINUOUS
 62
     7
 10
3.074023836
 20
2.2832390717
 30
0.0
  0
VERTEX
  5
4F0
  8
0
  6
CONTINUOUS
 62
     7
 10
3.1238973519
 20
2.2609844044
 30
0.0
  0
VERTEX
  5
4F1
  8
0
  6
CONTINUOUS
 62
     7
 10
3.1715099975
 20
2.2371365082
 30
0.0
  0
VERTEX
  5
4F2
  8
0
  6
CONTINUOUS
 62
     7
 10
3.2167092553
 20
2.2117717751
 30
0.0
  0
VERTEX
  5
4F3
  8
0
  6
CONTINUOUS
 62
     7
 10
3.2593503382
 20
2.1849714561
 30
0.0
  0
VERTEX
  5
4F4
  8
0
  6
CONTINUOUS
 62
     7
 10
3.2992966542
 20
2.1568214006
 30
0.0
  0
VERTEX
  5
4F5
  8
0
  6
CONTINUOUS
 62
     7
 10
3.3364202431
 20
2.1274117818
 30
0.0
  0
VERTEX
  5
4F6
  8
0
  6
CONTINUOUS
 62
     7
 10
3.3706021868
 20
2.0968368075
 30
0.0
  0
VERTEX
  5
4F7
  8
0
  6
CONTINUOUS
 62
     7
 10
3.4017329903
 20
2.0651944186
 30
0.0
  0
VERTEX
  5
4F8
  8
0
  6
CONTINUOUS
 62
     7
 10
3.4297129323
 20
2.0325859752
 30
0.0
  0
VERTEX
  5
4F9
  8
0
  6
CONTINUOUS
 62
     7
 10
3.4544523845
 20
1.999115932
 30
0.0
  0
VERTEX
  5
4FA
  8
0
  6
CONTINUOUS
 62
     7
 10
3.4621866996
 20
1.9874415253
 30
0.0
  0
SEQEND
  5
727
  8
0
  6
CONTINUOUS
 62
     7
  0
ARC
  5
17B
  8
0
  6
CONTINUOUS
 62
     7
 10
1.9800462218
 20
1.5717829799
 30
0.0
 40
0.734886989386137
 50
118.3958151476
 51
145.5193413866
  0
ARC
  5
17C
  8
0
  6
CONTINUOUS
 62
     7
 10
2.418103573
 20
0.6588327492
 30
0.0
 40
1.746524050402628
 50
62.9347356636
 51
117.0652643364
  0
ARC
  5
17D
  8
0
  6
CONTINUOUS
 62
     7
 10
3.6095626991
 20
1.7146125011
 30
0.0
 40
0.6053714049770729
 50
347.507249462
 51
12.1322637323
  0
ARC
  5
17E
  8
0
  6
CONTINUOUS
 62
     7
 10
1.2261034891
 20
1.7146111606
 30
0.0
 40
0.6048394954848102
 50
168.1855820215
 51
192.2181935832
  0
ARC
  5
17F
  8
0
  6
CONTINUOUS
 62
     7
 10
3.6062578731
 20
1.5437073232
 30
0.0
 40
0.6087209573402459
 50
347.5223049335
 51
359.9473078968
  0
ARC
  5
180
  8
0
  6
CONTINUOUS
 62
     7
 10
1.2279795433
 20
1.5435062459
 30
0.0
 40
0.6067510763280335
 50
180.0338753519
 51
192.2147247991
  0
POLYLINE
  5
181
  8
0
  6
CONTINUOUS
 62
     8
 66
     1
 10
0.0
 20
0.0
 30
0.0
 70
   128
  0
VERTEX
  5
4FB
  8
0
  6
CONTINUOUS
 62
     8
 10
4.2006009582
 20
2.0425568655
 30
0.0
  0
VERTEX
  5
4FC
  8
0
  6
CONTINUOUS
 62
     8
 10
4.1902990483
 20
2.0021851037
 30
0.0
  0
VERTEX
  5
4FD
  8
0
  6
CONTINUOUS
 62
     8
 10
4.1754365554
 20
1.957099136
 30
0.0
  0
VERTEX
  5
4FE
  8
0
  6
CONTINUOUS
 62
     8
 10
4.1571340006
 20
1.9124368165
 30
0.0
  0
VERTEX
  5
4FF
  8
0
  6
CONTINUOUS
 62
     8
 10
4.135427212
 20
1.8682855738
 30
0.0
  0
VERTEX
  5
500
  8
0
  6
CONTINUOUS
 62
     8
 10
4.1103586818
 20
1.824731836
 30
0.0
  0
VERTEX
  5
501
  8
0
  6
CONTINUOUS
 62
     8
 10
4.0819774828
 20
1.7818608615
 30
0.0
  0
VERTEX
  5
502
  8
0
  6
CONTINUOUS
 62
     8
 10
4.0503391725
 20
1.7397565723
 30
0.0
  0
VERTEX
  5
503
  8
0
  6
CONTINUOUS
 62
     8
 10
4.0155056843
 20
1.6985013896
 30
0.0
  0
VERTEX
  5
504
  8
0
  6
CONTINUOUS
 62
     8
 10
3.9775452064
 20
1.6581760723
 30
0.0
  0
VERTEX
  5
505
  8
0
  6
CONTINUOUS
 62
     8
 10
3.9365320484
 20
1.6188595591
 30
0.0
  0
VERTEX
  5
506
  8
0
  6
CONTINUOUS
 62
     8
 10
3.8925464953
 20
1.580628814
 30
0.0
  0
VERTEX
  5
507
  8
0
  6
CONTINUOUS
 62
     8
 10
3.8456746509
 20
1.5435586753
 30
0.0
  0
VERTEX
  5
508
  8
0
  6
CONTINUOUS
 62
     8
 10
3.7960082691
 20
1.5077217097
 30
0.0
  0
VERTEX
  5
509
  8
0
  6
CONTINUOUS
 62
     8
 10
3.7436445742
 20
1.4731880696
 30
0.0
  0
VERTEX
  5
50A
  8
0
  6
CONTINUOUS
 62
     8
 10
3.6886860705
 20
1.4400253564
 30
0.0
  0
VERTEX
  5
50B
  8
0
  6
CONTINUOUS
 62
     8
 10
3.6312403418
 20
1.4082984875
 30
0.0
  0
VERTEX
  5
50C
  8
0
  6
CONTINUOUS
 62
     8
 10
3.571419841
 20
1.3780695699
 30
0.0
  0
VERTEX
  5
50D
  8
0
  6
CONTINUOUS
 62
     8
 10
3.5093416695
 20
1.349397778
 30
0.0
  0
VERTEX
  5
50E
  8
0
  6
CONTINUOUS
 62
     8
 10
3.4451273481
 20
1.3223392382
 30
0.0
  0
VERTEX
  5
50F
  8
0
  6
CONTINUOUS
 62
     8
 10
3.3789025795
 20
1.2969469189
 30
0.0
  0
VERTEX
  5
510
  8
0
  6
CONTINUOUS
 62
     8
 10
3.3107970017
 20
1.2732705267
 30
0.0
  0
VERTEX
  5
511
  8
0
  6
CONTINUOUS
 62
     8
 10
3.2409439345
 20
1.2513564093
 30
0.0
  0
VERTEX
  5
512
  8
0
  6
CONTINUOUS
 62
     8
 10
3.1694801188
 20
1.2312474646
 30
0.0
  0
VERTEX
  5
513
  8
0
  6
CONTINUOUS
 62
     8
 10
3.0965454481
 20
1.2129830568
 30
0.0
  0
VERTEX
  5
514
  8
0
  6
CONTINUOUS
 62
     8
 10
3.0222826957
 20
1.1965989393
 30
0.0
  0
VERTEX
  5
515
  8
0
  6
CONTINUOUS
 62
     8
 10
2.9468372342
 20
1.1821271849
 30
0.0
  0
VERTEX
  5
516
  8
0
  6
CONTINUOUS
 62
     8
 10
2.8703567517
 20
1.1695961226
 30
0.0
  0
VERTEX
  5
517
  8
0
  6
CONTINUOUS
 62
     8
 10
2.7929909624
 20
1.1590302826
 30
0.0
  0
VERTEX
  5
518
  8
0
  6
CONTINUOUS
 62
     8
 10
2.7148913135
 20
1.1504503481
 30
0.0
  0
VERTEX
  5
519
  8
0
  6
CONTINUOUS
 62
     8
 10
2.6362106886
 20
1.1438731145
 30
0.0
  0
VERTEX
  5
51A
  8
0
  6
CONTINUOUS
 62
     8
 10
2.5571031088
 20
1.1393114573
 30
0.0
  0
VERTEX
  5
51B
  8
0
  6
CONTINUOUS
 62
     8
 10
2.4777234308
 20
1.1367743061
 30
0.0
  0
VERTEX
  5
51C
  8
0
  6
CONTINUOUS
 62
     8
 10
2.3982270442
 20
1.1362666274
 30
0.0
  0
VERTEX
  5
51D
  8
0
  6
CONTINUOUS
 62
     8
 10
2.3187695669
 20
1.137789415
 30
0.0
  0
VERTEX
  5
51E
  8
0
  6
CONTINUOUS
 62
     8
 10
2.2395065405
 20
1.1413396881
 30
0.0
  0
VERTEX
  5
51F
  8
0
  6
CONTINUOUS
 62
     8
 10
2.1605931262
 20
1.1469104967
 30
0.0
  0
VERTEX
  5
520
  8
0
  6
CONTINUOUS
 62
     8
 10
2.0821838007
 20
1.1544909359
 30
0.0
  0
VERTEX
  5
521
  8
0
  6
CONTINUOUS
 62
     8
 10
2.0044320539
 20
1.1640661664
 30
0.0
  0
VERTEX
  5
522
  8
0
  6
CONTINUOUS
 62
     8
 10
1.9274900885
 20
1.1756174444
 30
0.0
  0
VERTEX
  5
523
  8
0
  6
CONTINUOUS
 62
     8
 10
1.8515085221
 20
1.1891221577
 30
0.0
  0
VERTEX
  5
524
  8
0
  6
CONTINUOUS
 62
     8
 10
1.7766360921
 20
1.2045538702
 30
0.0
  0
VERTEX
  5
525
  8
0
  6
CONTINUOUS
 62
     8
 10
1.7030193648
 20
1.2218823735
 30
0.0
  0
VERTEX
  5
526
  8
0
  6
CONTINUOUS
 62
     8
 10
1.6308024484
 20
1.2410737463
 30
0.0
  0
VERTEX
  5
527
  8
0
  6
CONTINUOUS
 62
     8
 10
1.560126711
 20
1.2620904206
 30
0.0
  0
VERTEX
  5
528
  8
0
  6
CONTINUOUS
 62
     8
 10
1.4911305035
 20
1.2848912553
 30
0.0
  0
VERTEX
  5
529
  8
0
  6
CONTINUOUS
 62
     8
 10
1.4239488894
 20
1.3094316167
 30
0.0
  0
VERTEX
  5
52A
  8
0
  6
CONTINUOUS
 62
     8
 10
1.3587133797
 20
1.3356634658
 30
0.0
  0
VERTEX
  5
52B
  8
0
  6
CONTINUOUS
 62
     8
 10
1.2955516761
 20
1.3635354526
 30
0.0
  0
VERTEX
  5
52C
  8
0
  6
CONTINUOUS
 62
     8
 10
1.2345874206
 20
1.3929930163
 30
0.0
  0
VERTEX
  5
52D
  8
0
  6
CONTINUOUS
 62
     8
 10
1.1759399535
 20
1.4239784924
 30
0.0
  0
VERTEX
  5
52E
  8
0
  6
CONTINUOUS
 62
     8
 10
1.11972408
 20
1.4564312254
 30
0.0
  0
VERTEX
  5
52F
  8
0
  6
CONTINUOUS
 62
     8
 10
1.0660498453
 20
1.4902876875
 30
0.0
  0
VERTEX
  5
530
  8
0
  6
CONTINUOUS
 62
     8
 10
1.0150223193
 20
1.5254816031
 30
0.0
  0
VERTEX
  5
531
  8
0
  6
CONTINUOUS
 62
     8
 10
0.9667413908
 20
1.5619440785
 30
0.0
  0
VERTEX
  5
532
  8
0
  6
CONTINUOUS
 62
     8
 10
0.9213015719
 20
1.5996037366
 30
0.0
  0
VERTEX
  5
533
  8
0
  6
CONTINUOUS
 62
     8
 10
0.8787918131
 20
1.6383868569
 30
0.0
  0
VERTEX
  5
534
  8
0
  6
CONTINUOUS
 62
     8
 10
0.8392953295
 20
1.6782175197
 30
0.0
  0
VERTEX
  5
535
  8
0
  6
CONTINUOUS
 62
     8
 10
0.8028894371
 20
1.7190177544
 30
0.0
  0
VERTEX
  5
536
  8
0
  6
CONTINUOUS
 62
     8
 10
0.7696454022
 20
1.7607076929
 30
0.0
  0
VERTEX
  5
537
  8
0
  6
CONTINUOUS
 62
     8
 10
0.7396283017
 20
1.8032057249
 30
0.0
  0
VERTEX
  5
538
  8
0
  6
CONTINUOUS
 62
     8
 10
0.7128968952
 20
1.8464286587
 30
0.0
  0
VERTEX
  5
539
  8
0
  6
CONTINUOUS
 62
     8
 10
0.689503511
 20
1.8902918834
 30
0.0
  0
VERTEX
  5
53A
  8
0
  6
CONTINUOUS
 62
     8
 10
0.6694939425
 20
1.9347095345
 30
0.0
  0
VERTEX
  5
53B
  8
0
  6
CONTINUOUS
 62
     8
 10
0.6529073595
 20
1.9795946625
 30
0.0
  0
VERTEX
  5
53C
  8
0
  6
CONTINUOUS
 62
     8
 10
0.639776231
 20
2.0248594027
 30
0.0
  0
VERTEX
  5
53D
  8
0
  6
CONTINUOUS
 62
     8
 10
0.6349643694
 20
2.0455017981
 30
0.0
  0
SEQEND
  5
728
  8
0
  6
CONTINUOUS
 62
     8
  0
POLYLINE
  5
182
  8
0
  6
CONTINUOUS
 62
     8
 66
     1
 10
0.0
 20
0.0
 30
0.0
 70
   128
  0
VERTEX
  5
53E
  8
0
  6
CONTINUOUS
 62
     8
 10
4.2006009582
 20
1.871083295
 30
0.0
  0
VERTEX
  5
53F
  8
0
  6
CONTINUOUS
 62
     8
 10
4.1902990483
 20
1.8307115332
 30
0.0
  0
VERTEX
  5
540
  8
0
  6
CONTINUOUS
 62
     8
 10
4.1754365554
 20
1.7856255655
 30
0.0
  0
VERTEX
  5
541
  8
0
  6
CONTINUOUS
 62
     8
 10
4.1571340006
 20
1.740963246
 30
0.0
  0
VERTEX
  5
542
  8
0
  6
CONTINUOUS
 62
     8
 10
4.135427212
 20
1.6968120033
 30
0.0
  0
VERTEX
  5
543
  8
0
  6
CONTINUOUS
 62
     8
 10
4.1103586818
 20
1.6532582655
 30
0.0
  0
VERTEX
  5
544
  8
0
  6
CONTINUOUS
 62
     8
 10
4.0819774828
 20
1.610387291
 30
0.0
  0
VERTEX
  5
545
  8
0
  6
CONTINUOUS
 62
     8
 10
4.0503391725
 20
1.5682830019
 30
0.0
  0
VERTEX
  5
546
  8
0
  6
CONTINUOUS
 62
     8
 10
4.0155056843
 20
1.5270278191
 30
0.0
  0
VERTEX
  5
547
  8
0
  6
CONTINUOUS
 62
     8
 10
3.9775452064
 20
1.4867025018
 30
0.0
  0
VERTEX
  5
548
  8
0
  6
CONTINUOUS
 62
     8
 10
3.9365320484
 20
1.4473859886
 30
0.0
  0
VERTEX
  5
549
  8
0
  6
CONTINUOUS
 62
     8
 10
3.8925464953
 20
1.4091552435
 30
0.0
  0
VERTEX
  5
54A
  8
0
  6
CONTINUOUS
 62
     8
 10
3.8456746509
 20
1.3720851048
 30
0.0
  0
VERTEX
  5
54B
  8
0
  6
CONTINUOUS
 62
     8
 10
3.7960082691
 20
1.3362481392
 30
0.0
  0
VERTEX
  5
54C
  8
0
  6
CONTINUOUS
 62
     8
 10
3.7436445742
 20
1.3017144991
 30
0.0
  0
VERTEX
  5
54D
  8
0
  6
CONTINUOUS
 62
     8
 10
3.6886860705
 20
1.2685517859
 30
0.0
  0
VERTEX
  5
54E
  8
0
  6
CONTINUOUS
 62
     8
 10
3.6312403418
 20
1.236824917
 30
0.0
  0
VERTEX
  5
54F
  8
0
  6
CONTINUOUS
 62
     8
 10
3.571419841
 20
1.2065959994
 30
0.0
  0
VERTEX
  5
550
  8
0
  6
CONTINUOUS
 62
     8
 10
3.5093416695
 20
1.1779242075
 30
0.0
  0
VERTEX
  5
551
  8
0
  6
CONTINUOUS
 62
     8
 10
3.4451273481
 20
1.1508656677
 30
0.0
  0
VERTEX
  5
552
  8
0
  6
CONTINUOUS
 62
     8
 10
3.3789025795
 20
1.1254733484
 30
0.0
  0
VERTEX
  5
553
  8
0
  6
CONTINUOUS
 62
     8
 10
3.3107970017
 20
1.1017969562
 30
0.0
  0
VERTEX
  5
554
  8
0
  6
CONTINUOUS
 62
     8
 10
3.2409439345
 20
1.0798828388
 30
0.0
  0
VERTEX
  5
555
  8
0
  6
CONTINUOUS
 62
     8
 10
3.1694801188
 20
1.0597738941
 30
0.0
  0
VERTEX
  5
556
  8
0
  6
CONTINUOUS
 62
     8
 10
3.0965454481
 20
1.0415094863
 30
0.0
  0
VERTEX
  5
557
  8
0
  6
CONTINUOUS
 62
     8
 10
3.0222826957
 20
1.0251253688
 30
0.0
  0
VERTEX
  5
558
  8
0
  6
CONTINUOUS
 62
     8
 10
2.9468372342
 20
1.0106536144
 30
0.0
  0
VERTEX
  5
559
  8
0
  6
CONTINUOUS
 62
     8
 10
2.8703567517
 20
0.9981225521
 30
0.0
  0
VERTEX
  5
55A
  8
0
  6
CONTINUOUS
 62
     8
 10
2.7929909624
 20
0.9875567121
 30
0.0
  0
VERTEX
  5
55B
  8
0
  6
CONTINUOUS
 62
     8
 10
2.7148913135
 20
0.9789767776
 30
0.0
  0
VERTEX
  5
55C
  8
0
  6
CONTINUOUS
 62
     8
 10
2.6362106886
 20
0.9723995441
 30
0.0
  0
VERTEX
  5
55D
  8
0
  6
CONTINUOUS
 62
     8
 10
2.5571031088
 20
0.9678378868
 30
0.0
  0
VERTEX
  5
55E
  8
0
  6
CONTINUOUS
 62
     8
 10
2.4777234308
 20
0.9653007356
 30
0.0
  0
VERTEX
  5
55F
  8
0
  6
CONTINUOUS
 62
     8
 10
2.3982270442
 20
0.9647930569
 30
0.0
  0
VERTEX
  5
560
  8
0
  6
CONTINUOUS
 62
     8
 10
2.3187695669
 20
0.9663158445
 30
0.0
  0
VERTEX
  5
561
  8
0
  6
CONTINUOUS
 62
     8
 10
2.2395065405
 20
0.9698661176
 30
0.0
  0
VERTEX
  5
562
  8
0
  6
CONTINUOUS
 62
     8
 10
2.1605931262
 20
0.9754369263
 30
0.0
  0
VERTEX
  5
563
  8
0
  6
CONTINUOUS
 62
     8
 10
2.0821838007
 20
0.9830173654
 30
0.0
  0
VERTEX
  5
564
  8
0
  6
CONTINUOUS
 62
     8
 10
2.0044320539
 20
0.9925925959
 30
0.0
  0
VERTEX
  5
565
  8
0
  6
CONTINUOUS
 62
     8
 10
1.9274900885
 20
1.0041438739
 30
0.0
  0
VERTEX
  5
566
  8
0
  6
CONTINUOUS
 62
     8
 10
1.8515085221
 20
1.0176485872
 30
0.0
  0
VERTEX
  5
567
  8
0
  6
CONTINUOUS
 62
     8
 10
1.7766360921
 20
1.0330802997
 30
0.0
  0
VERTEX
  5
568
  8
0
  6
CONTINUOUS
 62
     8
 10
1.7030193648
 20
1.050408803
 30
0.0
  0
VERTEX
  5
569
  8
0
  6
CONTINUOUS
 62
     8
 10
1.6308024484
 20
1.0696001758
 30
0.0
  0
VERTEX
  5
56A
  8
0
  6
CONTINUOUS
 62
     8
 10
1.560126711
 20
1.0906168501
 30
0.0
  0
VERTEX
  5
56B
  8
0
  6
CONTINUOUS
 62
     8
 10
1.4911305035
 20
1.1134176848
 30
0.0
  0
VERTEX
  5
56C
  8
0
  6
CONTINUOUS
 62
     8
 10
1.4239488894
 20
1.1379580462
 30
0.0
  0
VERTEX
  5
56D
  8
0
  6
CONTINUOUS
 62
     8
 10
1.3587133797
 20
1.1641898953
 30
0.0
  0
VERTEX
  5
56E
  8
0
  6
CONTINUOUS
 62
     8
 10
1.2955516761
 20
1.1920618821
 30
0.0
  0
VERTEX
  5
56F
  8
0
  6
CONTINUOUS
 62
     8
 10
1.2345874206
 20
1.2215194458
 30
0.0
  0
VERTEX
  5
570
  8
0
  6
CONTINUOUS
 62
     8
 10
1.1759399535
 20
1.2525049219
 30
0.0
  0
VERTEX
  5
571
  8
0
  6
CONTINUOUS
 62
     8
 10
1.11972408
 20
1.2849576549
 30
0.0
  0
VERTEX
  5
572
  8
0
  6
CONTINUOUS
 62
     8
 10
1.0660498453
 20
1.318814117
 30
0.0
  0
VERTEX
  5
573
  8
0
  6
CONTINUOUS
 62
     8
 10
1.0150223193
 20
1.3540080326
 30
0.0
  0
VERTEX
  5
574
  8
0
  6
CONTINUOUS
 62
     8
 10
0.9667413908
 20
1.390470508
 30
0.0
  0
VERTEX
  5
575
  8
0
  6
CONTINUOUS
 62
     8
 10
0.9213015719
 20
1.4281301661
 30
0.0
  0
VERTEX
  5
576
  8
0
  6
CONTINUOUS
 62
     8
 10
0.8787918131
 20
1.4669132864
 30
0.0
  0
VERTEX
  5
577
  8
0
  6
CONTINUOUS
 62
     8
 10
0.8392953295
 20
1.5067439492
 30
0.0
  0
VERTEX
  5
578
  8
0
  6
CONTINUOUS
 62
     8
 10
0.8028894371
 20
1.5475441839
 30
0.0
  0
VERTEX
  5
579
  8
0
  6
CONTINUOUS
 62
     8
 10
0.7696454022
 20
1.5892341224
 30
0.0
  0
VERTEX
  5
57A
  8
0
  6
CONTINUOUS
 62
     8
 10
0.7396283017
 20
1.6317321544
 30
0.0
  0
VERTEX
  5
57B
  8
0
  6
CONTINUOUS
 62
     8
 10
0.7128968952
 20
1.6749550882
 30
0.0
  0
VERTEX
  5
57C
  8
0
  6
CONTINUOUS
 62
     8
 10
0.689503511
 20
1.7188183129
 30
0.0
  0
VERTEX
  5
57D
  8
0
  6
CONTINUOUS
 62
     8
 10
0.6694939425
 20
1.763235964
 30
0.0
  0
VERTEX
  5
57E
  8
0
  6
CONTINUOUS
 62
     8
 10
0.6529073595
 20
1.808121092
 30
0.0
  0
VERTEX
  5
57F
  8
0
  6
CONTINUOUS
 62
     8
 10
0.639776231
 20
1.8533858322
 30
0.0
  0
VERTEX
  5
580
  8
0
  6
CONTINUOUS
 62
     8
 10
0.6349643694
 20
1.8740282276
 30
0.0
  0
SEQEND
  5
729
  8
0
  6
CONTINUOUS
 62
     8
  0
POLYLINE
  5
183
  8
0
  6
CONTINUOUS
 62
     8
 66
     1
 10
0.0
 20
0.0
 30
0.0
 70
   128
  0
VERTEX
  5
581
  8
0
  6
CONTINUOUS
 62
     8
 10
1.6447055311
 20
2.6199902055
 30
0.0
  0
VERTEX
  5
582
  8
0
  6
CONTINUOUS
 62
     8
 10
1.6901192375
 20
2.6447506774
 30
0.0
  0
VERTEX
  5
583
  8
0
  6
CONTINUOUS
 62
     8
 10
1.7379074774
 20
2.6679740831
 30
0.0
  0
VERTEX
  5
584
  8
0
  6
CONTINUOUS
 62
     8
 10
1.7879143756
 20
2.6895846726
 30
0.0
  0
VERTEX
  5
585
  8
0
  6
CONTINUOUS
 62
     8
 10
1.8399768201
 20
2.7095119567
 30
0.0
  0
VERTEX
  5
586
  8
0
  6
CONTINUOUS
 62
     8
 10
1.8939249938
 20
2.7276909367
 30
0.0
  0
VERTEX
  5
587
  8
0
  6
CONTINUOUS
 62
     8
 10
1.9495829291
 20
2.7440623166
 30
0.0
  0
VERTEX
  5
588
  8
0
  6
CONTINUOUS
 62
     8
 10
2.0067690813
 20
2.7585726963
 30
0.0
  0
VERTEX
  5
589
  8
0
  6
CONTINUOUS
 62
     8
 10
2.0652969212
 20
2.7711747459
 30
0.0
  0
VERTEX
  5
58A
  8
0
  6
CONTINUOUS
 62
     8
 10
2.124975543
 20
2.7818273604
 30
0.0
  0
VERTEX
  5
58B
  8
0
  6
CONTINUOUS
 62
     8
 10
2.1856102876
 20
2.7904957929
 30
0.0
  0
VERTEX
  5
58C
  8
0
  6
CONTINUOUS
 62
     8
 10
2.2470033769
 20
2.7971517689
 30
0.0
  0
VERTEX
  5
58D
  8
0
  6
CONTINUOUS
 62
     8
 10
2.3089545595
 20
2.8017735779
 30
0.0
  0
VERTEX
  5
58E
  8
0
  6
CONTINUOUS
 62
     8
 10
2.3712617634
 20
2.8043461447
 30
0.0
  0
VERTEX
  5
58F
  8
0
  6
CONTINUOUS
 62
     8
 10
2.4337217557
 20
2.804861078
 30
0.0
  0
VERTEX
  5
590
  8
0
  6
CONTINUOUS
 62
     8
 10
2.4961308046
 20
2.8033166981
 30
0.0
  0
VERTEX
  5
591
  8
0
  6
CONTINUOUS
 62
     8
 10
2.558285345
 20
2.7997180427
 30
0.0
  0
VERTEX
  5
592
  8
0
  6
CONTINUOUS
 62
     8
 10
2.6199826415
 20
2.7940768496
 30
0.0
  0
VERTEX
  5
593
  8
0
  6
CONTINUOUS
 62
     8
 10
2.6810214505
 20
2.7864115194
 30
0.0
  0
VERTEX
  5
594
  8
0
  6
CONTINUOUS
 62
     8
 10
2.741202676
 20
2.7767470547
 30
0.0
  0
VERTEX
  5
595
  8
0
  6
CONTINUOUS
 62
     8
 10
2.8003300194
 20
2.765114979
 30
0.0
  0
VERTEX
  5
596
  8
0
  6
CONTINUOUS
 62
     8
 10
2.8582106196
 20
2.7515532337
 30
0.0
  0
VERTEX
  5
597
  8
0
  6
CONTINUOUS
 62
     8
 10
2.9146556821
 20
2.7361060545
 30
0.0
  0
VERTEX
  5
598
  8
0
  6
CONTINUOUS
 62
     8
 10
2.9694810948
 20
2.7188238267
 30
0.0
  0
VERTEX
  5
599
  8
0
  6
CONTINUOUS
 62
     8
 10
3.0225080286
 20
2.6997629215
 30
0.0
  0
VERTEX
  5
59A
  8
0
  6
CONTINUOUS
 62
     8
 10
3.0735635208
 20
2.6789855115
 30
0.0
  0
VERTEX
  5
59B
  8
0
  6
CONTINUOUS
 62
     8
 10
3.1224810388
 20
2.6565593684
 30
0.0
  0
VERTEX
  5
59C
  8
0
  6
CONTINUOUS
 62
     8
 10
3.1691010239
 20
2.6325576415
 30
0.0
  0
VERTEX
  5
59D
  8
0
  6
CONTINUOUS
 62
     8
 10
3.2132714114
 20
2.6070586196
 30
0.0
  0
VERTEX
  5
59E
  8
0
  6
CONTINUOUS
 62
     8
 10
3.2548481268
 20
2.580145475
 30
0.0
  0
VERTEX
  5
59F
  8
0
  6
CONTINUOUS
 62
     8
 10
3.2936955553
 20
2.551905993
 30
0.0
  0
VERTEX
  5
5A0
  8
0
  6
CONTINUOUS
 62
     8
 10
3.3296869847
 20
2.5224322847
 30
0.0
  0
VERTEX
  5
5A1
  8
0
  6
CONTINUOUS
 62
     8
 10
3.3627050186
 20
2.4918204874
 30
0.0
  0
VERTEX
  5
5A2
  8
0
  6
CONTINUOUS
 62
     8
 10
3.3926419588
 20
2.4601704504
 30
0.0
  0
VERTEX
  5
5A3
  8
0
  6
CONTINUOUS
 62
     8
 10
3.4194001575
 20
2.4275854094
 30
0.0
  0
VERTEX
  5
5A4
  8
0
  6
CONTINUOUS
 62
     8
 10
3.4428923347
 20
2.3941716501
 30
0.0
  0
VERTEX
  5
5A5
  8
0
  6
CONTINUOUS
 62
     8
 10
3.4630418641
 20
2.3600381613
 30
0.0
  0
VERTEX
  5
5A6
  8
0
  6
CONTINUOUS
 62
     8
 10
3.4797830219
 20
2.3252962793
 30
0.0
  0
VERTEX
  5
5A7
  8
0
  6
CONTINUOUS
 62
     8
 10
3.493061202
 20
2.290059325
 30
0.0
  0
VERTEX
  5
5A8
  8
0
  6
CONTINUOUS
 62
     8
 10
3.5028330938
 20
2.2544422338
 30
0.0
  0
VERTEX
  5
5A9
  8
0
  6
CONTINUOUS
 62
     8
 10
3.5042745604
 20
2.2477195992
 30
0.0
  0
SEQEND
  5
72A
  8
0
  6
CONTINUOUS
 62
     8
  0
POLYLINE
  5
184
  8
0
  6
CONTINUOUS
 62
     8
 66
     1
 10
0.0
 20
0.0
 30
0.0
 70
   128
  0
VERTEX
  5
5AA
  8
0
  6
CONTINUOUS
 62
     8
 10
1.3306799865
 20
2.2413305281
 30
0.0
  0
VERTEX
  5
5AB
  8
0
  6
CONTINUOUS
 62
     8
 10
1.3378194505
 20
2.2722910601
 30
0.0
  0
VERTEX
  5
5AC
  8
0
  6
CONTINUOUS
 62
     8
 10
1.3493491884
 20
2.3077325362
 30
0.0
  0
VERTEX
  5
5AD
  8
0
  6
CONTINUOUS
 62
     8
 10
1.3643649809
 20
2.3427362291
 30
0.0
  0
VERTEX
  5
5AE
  8
0
  6
CONTINUOUS
 62
     8
 10
1.3828178497
 20
2.3771879642
 30
0.0
  0
VERTEX
  5
5AF
  8
0
  6
CONTINUOUS
 62
     8
 10
1.4046476053
 20
2.410975367
 30
0.0
  0
VERTEX
  5
5B0
  8
0
  6
CONTINUOUS
 62
     8
 10
1.4297830437
 20
2.44398823
 30
0.0
  0
VERTEX
  5
5B1
  8
0
  6
CONTINUOUS
 62
     8
 10
1.4581421782
 20
2.4761188721
 30
0.0
  0
VERTEX
  5
5B2
  8
0
  6
CONTINUOUS
 62
     8
 10
1.4896325072
 20
2.5072624899
 30
0.0
  0
VERTEX
  5
5B3
  8
0
  6
CONTINUOUS
 62
     8
 10
1.5241513159
 20
2.5373174993
 30
0.0
  0
VERTEX
  5
5B4
  8
0
  6
CONTINUOUS
 62
     8
 10
1.561586011
 20
2.5661858672
 30
0.0
  0
VERTEX
  5
5B5
  8
0
  6
CONTINUOUS
 62
     8
 10
1.6018144884
 20
2.5937734309
 30
0.0
  0
VERTEX
  5
5B6
  8
0
  6
CONTINUOUS
 62
     8
 10
1.6447055311
 20
2.6199902055
 30
0.0
  0
SEQEND
  5
72B
  8
0
  6
CONTINUOUS
 62
     8
  0
POLYLINE
  5
185
  8
0
  6
CONTINUOUS
 62
     8
 66
     1
 10
0.0
 20
0.0
 30
0.0
 70
   128
  0
VERTEX
  5
5B7
  8
0
  6
CONTINUOUS
 62
     8
 10
1.6447055311
 20
2.448516635
 30
0.0
  0
VERTEX
  5
5B8
  8
0
  6
CONTINUOUS
 62
     8
 10
1.6901192375
 20
2.4732771069
 30
0.0
  0
VERTEX
  5
5B9
  8
0
  6
CONTINUOUS
 62
     8
 10
1.7379074774
 20
2.4965005126
 30
0.0
  0
VERTEX
  5
5BA
  8
0
  6
CONTINUOUS
 62
     8
 10
1.7879143756
 20
2.5181111021
 30
0.0
  0
VERTEX
  5
5BB
  8
0
  6
CONTINUOUS
 62
     8
 10
1.8399768201
 20
2.5380383862
 30
0.0
  0
VERTEX
  5
5BC
  8
0
  6
CONTINUOUS
 62
     8
 10
1.8939249938
 20
2.5562173662
 30
0.0
  0
VERTEX
  5
5BD
  8
0
  6
CONTINUOUS
 62
     8
 10
1.9495829291
 20
2.5725887461
 30
0.0
  0
VERTEX
  5
5BE
  8
0
  6
CONTINUOUS
 62
     8
 10
2.0067690813
 20
2.5870991258
 30
0.0
  0
VERTEX
  5
5BF
  8
0
  6
CONTINUOUS
 62
     8
 10
2.0652969212
 20
2.5997011754
 30
0.0
  0
VERTEX
  5
5C0
  8
0
  6
CONTINUOUS
 62
     8
 10
2.124975543
 20
2.6103537899
 30
0.0
  0
VERTEX
  5
5C1
  8
0
  6
CONTINUOUS
 62
     8
 10
2.1856102876
 20
2.6190222224
 30
0.0
  0
VERTEX
  5
5C2
  8
0
  6
CONTINUOUS
 62
     8
 10
2.2470033769
 20
2.6256781984
 30
0.0
  0
VERTEX
  5
5C3
  8
0
  6
CONTINUOUS
 62
     8
 10
2.3089545595
 20
2.6303000074
 30
0.0
  0
VERTEX
  5
5C4
  8
0
  6
CONTINUOUS
 62
     8
 10
2.3712617634
 20
2.6328725742
 30
0.0
  0
VERTEX
  5
5C5
  8
0
  6
CONTINUOUS
 62
     8
 10
2.4337217557
 20
2.6333875075
 30
0.0
  0
VERTEX
  5
5C6
  8
0
  6
CONTINUOUS
 62
     8
 10
2.4961308046
 20
2.6318431276
 30
0.0
  0
VERTEX
  5
5C7
  8
0
  6
CONTINUOUS
 62
     8
 10
2.558285345
 20
2.6282444722
 30
0.0
  0
VERTEX
  5
5C8
  8
0
  6
CONTINUOUS
 62
     8
 10
2.6199826415
 20
2.6226032791
 30
0.0
  0
VERTEX
  5
5C9
  8
0
  6
CONTINUOUS
 62
     8
 10
2.6810214505
 20
2.6149379489
 30
0.0
  0
VERTEX
  5
5CA
  8
0
  6
CONTINUOUS
 62
     8
 10
2.741202676
 20
2.6052734842
 30
0.0
  0
VERTEX
  5
5CB
  8
0
  6
CONTINUOUS
 62
     8
 10
2.8003300194
 20
2.5936414085
 30
0.0
  0
VERTEX
  5
5CC
  8
0
  6
CONTINUOUS
 62
     8
 10
2.8582106196
 20
2.5800796632
 30
0.0
  0
VERTEX
  5
5CD
  8
0
  6
CONTINUOUS
 62
     8
 10
2.9146556821
 20
2.564632484
 30
0.0
  0
VERTEX
  5
5CE
  8
0
  6
CONTINUOUS
 62
     8
 10
2.9694810948
 20
2.5473502562
 30
0.0
  0
VERTEX
  5
5CF
  8
0
  6
CONTINUOUS
 62
     8
 10
3.0225080286
 20
2.528289351
 30
0.0
  0
VERTEX
  5
5D0
  8
0
  6
CONTINUOUS
 62
     8
 10
3.0735635208
 20
2.507511941
 30
0.0
  0
VERTEX
  5
5D1
  8
0
  6
CONTINUOUS
 62
     8
 10
3.1224810388
 20
2.4850857979
 30
0.0
  0
VERTEX
  5
5D2
  8
0
  6
CONTINUOUS
 62
     8
 10
3.1691010239
 20
2.461084071
 30
0.0
  0
VERTEX
  5
5D3
  8
0
  6
CONTINUOUS
 62
     8
 10
3.2132714114
 20
2.4355850491
 30
0.0
  0
VERTEX
  5
5D4
  8
0
  6
CONTINUOUS
 62
     8
 10
3.2548481268
 20
2.4086719045
 30
0.0
  0
VERTEX
  5
5D5
  8
0
  6
CONTINUOUS
 62
     8
 10
3.2936955553
 20
2.3804324225
 30
0.0
  0
VERTEX
  5
5D6
  8
0
  6
CONTINUOUS
 62
     8
 10
3.3296869847
 20
2.3509587142
 30
0.0
  0
VERTEX
  5
5D7
  8
0
  6
CONTINUOUS
 62
     8
 10
3.3627050186
 20
2.3203469169
 30
0.0
  0
VERTEX
  5
5D8
  8
0
  6
CONTINUOUS
 62
     8
 10
3.3926419588
 20
2.2886968799
 30
0.0
  0
VERTEX
  5
5D9
  8
0
  6
CONTINUOUS
 62
     8
 10
3.4194001575
 20
2.2561118389
 30
0.0
  0
VERTEX
  5
5DA
  8
0
  6
CONTINUOUS
 62
     8
 10
3.4428923347
 20
2.2226980796
 30
0.0
  0
VERTEX
  5
5DB
  8
0
  6
CONTINUOUS
 62
     8
 10
3.4630418641
 20
2.1885645908
 30
0.0
  0
VERTEX
  5
5DC
  8
0
  6
CONTINUOUS
 62
     8
 10
3.4797830219
 20
2.1538227088
 30
0.0
  0
VERTEX
  5
5DD
  8
0
  6
CONTINUOUS
 62
     8
 10
3.493061202
 20
2.1185857545
 30
0.0
  0
VERTEX
  5
5DE
  8
0
  6
CONTINUOUS
 62
     8
 10
3.5022502627
 20
2.0855309443
 30
0.0
  0
SEQEND
  5
72C
  8
0
  6
CONTINUOUS
 62
     8
  0
ARC
  5
186
  8
0
  6
CONTINUOUS
 62
     8
 10
1.9079036361
 20
1.9086097513
 30
0.0
 40
0.6006435594870273
 50
115.9886761737
 51
162.8051231946
  0
POLYLINE
  5
187
  8
0
  6
CONTINUOUS
 62
     8
 66
     1
 10
0.0
 20
0.0
 30
0.0
 70
   128
  0
VERTEX
  5
5DF
  8
0
  6
CONTINUOUS
 62
     8
 10
4.1947533712
 20
1.7472827156
 30
0.0
  0
VERTEX
  5
5E0
  8
0
  6
CONTINUOUS
 62
     8
 10
4.1949510074
 20
1.7252381956
 30
0.0
  0
VERTEX
  5
5E1
  8
0
  6
CONTINUOUS
 62
     8
 10
4.192746222
 20
1.6795498372
 30
0.0
  0
VERTEX
  5
5E2
  8
0
  6
CONTINUOUS
 62
     8
 10
4.1870180479
 20
1.6339635328
 30
0.0
  0
VERTEX
  5
5E3
  8
0
  6
CONTINUOUS
 62
     8
 10
4.1777778578
 20
1.5885697898
 30
0.0
  0
VERTEX
  5
5E4
  8
0
  6
CONTINUOUS
 62
     8
 10
4.1650439974
 20
1.5434587334
 30
0.0
  0
VERTEX
  5
5E5
  8
0
  6
CONTINUOUS
 62
     8
 10
4.1488417484
 20
1.4987199272
 30
0.0
  0
VERTEX
  5
5E6
  8
0
  6
CONTINUOUS
 62
     8
 10
4.1292032789
 20
1.4544421962
 30
0.0
  0
VERTEX
  5
5E7
  8
0
  6
CONTINUOUS
 62
     8
 10
4.1061675794
 20
1.4107134495
 30
0.0
  0
VERTEX
  5
5E8
  8
0
  6
CONTINUOUS
 62
     8
 10
4.0797803851
 20
1.3676205067
 30
0.0
  0
VERTEX
  5
5E9
  8
0
  6
CONTINUOUS
 62
     8
 10
4.0500940853
 20
1.3252489247
 30
0.0
  0
VERTEX
  5
5EA
  8
0
  6
CONTINUOUS
 62
     8
 10
4.0171676193
 20
1.2836828284
 30
0.0
  0
VERTEX
  5
5EB
  8
0
  6
CONTINUOUS
 62
     8
 10
3.9810663598
 20
1.2430047434
 30
0.0
  0
VERTEX
  5
5EC
  8
0
  6
CONTINUOUS
 62
     8
 10
3.9418619822
 20
1.2032954324
 30
0.0
  0
VERTEX
  5
5ED
  8
0
  6
CONTINUOUS
 62
     8
 10
3.8996323234
 20
1.1646337344
 30
0.0
  0
VERTEX
  5
5EE
  8
0
  6
CONTINUOUS
 62
     8
 10
3.8544612265
 20
1.1270964087
 30
0.0
  0
VERTEX
  5
5EF
  8
0
  6
CONTINUOUS
 62
     8
 10
3.8064383743
 20
1.0907579823
 30
0.0
  0
VERTEX
  5
5F0
  8
0
  6
CONTINUOUS
 62
     8
 10
3.7556591119
 20
1.0556906015
 30
0.0
  0
VERTEX
  5
5F1
  8
0
  6
CONTINUOUS
 62
     8
 10
3.7022242568
 20
1.0219638896
 30
0.0
  0
VERTEX
  5
5F2
  8
0
  6
CONTINUOUS
 62
     8
 10
3.6462398989
 20
0.9896448077
 30
0.0
  0
VERTEX
  5
5F3
  8
0
  6
CONTINUOUS
 62
     8
 10
3.5878171901
 20
0.9587975225
 30
0.0
  0
VERTEX
  5
5F4
  8
0
  6
CONTINUOUS
 62
     8
 10
3.5270721231
 20
0.9294832783
 30
0.0
  0
VERTEX
  5
5F5
  8
0
  6
CONTINUOUS
 62
     8
 10
3.4641253018
 20
0.9017602758
 30
0.0
  0
VERTEX
  5
5F6
  8
0
  6
CONTINUOUS
 62
     8
 10
3.3991017011
 20
0.8756835566
 30
0.0
  0
VERTEX
  5
5F7
  8
0
  6
CONTINUOUS
 62
     8
 10
3.3321304194
 20
0.8513048935
 30
0.0
  0
VERTEX
  5
5F8
  8
0
  6
CONTINUOUS
 62
     8
 10
3.263344422
 20
0.8286726881
 30
0.0
  0
VERTEX
  5
5F9
  8
0
  6
CONTINUOUS
 62
     8
 10
3.1928802772
 20
0.8078318745
 30
0.0
  0
VERTEX
  5
5FA
  8
0
  6
CONTINUOUS
 62
     8
 10
3.1208778849
 20
0.7888238304
 30
0.0
  0
VERTEX
  5
5FB
  8
0
  6
CONTINUOUS
 62
     8
 10
3.0474801993
 20
0.7716862942
 30
0.0
  0
VERTEX
  5
5FC
  8
0
  6
CONTINUOUS
 62
     8
 10
2.9728329447
 20
0.7564532912
 30
0.0
  0
VERTEX
  5
5FD
  8
0
  6
CONTINUOUS
 62
     8
 10
2.8970843262
 20
0.7431550649
 30
0.0
  0
VERTEX
  5
5FE
  8
0
  6
CONTINUOUS
 62
     8
 10
2.8203847358
 20
0.7318180178
 30
0.0
  0
VERTEX
  5
5FF
  8
0
  6
CONTINUOUS
 62
     8
 10
2.7428864534
 20
0.7224646586
 30
0.0
  0
VERTEX
  5
600
  8
0
  6
CONTINUOUS
 62
     8
 10
2.6647433446
 20
0.7151135574
 30
0.0
  0
VERTEX
  5
601
  8
0
  6
CONTINUOUS
 62
     8
 10
2.5861105554
 20
0.7097793092
 30
0.0
  0
VERTEX
  5
602
  8
0
  6
CONTINUOUS
 62
     8
 10
2.5071442039
 20
0.7064725047
 30
0.0
  0
VERTEX
  5
603
  8
0
  6
CONTINUOUS
 62
     8
 10
2.4280010705
 20
0.7051997092
 30
0.0
  0
VERTEX
  5
604
  8
0
  6
CONTINUOUS
 62
     8
 10
2.3488382865
 20
0.7059634497
 30
0.0
  0
VERTEX
  5
605
  8
0
  6
CONTINUOUS
 62
     8
 10
2.2698130223
 20
0.7087622099
 30
0.0
  0
VERTEX
  5
606
  8
0
  6
CONTINUOUS
 62
     8
 10
2.1910821753
 20
0.7135904331
 30
0.0
  0
VERTEX
  5
607
  8
0
  6
CONTINUOUS
 62
     8
 10
2.1128020582
 20
0.7204385333
 30
0.0
  0
VERTEX
  5
608
  8
0
  6
CONTINUOUS
 62
     8
 10
2.035128089
 20
0.7292929143
 30
0.0
  0
VERTEX
  5
609
  8
0
  6
CONTINUOUS
 62
     8
 10
1.9582144822
 20
0.7401359965
 30
0.0
  0
VERTEX
  5
60A
  8
0
  6
CONTINUOUS
 62
     8
 10
1.8822139427
 20
0.7529462519
 30
0.0
  0
VERTEX
  5
60B
  8
0
  6
CONTINUOUS
 62
     8
 10
1.8072773624
 20
0.767698247
 30
0.0
  0
VERTEX
  5
60C
  8
0
  6
CONTINUOUS
 62
     8
 10
1.7335535209
 20
0.7843626931
 30
0.0
  0
VERTEX
  5
60D
  8
0
  6
CONTINUOUS
 62
     8
 10
1.6611887903
 20
0.8029065044
 30
0.0
  0
VERTEX
  5
60E
  8
0
  6
CONTINUOUS
 62
     8
 10
1.5903268439
 20
0.823292864
 30
0.0
  0
VERTEX
  5
60F
  8
0
  6
CONTINUOUS
 62
     8
 10
1.5211083715
 20
0.8454812965
 30
0.0
  0
VERTEX
  5
610
  8
0
  6
CONTINUOUS
 62
     8
 10
1.4536708002
 20
0.869427749
 30
0.0
  0
VERTEX
  5
611
  8
0
  6
CONTINUOUS
 62
     8
 10
1.3881480208
 20
0.8950846779
 30
0.0
  0
VERTEX
  5
612
  8
0
  6
CONTINUOUS
 62
     8
 10
1.3246701228
 20
0.9224011438
 30
0.0
  0
VERTEX
  5
613
  8
0
  6
CONTINUOUS
 62
     8
 10
1.2633631357
 20
0.9513229124
 30
0.0
  0
VERTEX
  5
614
  8
0
  6
CONTINUOUS
 62
     8
 10
1.2043487789
 20
0.9817925622
 30
0.0
  0
VERTEX
  5
615
  8
0
  6
CONTINUOUS
 62
     8
 10
1.1477442198
 20
1.0137495985
 30
0.0
  0
VERTEX
  5
616
  8
0
  6
CONTINUOUS
 62
     8
 10
1.0936618417
 20
1.0471305736
 30
0.0
  0
VERTEX
  5
617
  8
0
  6
CONTINUOUS
 62
     8
 10
1.04220902
 20
1.0818692127
 30
0.0
  0
VERTEX
  5
618
  8
0
  6
CONTINUOUS
 62
     8
 10
0.9934879096
 20
1.1178965453
 30
0.0
  0
VERTEX
  5
619
  8
0
  6
CONTINUOUS
 62
     8
 10
0.9475952418
 20
1.1551410426
 30
0.0
  0
VERTEX
  5
61A
  8
0
  6
CONTINUOUS
 62
     8
 10
0.9046221321
 20
1.193528759
 30
0.0
  0
VERTEX
  5
61B
  8
0
  6
CONTINUOUS
 62
     8
 10
0.8646538997
 20
1.2329834794
 30
0.0
  0
VERTEX
  5
61C
  8
0
  6
CONTINUOUS
 62
     8
 10
0.8277698978
 20
1.2734268699
 30
0.0
  0
VERTEX
  5
61D
  8
0
  6
CONTINUOUS
 62
     8
 10
0.7940433563
 20
1.3147786341
 30
0.0
  0
VERTEX
  5
61E
  8
0
  6
CONTINUOUS
 62
     8
 10
0.763541236
 20
1.3569566717
 30
0.0
  0
VERTEX
  5
61F
  8
0
  6
CONTINUOUS
 62
     8
 10
0.736324096
 20
1.3998772422
 30
0.0
  0
VERTEX
  5
620
  8
0
  6
CONTINUOUS
 62
     8
 10
0.7124459735
 20
1.4434551309
 30
0.0
  0
VERTEX
  5
621
  8
0
  6
CONTINUOUS
 62
     8
 10
0.6919542764
 20
1.4876038177
 30
0.0
  0
VERTEX
  5
622
  8
0
  6
CONTINUOUS
 62
     8
 10
0.6748896888
 20
1.5322356497
 30
0.0
  0
VERTEX
  5
623
  8
0
  6
CONTINUOUS
 62
     8
 10
0.6612860911
 20
1.5772620143
 30
0.0
  0
VERTEX
  5
624
  8
0
  6
CONTINUOUS
 62
     8
 10
0.6511704918
 20
1.622593516
 30
0.0
  0
VERTEX
  5
625
  8
0
  6
CONTINUOUS
 62
     8
 10
0.6445629747
 20
1.6681401533
 30
0.0
  0
VERTEX
  5
626
  8
0
  6
CONTINUOUS
 62
     8
 10
0.6414766582
 20
1.7138114974
 30
0.0
  0
VERTEX
  5
627
  8
0
  6
CONTINUOUS
 62
     8
 10
0.6414537748
 20
1.7472827156
 30
0.0
  0
SEQEND
  5
72D
  8
0
  6
CONTINUOUS
 62
     8
  0
POLYLINE
  5
188
  8
0
  6
CONTINUOUS
 62
     8
 66
     1
 10
0.0
 20
0.0
 30
0.0
 70
   128
  0
VERTEX
  5
628
  8
0
  6
CONTINUOUS
 62
     8
 10
4.2006009582
 20
1.5836609292
 30
0.0
  0
VERTEX
  5
629
  8
0
  6
CONTINUOUS
 62
     8
 10
4.1902990483
 20
1.5432891674
 30
0.0
  0
VERTEX
  5
62A
  8
0
  6
CONTINUOUS
 62
     8
 10
4.1754365554
 20
1.4982031998
 30
0.0
  0
VERTEX
  5
62B
  8
0
  6
CONTINUOUS
 62
     8
 10
4.1571340006
 20
1.4535408803
 30
0.0
  0
VERTEX
  5
62C
  8
0
  6
CONTINUOUS
 62
     8
 10
4.135427212
 20
1.4093896375
 30
0.0
  0
VERTEX
  5
62D
  8
0
  6
CONTINUOUS
 62
     8
 10
4.1103586818
 20
1.3658358997
 30
0.0
  0
VERTEX
  5
62E
  8
0
  6
CONTINUOUS
 62
     8
 10
4.0819774828
 20
1.3229649252
 30
0.0
  0
VERTEX
  5
62F
  8
0
  6
CONTINUOUS
 62
     8
 10
4.0503391725
 20
1.2808606361
 30
0.0
  0
VERTEX
  5
630
  8
0
  6
CONTINUOUS
 62
     8
 10
4.0155056843
 20
1.2396054534
 30
0.0
  0
VERTEX
  5
631
  8
0
  6
CONTINUOUS
 62
     8
 10
3.9775452064
 20
1.1992801361
 30
0.0
  0
VERTEX
  5
632
  8
0
  6
CONTINUOUS
 62
     8
 10
3.9365320484
 20
1.1599636229
 30
0.0
  0
VERTEX
  5
633
  8
0
  6
CONTINUOUS
 62
     8
 10
3.8925464953
 20
1.1217328777
 30
0.0
  0
VERTEX
  5
634
  8
0
  6
CONTINUOUS
 62
     8
 10
3.8456746509
 20
1.084662739
 30
0.0
  0
VERTEX
  5
635
  8
0
  6
CONTINUOUS
 62
     8
 10
3.7960082691
 20
1.0488257734
 30
0.0
  0
VERTEX
  5
636
  8
0
  6
CONTINUOUS
 62
     8
 10
3.7436445742
 20
1.0142921334
 30
0.0
  0
VERTEX
  5
637
  8
0
  6
CONTINUOUS
 62
     8
 10
3.6886860705
 20
0.9811294201
 30
0.0
  0
VERTEX
  5
638
  8
0
  6
CONTINUOUS
 62
     8
 10
3.6312403418
 20
0.9494025513
 30
0.0
  0
VERTEX
  5
639
  8
0
  6
CONTINUOUS
 62
     8
 10
3.571419841
 20
0.9191736336
 30
0.0
  0
VERTEX
  5
63A
  8
0
  6
CONTINUOUS
 62
     8
 10
3.5093416695
 20
0.8905018417
 30
0.0
  0
VERTEX
  5
63B
  8
0
  6
CONTINUOUS
 62
     8
 10
3.4451273481
 20
0.8634433019
 30
0.0
  0
VERTEX
  5
63C
  8
0
  6
CONTINUOUS
 62
     8
 10
3.3789025795
 20
0.8380509826
 30
0.0
  0
VERTEX
  5
63D
  8
0
  6
CONTINUOUS
 62
     8
 10
3.3107970017
 20
0.8143745904
 30
0.0
  0
VERTEX
  5
63E
  8
0
  6
CONTINUOUS
 62
     8
 10
3.2409439345
 20
0.792460473
 30
0.0
  0
VERTEX
  5
63F
  8
0
  6
CONTINUOUS
 62
     8
 10
3.1694801188
 20
0.7723515283
 30
0.0
  0
VERTEX
  5
640
  8
0
  6
CONTINUOUS
 62
     8
 10
3.0965454481
 20
0.7540871205
 30
0.0
  0
VERTEX
  5
641
  8
0
  6
CONTINUOUS
 62
     8
 10
3.0222826957
 20
0.737703003
 30
0.0
  0
VERTEX
  5
642
  8
0
  6
CONTINUOUS
 62
     8
 10
2.9468372342
 20
0.7232312486
 30
0.0
  0
VERTEX
  5
643
  8
0
  6
CONTINUOUS
 62
     8
 10
2.8703567517
 20
0.7107001863
 30
0.0
  0
VERTEX
  5
644
  8
0
  6
CONTINUOUS
 62
     8
 10
2.7929909624
 20
0.7001343463
 30
0.0
  0
VERTEX
  5
645
  8
0
  6
CONTINUOUS
 62
     8
 10
2.7148913135
 20
0.6915544118
 30
0.0
  0
VERTEX
  5
646
  8
0
  6
CONTINUOUS
 62
     8
 10
2.6362106886
 20
0.6849771783
 30
0.0
  0
VERTEX
  5
647
  8
0
  6
CONTINUOUS
 62
     8
 10
2.5571031088
 20
0.6804155211
 30
0.0
  0
VERTEX
  5
648
  8
0
  6
CONTINUOUS
 62
     8
 10
2.4777234308
 20
0.6778783698
 30
0.0
  0
VERTEX
  5
649
  8
0
  6
CONTINUOUS
 62
     8
 10
2.3982270442
 20
0.6773706911
 30
0.0
  0
VERTEX
  5
64A
  8
0
  6
CONTINUOUS
 62
     8
 10
2.3187695669
 20
0.6788934787
 30
0.0
  0
VERTEX
  5
64B
  8
0
  6
CONTINUOUS
 62
     8
 10
2.2395065405
 20
0.6824437518
 30
0.0
  0
VERTEX
  5
64C
  8
0
  6
CONTINUOUS
 62
     8
 10
2.1605931262
 20
0.6880145605
 30
0.0
  0
VERTEX
  5
64D
  8
0
  6
CONTINUOUS
 62
     8
 10
2.0821838007
 20
0.6955949996
 30
0.0
  0
VERTEX
  5
64E
  8
0
  6
CONTINUOUS
 62
     8
 10
2.0044320539
 20
0.7051702302
 30
0.0
  0
VERTEX
  5
64F
  8
0
  6
CONTINUOUS
 62
     8
 10
1.9274900885
 20
0.7167215082
 30
0.0
  0
VERTEX
  5
650
  8
0
  6
CONTINUOUS
 62
     8
 10
1.8515085221
 20
0.7302262214
 30
0.0
  0
VERTEX
  5
651
  8
0
  6
CONTINUOUS
 62
     8
 10
1.7766360921
 20
0.7456579339
 30
0.0
  0
VERTEX
  5
652
  8
0
  6
CONTINUOUS
 62
     8
 10
1.7030193648
 20
0.7629864372
 30
0.0
  0
VERTEX
  5
653
  8
0
  6
CONTINUOUS
 62
     8
 10
1.6308024484
 20
0.78217781
 30
0.0
  0
VERTEX
  5
654
  8
0
  6
CONTINUOUS
 62
     8
 10
1.560126711
 20
0.8031944844
 30
0.0
  0
VERTEX
  5
655
  8
0
  6
CONTINUOUS
 62
     8
 10
1.4911305035
 20
0.825995319
 30
0.0
  0
VERTEX
  5
656
  8
0
  6
CONTINUOUS
 62
     8
 10
1.4239488894
 20
0.8505356804
 30
0.0
  0
VERTEX
  5
657
  8
0
  6
CONTINUOUS
 62
     8
 10
1.3587133797
 20
0.8767675295
 30
0.0
  0
VERTEX
  5
658
  8
0
  6
CONTINUOUS
 62
     8
 10
1.2955516761
 20
0.9046395163
 30
0.0
  0
VERTEX
  5
659
  8
0
  6
CONTINUOUS
 62
     8
 10
1.2345874206
 20
0.93409708
 30
0.0
  0
VERTEX
  5
65A
  8
0
  6
CONTINUOUS
 62
     8
 10
1.1759399535
 20
0.9650825561
 30
0.0
  0
VERTEX
  5
65B
  8
0
  6
CONTINUOUS
 62
     8
 10
1.11972408
 20
0.9975352891
 30
0.0
  0
VERTEX
  5
65C
  8
0
  6
CONTINUOUS
 62
     8
 10
1.0660498453
 20
1.0313917512
 30
0.0
  0
VERTEX
  5
65D
  8
0
  6
CONTINUOUS
 62
     8
 10
1.0150223193
 20
1.0665856668
 30
0.0
  0
VERTEX
  5
65E
  8
0
  6
CONTINUOUS
 62
     8
 10
0.9667413908
 20
1.1030481422
 30
0.0
  0
VERTEX
  5
65F
  8
0
  6
CONTINUOUS
 62
     8
 10
0.9213015719
 20
1.1407078003
 30
0.0
  0
VERTEX
  5
660
  8
0
  6
CONTINUOUS
 62
     8
 10
0.8787918131
 20
1.1794909206
 30
0.0
  0
VERTEX
  5
661
  8
0
  6
CONTINUOUS
 62
     8
 10
0.8392953295
 20
1.2193215834
 30
0.0
  0
VERTEX
  5
662
  8
0
  6
CONTINUOUS
 62
     8
 10
0.8028894371
 20
1.2601218181
 30
0.0
  0
VERTEX
  5
663
  8
0
  6
CONTINUOUS
 62
     8
 10
0.7696454022
 20
1.3018117566
 30
0.0
  0
VERTEX
  5
664
  8
0
  6
CONTINUOUS
 62
     8
 10
0.7396283017
 20
1.3443097886
 30
0.0
  0
VERTEX
  5
665
  8
0
  6
CONTINUOUS
 62
     8
 10
0.7128968952
 20
1.3875327225
 30
0.0
  0
VERTEX
  5
666
  8
0
  6
CONTINUOUS
 62
     8
 10
0.689503511
 20
1.4313959471
 30
0.0
  0
VERTEX
  5
667
  8
0
  6
CONTINUOUS
 62
     8
 10
0.6694939425
 20
1.4758135982
 30
0.0
  0
VERTEX
  5
668
  8
0
  6
CONTINUOUS
 62
     8
 10
0.6529073595
 20
1.5206987263
 30
0.0
  0
VERTEX
  5
669
  8
0
  6
CONTINUOUS
 62
     8
 10
0.639776231
 20
1.5659634664
 30
0.0
  0
VERTEX
  5
66A
  8
0
  6
CONTINUOUS
 62
     8
 10
0.6349643694
 20
1.5866058618
 30
0.0
  0
SEQEND
  5
72E
  8
0
  6
CONTINUOUS
 62
     8
  0
POLYLINE
  5
189
  8
0
  6
CONTINUOUS
 62
     8
 66
     1
 10
0.0
 20
0.0
 30
0.0
 70
   128
  0
VERTEX
  5
66B
  8
0
  6
CONTINUOUS
 62
     8
 10
4.2006009582
 20
1.4121873587
 30
0.0
  0
VERTEX
  5
66C
  8
0
  6
CONTINUOUS
 62
     8
 10
4.1902990483
 20
1.3718155969
 30
0.0
  0
VERTEX
  5
66D
  8
0
  6
CONTINUOUS
 62
     8
 10
4.1754365554
 20
1.3267296293
 30
0.0
  0
VERTEX
  5
66E
  8
0
  6
CONTINUOUS
 62
     8
 10
4.1571340006
 20
1.2820673098
 30
0.0
  0
VERTEX
  5
66F
  8
0
  6
CONTINUOUS
 62
     8
 10
4.135427212
 20
1.237916067
 30
0.0
  0
VERTEX
  5
670
  8
0
  6
CONTINUOUS
 62
     8
 10
4.1103586818
 20
1.1943623292
 30
0.0
  0
VERTEX
  5
671
  8
0
  6
CONTINUOUS
 62
     8
 10
4.0819774828
 20
1.1514913547
 30
0.0
  0
VERTEX
  5
672
  8
0
  6
CONTINUOUS
 62
     8
 10
4.0503391725
 20
1.1093870656
 30
0.0
  0
VERTEX
  5
673
  8
0
  6
CONTINUOUS
 62
     8
 10
4.0155056843
 20
1.0681318829
 30
0.0
  0
VERTEX
  5
674
  8
0
  6
CONTINUOUS
 62
     8
 10
3.9775452064
 20
1.0278065656
 30
0.0
  0
VERTEX
  5
675
  8
0
  6
CONTINUOUS
 62
     8
 10
3.9365320484
 20
0.9884900524
 30
0.0
  0
VERTEX
  5
676
  8
0
  6
CONTINUOUS
 62
     8
 10
3.8925464953
 20
0.9502593072
 30
0.0
  0
VERTEX
  5
677
  8
0
  6
CONTINUOUS
 62
     8
 10
3.8456746509
 20
0.9131891685
 30
0.0
  0
VERTEX
  5
678
  8
0
  6
CONTINUOUS
 62
     8
 10
3.7960082691
 20
0.8773522029
 30
0.0
  0
VERTEX
  5
679
  8
0
  6
CONTINUOUS
 62
     8
 10
3.7436445742
 20
0.8428185629
 30
0.0
  0
VERTEX
  5
67A
  8
0
  6
CONTINUOUS
 62
     8
 10
3.6886860705
 20
0.8096558496
 30
0.0
  0
VERTEX
  5
67B
  8
0
  6
CONTINUOUS
 62
     8
 10
3.6312403418
 20
0.7779289808
 30
0.0
  0
VERTEX
  5
67C
  8
0
  6
CONTINUOUS
 62
     8
 10
3.571419841
 20
0.7477000631
 30
0.0
  0
VERTEX
  5
67D
  8
0
  6
CONTINUOUS
 62
     8
 10
3.5093416695
 20
0.7190282712
 30
0.0
  0
VERTEX
  5
67E
  8
0
  6
CONTINUOUS
 62
     8
 10
3.4451273481
 20
0.6919697314
 30
0.0
  0
VERTEX
  5
67F
  8
0
  6
CONTINUOUS
 62
     8
 10
3.3789025795
 20
0.6665774121
 30
0.0
  0
VERTEX
  5
680
  8
0
  6
CONTINUOUS
 62
     8
 10
3.3107970017
 20
0.6429010199
 30
0.0
  0
VERTEX
  5
681
  8
0
  6
CONTINUOUS
 62
     8
 10
3.2409439345
 20
0.6209869025
 30
0.0
  0
VERTEX
  5
682
  8
0
  6
CONTINUOUS
 62
     8
 10
3.1694801188
 20
0.6008779578
 30
0.0
  0
VERTEX
  5
683
  8
0
  6
CONTINUOUS
 62
     8
 10
3.0965454481
 20
0.58261355
 30
0.0
  0
VERTEX
  5
684
  8
0
  6
CONTINUOUS
 62
     8
 10
3.0222826957
 20
0.5662294325
 30
0.0
  0
VERTEX
  5
685
  8
0
  6
CONTINUOUS
 62
     8
 10
2.9468372342
 20
0.5517576781
 30
0.0
  0
VERTEX
  5
686
  8
0
  6
CONTINUOUS
 62
     8
 10
2.8703567517
 20
0.5392266158
 30
0.0
  0
VERTEX
  5
687
  8
0
  6
CONTINUOUS
 62
     8
 10
2.7929909624
 20
0.5286607758
 30
0.0
  0
VERTEX
  5
688
  8
0
  6
CONTINUOUS
 62
     8
 10
2.7148913135
 20
0.5200808413
 30
0.0
  0
VERTEX
  5
689
  8
0
  6
CONTINUOUS
 62
     8
 10
2.6362106886
 20
0.5135036078
 30
0.0
  0
VERTEX
  5
68A
  8
0
  6
CONTINUOUS
 62
     8
 10
2.5571031088
 20
0.5089419506
 30
0.0
  0
VERTEX
  5
68B
  8
0
  6
CONTINUOUS
 62
     8
 10
2.4777234308
 20
0.5064047993
 30
0.0
  0
VERTEX
  5
68C
  8
0
  6
CONTINUOUS
 62
     8
 10
2.3982270442
 20
0.5058971206
 30
0.0
  0
VERTEX
  5
68D
  8
0
  6
CONTINUOUS
 62
     8
 10
2.3187695669
 20
0.5074199082
 30
0.0
  0
VERTEX
  5
68E
  8
0
  6
CONTINUOUS
 62
     8
 10
2.2395065405
 20
0.5109701813
 30
0.0
  0
VERTEX
  5
68F
  8
0
  6
CONTINUOUS
 62
     8
 10
2.1605931262
 20
0.51654099
 30
0.0
  0
VERTEX
  5
690
  8
0
  6
CONTINUOUS
 62
     8
 10
2.0821838007
 20
0.5241214291
 30
0.0
  0
VERTEX
  5
691
  8
0
  6
CONTINUOUS
 62
     8
 10
2.0044320539
 20
0.5336966597
 30
0.0
  0
VERTEX
  5
692
  8
0
  6
CONTINUOUS
 62
     8
 10
1.9274900885
 20
0.5452479377
 30
0.0
  0
VERTEX
  5
693
  8
0
  6
CONTINUOUS
 62
     8
 10
1.8515085221
 20
0.558752651
 30
0.0
  0
VERTEX
  5
694
  8
0
  6
CONTINUOUS
 62
     8
 10
1.7766360921
 20
0.5741843634
 30
0.0
  0
VERTEX
  5
695
  8
0
  6
CONTINUOUS
 62
     8
 10
1.7030193648
 20
0.5915128667
 30
0.0
  0
VERTEX
  5
696
  8
0
  6
CONTINUOUS
 62
     8
 10
1.6308024484
 20
0.6107042395
 30
0.0
  0
VERTEX
  5
697
  8
0
  6
CONTINUOUS
 62
     8
 10
1.560126711
 20
0.6317209139
 30
0.0
  0
VERTEX
  5
698
  8
0
  6
CONTINUOUS
 62
     8
 10
1.4911305035
 20
0.6545217485
 30
0.0
  0
VERTEX
  5
699
  8
0
  6
CONTINUOUS
 62
     8
 10
1.4239488894
 20
0.6790621099
 30
0.0
  0
VERTEX
  5
69A
  8
0
  6
CONTINUOUS
 62
     8
 10
1.3587133797
 20
0.705293959
 30
0.0
  0
VERTEX
  5
69B
  8
0
  6
CONTINUOUS
 62
     8
 10
1.2955516761
 20
0.7331659458
 30
0.0
  0
VERTEX
  5
69C
  8
0
  6
CONTINUOUS
 62
     8
 10
1.2345874206
 20
0.7626235095
 30
0.0
  0
VERTEX
  5
69D
  8
0
  6
CONTINUOUS
 62
     8
 10
1.1759399535
 20
0.7936089856
 30
0.0
  0
VERTEX
  5
69E
  8
0
  6
CONTINUOUS
 62
     8
 10
1.11972408
 20
0.8260617186
 30
0.0
  0
VERTEX
  5
69F
  8
0
  6
CONTINUOUS
 62
     8
 10
1.0660498453
 20
0.8599181807
 30
0.0
  0
VERTEX
  5
6A0
  8
0
  6
CONTINUOUS
 62
     8
 10
1.0150223193
 20
0.8951120963
 30
0.0
  0
VERTEX
  5
6A1
  8
0
  6
CONTINUOUS
 62
     8
 10
0.9667413908
 20
0.9315745717
 30
0.0
  0
VERTEX
  5
6A2
  8
0
  6
CONTINUOUS
 62
     8
 10
0.9213015719
 20
0.9692342298
 30
0.0
  0
VERTEX
  5
6A3
  8
0
  6
CONTINUOUS
 62
     8
 10
0.8787918131
 20
1.0080173501
 30
0.0
  0
VERTEX
  5
6A4
  8
0
  6
CONTINUOUS
 62
     8
 10
0.8392953295
 20
1.0478480129
 30
0.0
  0
VERTEX
  5
6A5
  8
0
  6
CONTINUOUS
 62
     8
 10
0.8028894371
 20
1.0886482477
 30
0.0
  0
VERTEX
  5
6A6
  8
0
  6
CONTINUOUS
 62
     8
 10
0.7696454022
 20
1.1303381861
 30
0.0
  0
VERTEX
  5
6A7
  8
0
  6
CONTINUOUS
 62
     8
 10
0.7396283017
 20
1.1728362181
 30
0.0
  0
VERTEX
  5
6A8
  8
0
  6
CONTINUOUS
 62
     8
 10
0.7128968952
 20
1.216059152
 30
0.0
  0
VERTEX
  5
6A9
  8
0
  6
CONTINUOUS
 62
     8
 10
0.689503511
 20
1.2599223766
 30
0.0
  0
VERTEX
  5
6AA
  8
0
  6
CONTINUOUS
 62
     8
 10
0.6694939425
 20
1.3043400278
 30
0.0
  0
VERTEX
  5
6AB
  8
0
  6
CONTINUOUS
 62
     8
 10
0.6529073595
 20
1.3492251558
 30
0.0
  0
VERTEX
  5
6AC
  8
0
  6
CONTINUOUS
 62
     8
 10
0.639776231
 20
1.3944898959
 30
0.0
  0
VERTEX
  5
6AD
  8
0
  6
CONTINUOUS
 62
     8
 10
0.6349643694
 20
1.4151322913
 30
0.0
  0
SEQEND
  5
72F
  8
0
  6
CONTINUOUS
 62
     8
  0
POLYLINE
  5
18A
  8
0
  6
CONTINUOUS
 62
     8
 66
     1
 10
0.0
 20
0.0
 30
0.0
 70
   128
  0
VERTEX
  5
6AE
  8
0
  6
CONTINUOUS
 62
     8
 10
1.6305633955
 20
2.1855891666
 30
0.0
  0
VERTEX
  5
6AF
  8
0
  6
CONTINUOUS
 62
     8
 10
1.676379884
 20
2.2105821222
 30
0.0
  0
VERTEX
  5
6B0
  8
0
  6
CONTINUOUS
 62
     8
 10
1.7245723372
 20
2.2340386777
 30
0.0
  0
VERTEX
  5
6B1
  8
0
  6
CONTINUOUS
 62
     8
 10
1.77498638
 20
2.2558836945
 30
0.0
  0
VERTEX
  5
6B2
  8
0
  6
CONTINUOUS
 62
     8
 10
1.8274605211
 20
2.2760471965
 30
0.0
  0
VERTEX
  5
6B3
  8
0
  6
CONTINUOUS
 62
     8
 10
1.8818266699
 20
2.294464594
 30
0.0
  0
VERTEX
  5
6B4
  8
0
  6
CONTINUOUS
 62
     8
 10
1.9379106753
 20
2.3110768904
 30
0.0
  0
VERTEX
  5
6B5
  8
0
  6
CONTINUOUS
 62
     8
 10
1.9955328833
 20
2.3258308716
 30
0.0
  0
VERTEX
  5
6B6
  8
0
  6
CONTINUOUS
 62
     8
 10
2.0545087127
 20
2.3386792761
 30
0.0
  0
VERTEX
  5
6B7
  8
0
  6
CONTINUOUS
 62
     8
 10
2.114649246
 20
2.3495809465
 30
0.0
  0
VERTEX
  5
6B8
  8
0
  6
CONTINUOUS
 62
     8
 10
2.175761835
 20
2.3585009617
 30
0.0
  0
VERTEX
  5
6B9
  8
0
  6
CONTINUOUS
 62
     8
 10
2.2376507176
 20
2.365410748
 30
0.0
  0
VERTEX
  5
6BA
  8
0
  6
CONTINUOUS
 62
     8
 10
2.3001176451
 20
2.3702881713
 30
0.0
  0
VERTEX
  5
6BB
  8
0
  6
CONTINUOUS
 62
     8
 10
2.3629625172
 20
2.3731176078
 30
0.0
  0
VERTEX
  5
6BC
  8
0
  6
CONTINUOUS
 62
     8
 10
2.4259840226
 20
2.373889994
 30
0.0
  0
VERTEX
  5
6BD
  8
0
  6
CONTINUOUS
 62
     8
 10
2.4889802846
 20
2.3726028556
 30
0.0
  0
VERTEX
  5
6BE
  8
0
  6
CONTINUOUS
 62
     8
 10
2.5517495071
 20
2.3692603157
 30
0.0
  0
VERTEX
  5
6BF
  8
0
  6
CONTINUOUS
 62
     8
 10
2.6140906214
 20
2.3638730816
 30
0.0
  0
VERTEX
  5
6C0
  8
0
  6
CONTINUOUS
 62
     8
 10
2.6758039301
 20
2.3564584101
 30
0.0
  0
VERTEX
  5
6C1
  8
0
  6
CONTINUOUS
 62
     8
 10
2.7366917469
 20
2.3470400527
 30
0.0
  0
VERTEX
  5
6C2
  8
0
  6
CONTINUOUS
 62
     8
 10
2.7965590297
 20
2.3356481792
 30
0.0
  0
VERTEX
  5
6C3
  8
0
  6
CONTINUOUS
 62
     8
 10
2.8552140056
 20
2.3223192812
 30
0.0
  0
VERTEX
  5
6C4
  8
0
  6
CONTINUOUS
 62
     8
 10
2.912468785
 20
2.3070960552
 30
0.0
  0
VERTEX
  5
6C5
  8
0
  6
CONTINUOUS
 62
     8
 10
2.9681399636
 20
2.2900272657
 30
0.0
  0
VERTEX
  5
6C6
  8
0
  6
CONTINUOUS
 62
     8
 10
3.0220492098
 20
2.2711675893
 30
0.0
  0
VERTEX
  5
6C7
  8
0
  6
CONTINUOUS
 62
     8
 10
3.074023836
 20
2.2505774393
 30
0.0
  0
VERTEX
  5
6C8
  8
0
  6
CONTINUOUS
 62
     8
 10
3.1238973519
 20
2.2283227719
 30
0.0
  0
VERTEX
  5
6C9
  8
0
  6
CONTINUOUS
 62
     8
 10
3.1715099975
 20
2.2044748757
 30
0.0
  0
VERTEX
  5
6CA
  8
0
  6
CONTINUOUS
 62
     8
 10
3.2167092553
 20
2.1791101426
 30
0.0
  0
VERTEX
  5
6CB
  8
0
  6
CONTINUOUS
 62
     8
 10
3.2593503382
 20
2.1523098236
 30
0.0
  0
VERTEX
  5
6CC
  8
0
  6
CONTINUOUS
 62
     8
 10
3.2992966542
 20
2.1241597682
 30
0.0
  0
VERTEX
  5
6CD
  8
0
  6
CONTINUOUS
 62
     8
 10
3.3364202431
 20
2.0947501493
 30
0.0
  0
VERTEX
  5
6CE
  8
0
  6
CONTINUOUS
 62
     8
 10
3.3706021868
 20
2.064175175
 30
0.0
  0
VERTEX
  5
6CF
  8
0
  6
CONTINUOUS
 62
     8
 10
3.4017329903
 20
2.0325327861
 30
0.0
  0
VERTEX
  5
6D0
  8
0
  6
CONTINUOUS
 62
     8
 10
3.4297129323
 20
1.9999243427
 30
0.0
  0
VERTEX
  5
6D1
  8
0
  6
CONTINUOUS
 62
     8
 10
3.4521690977
 20
1.9697757304
 30
0.0
  0
SEQEND
  5
730
  8
0
  6
CONTINUOUS
 62
     8
  0
ARC
  5
18B
  8
0
  6
CONTINUOUS
 62
     8
 10
1.9861722775
 20
1.5306545164
 30
0.0
 40
0.7452496716383593
 50
118.5005662487
 51
143.889095025
  0
POLYLINE
  5
18C
  8
0
  6
CONTINUOUS
 62
     8
 66
     1
 10
0.0
 20
0.0
 30
0.0
 70
   128
  0
VERTEX
  5
6D2
  8
0
  6
CONTINUOUS
 62
     8
 10
1.6447055311
 20
2.1610942692
 30
0.0
  0
VERTEX
  5
6D3
  8
0
  6
CONTINUOUS
 62
     8
 10
1.6901192375
 20
2.1858547412
 30
0.0
  0
VERTEX
  5
6D4
  8
0
  6
CONTINUOUS
 62
     8
 10
1.7379074774
 20
2.2090781468
 30
0.0
  0
VERTEX
  5
6D5
  8
0
  6
CONTINUOUS
 62
     8
 10
1.7879143756
 20
2.2306887363
 30
0.0
  0
VERTEX
  5
6D6
  8
0
  6
CONTINUOUS
 62
     8
 10
1.8399768201
 20
2.2506160204
 30
0.0
  0
VERTEX
  5
6D7
  8
0
  6
CONTINUOUS
 62
     8
 10
1.8939249938
 20
2.2687950004
 30
0.0
  0
VERTEX
  5
6D8
  8
0
  6
CONTINUOUS
 62
     8
 10
1.9495829291
 20
2.2851663803
 30
0.0
  0
VERTEX
  5
6D9
  8
0
  6
CONTINUOUS
 62
     8
 10
2.0067690813
 20
2.29967676
 30
0.0
  0
VERTEX
  5
6DA
  8
0
  6
CONTINUOUS
 62
     8
 10
2.0652969212
 20
2.3122788097
 30
0.0
  0
VERTEX
  5
6DB
  8
0
  6
CONTINUOUS
 62
     8
 10
2.124975543
 20
2.3229314241
 30
0.0
  0
VERTEX
  5
6DC
  8
0
  6
CONTINUOUS
 62
     8
 10
2.1856102876
 20
2.3315998566
 30
0.0
  0
VERTEX
  5
6DD
  8
0
  6
CONTINUOUS
 62
     8
 10
2.2470033769
 20
2.3382558326
 30
0.0
  0
VERTEX
  5
6DE
  8
0
  6
CONTINUOUS
 62
     8
 10
2.3089545595
 20
2.3428776416
 30
0.0
  0
VERTEX
  5
6DF
  8
0
  6
CONTINUOUS
 62
     8
 10
2.3712617634
 20
2.3454502084
 30
0.0
  0
VERTEX
  5
6E0
  8
0
  6
CONTINUOUS
 62
     8
 10
2.4337217557
 20
2.3459651417
 30
0.0
  0
VERTEX
  5
6E1
  8
0
  6
CONTINUOUS
 62
     8
 10
2.4961308046
 20
2.3444207619
 30
0.0
  0
VERTEX
  5
6E2
  8
0
  6
CONTINUOUS
 62
     8
 10
2.558285345
 20
2.3408221064
 30
0.0
  0
VERTEX
  5
6E3
  8
0
  6
CONTINUOUS
 62
     8
 10
2.6199826415
 20
2.3351809133
 30
0.0
  0
VERTEX
  5
6E4
  8
0
  6
CONTINUOUS
 62
     8
 10
2.6810214505
 20
2.3275155831
 30
0.0
  0
VERTEX
  5
6E5
  8
0
  6
CONTINUOUS
 62
     8
 10
2.741202676
 20
2.3178511184
 30
0.0
  0
VERTEX
  5
6E6
  8
0
  6
CONTINUOUS
 62
     8
 10
2.8003300194
 20
2.3062190427
 30
0.0
  0
VERTEX
  5
6E7
  8
0
  6
CONTINUOUS
 62
     8
 10
2.8582106196
 20
2.2926572974
 30
0.0
  0
VERTEX
  5
6E8
  8
0
  6
CONTINUOUS
 62
     8
 10
2.9146556821
 20
2.2772101182
 30
0.0
  0
VERTEX
  5
6E9
  8
0
  6
CONTINUOUS
 62
     8
 10
2.9694810948
 20
2.2599278904
 30
0.0
  0
VERTEX
  5
6EA
  8
0
  6
CONTINUOUS
 62
     8
 10
3.0225080286
 20
2.2408669852
 30
0.0
  0
VERTEX
  5
6EB
  8
0
  6
CONTINUOUS
 62
     8
 10
3.0735635208
 20
2.2200895752
 30
0.0
  0
VERTEX
  5
6EC
  8
0
  6
CONTINUOUS
 62
     8
 10
3.1224810388
 20
2.1976634321
 30
0.0
  0
VERTEX
  5
6ED
  8
0
  6
CONTINUOUS
 62
     8
 10
3.1691010239
 20
2.1736617053
 30
0.0
  0
VERTEX
  5
6EE
  8
0
  6
CONTINUOUS
 62
     8
 10
3.2132714114
 20
2.1481626833
 30
0.0
  0
VERTEX
  5
6EF
  8
0
  6
CONTINUOUS
 62
     8
 10
3.2548481268
 20
2.1212495387
 30
0.0
  0
VERTEX
  5
6F0
  8
0
  6
CONTINUOUS
 62
     8
 10
3.2936955553
 20
2.0930100567
 30
0.0
  0
VERTEX
  5
6F1
  8
0
  6
CONTINUOUS
 62
     8
 10
3.3296869847
 20
2.0635363484
 30
0.0
  0
VERTEX
  5
6F2
  8
0
  6
CONTINUOUS
 62
     8
 10
3.3627050186
 20
2.0329245511
 30
0.0
  0
VERTEX
  5
6F3
  8
0
  6
CONTINUOUS
 62
     8
 10
3.3926419588
 20
2.0012745141
 30
0.0
  0
VERTEX
  5
6F4
  8
0
  6
CONTINUOUS
 62
     8
 10
3.4194001575
 20
1.9686894731
 30
0.0
  0
VERTEX
  5
6F5
  8
0
  6
CONTINUOUS
 62
     8
 10
3.4361961351
 20
1.9453749022
 30
0.0
  0
SEQEND
  5
731
  8
0
  6
CONTINUOUS
 62
     8
  0
ARC
  5
18D
  8
0
  6
CONTINUOUS
 62
     8
 10
1.99180945
 20
1.5207113505
 30
0.0
 40
0.7284033313483832
 50
118.4588252674
 51
144.3226822867
  0
POLYLINE
  5
18E
  8
0
  6
CONTINUOUS
 62
     8
 66
     1
 10
0.0
 20
0.0
 30
0.0
 70
   128
  0
VERTEX
  5
6F6
  8
0
  6
CONTINUOUS
 62
     8
 10
1.6447055311
 20
1.9896206987
 30
0.0
  0
VERTEX
  5
6F7
  8
0
  6
CONTINUOUS
 62
     8
 10
1.6901192375
 20
2.0143811707
 30
0.0
  0
VERTEX
  5
6F8
  8
0
  6
CONTINUOUS
 62
     8
 10
1.7379074774
 20
2.0376045763
 30
0.0
  0
VERTEX
  5
6F9
  8
0
  6
CONTINUOUS
 62
     8
 10
1.7879143756
 20
2.0592151658
 30
0.0
  0
VERTEX
  5
6FA
  8
0
  6
CONTINUOUS
 62
     8
 10
1.8399768201
 20
2.0791424499
 30
0.0
  0
VERTEX
  5
6FB
  8
0
  6
CONTINUOUS
 62
     8
 10
1.8939249938
 20
2.0973214299
 30
0.0
  0
VERTEX
  5
6FC
  8
0
  6
CONTINUOUS
 62
     8
 10
1.9495829291
 20
2.1136928098
 30
0.0
  0
VERTEX
  5
6FD
  8
0
  6
CONTINUOUS
 62
     8
 10
2.0067690813
 20
2.1282031895
 30
0.0
  0
VERTEX
  5
6FE
  8
0
  6
CONTINUOUS
 62
     8
 10
2.0652969212
 20
2.1408052392
 30
0.0
  0
VERTEX
  5
6FF
  8
0
  6
CONTINUOUS
 62
     8
 10
2.124975543
 20
2.1514578536
 30
0.0
  0
VERTEX
  5
700
  8
0
  6
CONTINUOUS
 62
     8
 10
2.1856102876
 20
2.1601262861
 30
0.0
  0
VERTEX
  5
701
  8
0
  6
CONTINUOUS
 62
     8
 10
2.2470033769
 20
2.1667822621
 30
0.0
  0
VERTEX
  5
702
  8
0
  6
CONTINUOUS
 62
     8
 10
2.3089545595
 20
2.1714040712
 30
0.0
  0
VERTEX
  5
703
  8
0
  6
CONTINUOUS
 62
     8
 10
2.3712617634
 20
2.1739766379
 30
0.0
  0
VERTEX
  5
704
  8
0
  6
CONTINUOUS
 62
     8
 10
2.4337217557
 20
2.1744915712
 30
0.0
  0
VERTEX
  5
705
  8
0
  6
CONTINUOUS
 62
     8
 10
2.4961308046
 20
2.1729471914
 30
0.0
  0
VERTEX
  5
706
  8
0
  6
CONTINUOUS
 62
     8
 10
2.558285345
 20
2.1693485359
 30
0.0
  0
VERTEX
  5
707
  8
0
  6
CONTINUOUS
 62
     8
 10
2.6199826415
 20
2.1637073428
 30
0.0
  0
VERTEX
  5
708
  8
0
  6
CONTINUOUS
 62
     8
 10
2.6810214505
 20
2.1560420126
 30
0.0
  0
VERTEX
  5
709
  8
0
  6
CONTINUOUS
 62
     8
 10
2.741202676
 20
2.1463775479
 30
0.0
  0
VERTEX
  5
70A
  8
0
  6
CONTINUOUS
 62
     8
 10
2.8003300194
 20
2.1347454722
 30
0.0
  0
VERTEX
  5
70B
  8
0
  6
CONTINUOUS
 62
     8
 10
2.8582106196
 20
2.1211837269
 30
0.0
  0
VERTEX
  5
70C
  8
0
  6
CONTINUOUS
 62
     8
 10
2.9146556821
 20
2.1057365477
 30
0.0
  0
VERTEX
  5
70D
  8
0
  6
CONTINUOUS
 62
     8
 10
2.9694810948
 20
2.0884543199
 30
0.0
  0
VERTEX
  5
70E
  8
0
  6
CONTINUOUS
 62
     8
 10
3.0225080286
 20
2.0693934147
 30
0.0
  0
VERTEX
  5
70F
  8
0
  6
CONTINUOUS
 62
     8
 10
3.0735635208
 20
2.0486160048
 30
0.0
  0
VERTEX
  5
710
  8
0
  6
CONTINUOUS
 62
     8
 10
3.1224810388
 20
2.0261898616
 30
0.0
  0
VERTEX
  5
711
  8
0
  6
CONTINUOUS
 62
     8
 10
3.1691010239
 20
2.0021881348
 30
0.0
  0
VERTEX
  5
712
  8
0
  6
CONTINUOUS
 62
     8
 10
3.2132714114
 20
1.9766891128
 30
0.0
  0
VERTEX
  5
713
  8
0
  6
CONTINUOUS
 62
     8
 10
3.2548481268
 20
1.9497759682
 30
0.0
  0
VERTEX
  5
714
  8
0
  6
CONTINUOUS
 62
     8
 10
3.2936955553
 20
1.9215364862
 30
0.0
  0
VERTEX
  5
715
  8
0
  6
CONTINUOUS
 62
     8
 10
3.3296869847
 20
1.892062778
 30
0.0
  0
VERTEX
  5
716
  8
0
  6
CONTINUOUS
 62
     8
 10
3.3627050186
 20
1.8614509806
 30
0.0
  0
VERTEX
  5
717
  8
0
  6
CONTINUOUS
 62
     8
 10
3.3632702458
 20
1.8608913173
 30
0.0
  0
SEQEND
  5
732
  8
0
  6
CONTINUOUS
 62
     8
  0
ARC
  5
18F
  8
0
  6
CONTINUOUS
 62
     8
 10
2.0568770728
 20
1.2606914035
 30
0.0
 40
0.8373907673695185
 50
119.4858976122
 51
134.2253213577
  0
ENDSEC
  0
EOF
