  0
SECTION
  2
HEADER
  9
$ACADVER
  1
AC1009
  9
$DWGCODEPAGE
  3
ansi_1252
  9
$INSBASE
 10
0.0
 20
0.0
 30
0.0
  9
$EXTMIN
 10
0.0
 20
0.0
 30
0.0
  9
$EXTMAX
 10
11.0
 20
8.5
 30
0.0
  9
$LIMMIN
 10
0.0
 20
0.0
  9
$LIMMAX
 10
11.0
 20
8.5
  9
$ORTHOMODE
 70
     0
  9
$REGENMODE
 70
     1
  9
$FILLMODE
 70
     1
  9
$QTEXTMODE
 70
     0
  9
$MIRRTEXT
 70
     1
  9
$DRAGMODE
 70
     2
  9
$LTSCALE
 40
1.0
  9
$OSMODE
 70
    37
  9
$ATTMODE
 70
     1
  9
$TEXTSIZE
 40
0.094
  9
$TRACEWID
 40
0.05
  9
$TEXTSTYLE
  7
STANDARD
  9
$CLAYER
  8
0
  9
$CELTYPE
  6
BYLAYER
  9
$CECOLOR
 62
   256
  9
$DIMSCALE
 40
1.0
  9
$DIMASZ
 40
0.094
  9
$DIMEXO
 40
0.05
  9
$DIMDLI
 40
0.38
  9
$DIMRND
 40
0.0
  9
$DIMDLE
 40
0.0
  9
$DIMEXE
 40
0.125
  9
$DIMTP
 40
0.0
  9
$DIMTM
 40
0.0
  9
$DIMTXT
 40
0.094
  9
$DIMCEN
 40
0.09
  9
$DIMTSZ
 40
0.0
  9
$DIMTOL
 70
     0
  9
$DIMLIM
 70
     0
  9
$DIMTIH
 70
     1
  9
$DIMTOH
 70
     1
  9
$DIMSE1
 70
     0
  9
$DIMSE2
 70
     0
  9
$DIMTAD
 70
     0
  9
$DIMZIN
 70
     0
  9
$DIMBLK
  1

  9
$DIMASO
 70
     1
  9
$DIMSHO
 70
     1
  9
$DIMPOST
  1

  9
$DIMAPOST
  1

  9
$DIMALT
 70
     0
  9
$DIMALTD
 70
     2
  9
$DIMALTF
 40
25.4
  9
$DIMLFAC
 40
1.0
  9
$DIMTOFL
 70
     0
  9
$DIMTVP
 40
0.0
  9
$DIMTIX
 70
     0
  9
$DIMSOXD
 70
     0
  9
$DIMSAH
 70
     0
  9
$DIMBLK1
  1

  9
$DIMBLK2
  1

  9
$DIMSTYLE
  2
STANDARD
  9
$DIMCLRD
 70
     0
  9
$DIMCLRE
 70
     0
  9
$DIMCLRT
 70
     0
  9
$DIMTFAC
 40
1.0
  9
$DIMGAP
 40
0.06
  9
$LUNITS
 70
     2
  9
$LUPREC
 70
     3
  9
$SKETCHINC
 40
0.1
  9
$FILLETRAD
 40
0.5
  9
$AUNITS
 70
     0
  9
$AUPREC
 70
     0
  9
$MENU
  1
.
  9
$ELEVATION
 40
0.0
  9
$PELEVATION
 40
0.0
  9
$THICKNESS
 40
0.0
  9
$LIMCHECK
 70
     0
  9
$CHAMFERA
 40
0.0
  9
$CHAMFERB
 40
0.0
  9
$SKPOLY
 70
     0
  9
$TDCREATE
 40
2457570.409674178
  9
$TDUPDATE
 40
2457570.409676528
  9
$TDINDWG
 40
0.0000000116
  9
$TDUSRTIMER
 40
0.0000000116
  9
$USRTIMER
 70
     1
  9
$ANGBASE
 50
0.0
  9
$ANGDIR
 70
     0
  9
$PDMODE
 70
     0
  9
$PDSIZE
 40
-1.0
  9
$PLINEWID
 40
0.0
  9
$COORDS
 70
     1
  9
$SPLFRAME
 70
     0
  9
$SPLINETYPE
 70
     6
  9
$SPLINESEGS
 70
     8
  9
$ATTDIA
 70
     0
  9
$ATTREQ
 70
     1
  9
$HANDLING
 70
     1
  9
$HANDSEED
  5
508
  9
$SURFTAB1
 70
     6
  9
$SURFTAB2
 70
     6
  9
$SURFTYPE
 70
     6
  9
$SURFU
 70
     6
  9
$SURFV
 70
     6
  9
$UCSNAME
  2

  9
$UCSORG
 10
0.0
 20
0.0
 30
0.0
  9
$UCSXDIR
 10
1.0
 20
0.0
 30
0.0
  9
$UCSYDIR
 10
0.0
 20
1.0
 30
0.0
  9
$PUCSNAME
  2

  9
$PUCSORG
 10
0.0
 20
0.0
 30
0.0
  9
$PUCSXDIR
 10
1.0
 20
0.0
 30
0.0
  9
$PUCSYDIR
 10
0.0
 20
1.0
 30
0.0
  9
$USERI1
 70
     0
  9
$USERI2
 70
     0
  9
$USERI3
 70
     0
  9
$USERI4
 70
     0
  9
$USERI5
 70
     0
  9
$USERR1
 40
0.0
  9
$USERR2
 40
0.0
  9
$USERR3
 40
0.0
  9
$USERR4
 40
0.0
  9
$USERR5
 40
0.0
  9
$WORLDVIEW
 70
     1
  9
$SHADEDGE
 70
     3
  9
$SHADEDIF
 70
    70
  9
$TILEMODE
 70
     1
  9
$MAXACTVP
 70
    64
  9
$PLIMCHECK
 70
     0
  9
$PEXTMIN
 10
1.0000000000E+20
 20
1.0000000000E+20
 30
1.0000000000E+20
  9
$PEXTMAX
 10
-1.0000000000E+20
 20
-1.0000000000E+20
 30
-1.0000000000E+20
  9
$PLIMMIN
 10
0.0
 20
0.0
  9
$PLIMMAX
 10
12.0
 20
9.0
  9
$UNITMODE
 70
     0
  9
$VISRETAIN
 70
     1
  9
$PLINEGEN
 70
     0
  9
$PSLTSCALE
 70
     1
  0
ENDSEC
  0
SECTION
  2
TABLES
  0
TABLE
  2
VPORT
 70
     1
  0
VPORT
  2
*ACTIVE
 70
     0
 10
0.0
 20
0.0
 11
1.0
 21
1.0
 12
5.5
 22
4.25
 13
0.0
 23
0.0
 14
0.5
 24
0.5
 15
0.5
 25
0.5
 16
0.0
 26
0.0
 36
1.0
 17
0.0
 27
0.0
 37
0.0
 40
8.5
 41
1.2941176471
 42
50.0
 43
0.0
 44
0.0
 50
0.0
 51
0.0
 71
     0
 72
  2000
 73
     1
 74
     3
 75
     0
 76
     0
 77
     0
 78
     0
  0
ENDTAB
  0
TABLE
  2
LTYPE
 70
     6
  0
LTYPE
  2
CONTINUOUS
 70
     0
  3
Solid line
 72
    65
 73
     0
 40
0.0
  0
LTYPE
  2
HIDDEN
 70
     0
  3
Hidden __ __ __ __ __ __ __ __ __ __ __ __ __ __
 72
    65
 73
     2
 40
0.075
 49
0.05
 49
-0.025
  0
LTYPE
  2
PHANTOM
 70
     0
  3
Phantom ______  __  __  ______  __  __  ______
 72
    65
 73
     6
 40
0.5
 49
0.25
 49
-0.05
 49
0.05
 49
-0.05
 49
0.05
 49
-0.05
  0
LTYPE
  2
CENTER
 70
     0
  3
Center ____ _ ____ _ ____ _ ____ _ ____ _ ____
 72
    65
 73
     4
 40
0.4
 49
0.25
 49
-0.05
 49
0.05
 49
-0.05
  0
LTYPE
  2
CENTERX2
 70
     0
  3
Center (2x) ________  __  ________  __  _____
 72
    65
 73
     4
 40
0.8
 49
0.5
 49
-0.1
 49
0.1
 49
-0.1
  0
LTYPE
  2
DOT2
 70
     0
  3
Dot (.5x) ........................................
 72
    65
 73
     2
 40
0.025
 49
0.0
 49
-0.025
  0
ENDTAB
  0
TABLE
  2
LAYER
 70
     2
  0
LAYER
  2
0
 70
     0
 62
     7
  6
CONTINUOUS
  0
LAYER
  2
FORMAT
 70
     0
 62
     7
  6
CONTINUOUS
  0
ENDTAB
  0
TABLE
  2
STYLE
 70
     1
  0
STYLE
  2
STANDARD
 70
     0
 40
0.0
 41
1.0
 50
0.0
 71
     0
 42
0.094
  3
txt
  4

  0
ENDTAB
  0
TABLE
  2
VIEW
 70
     0
  0
ENDTAB
  0
TABLE
  2
UCS
 70
     0
  0
ENDTAB
  0
TABLE
  2
APPID
 70
     1
  0
APPID
  2
ACAD
 70
     0
  0
ENDTAB
  0
TABLE
  2
DIMSTYLE
 70
     2
  0
DIMSTYLE
  2
STANDARD
 70
     0
  3

  4

  5

  6

  7

 40
1.0
 41
0.18
 42
0.0625
 43
0.38
 44
0.18
 45
0.0
 46
0.0
 47
0.0
 48
0.0
140
0.18
141
0.09
142
0.0
143
25.4
144
1.0
145
0.0
146
1.0
147
0.09
 71
     0
 72
     0
 73
     1
 74
     1
 75
     0
 76
     0
 77
     0
 78
     0
170
     0
171
     2
172
     0
173
     0
174
     0
175
     0
176
     0
177
     0
178
     0
  0
DIMSTYLE
  2
SLDDIMSTYLE0
 70
     0
  3

  4

  5

  6

  7

 40
1.0
 41
0.094
 42
0.0625
 43
0.38
 44
0.0
 45
0.000000001
 46
0.0
 47
0.0
 48
0.0
140
0.094
141
0.09
142
0.0
143
25.4
144
1.0
145
0.0
146
1.0
147
0.0235
 71
     0
 72
     0
 73
     1
 74
     1
 75
     0
 76
     0
 77
     0
 78
    12
170
     0
171
     2
172
     0
173
     1
174
     0
175
     0
176
     0
177
     0
178
     0
  0
ENDTAB
  0
ENDSEC
  0
SECTION
  2
BLOCKS
  0
BLOCK
  8
0
  2
$MODEL_SPACE
 70
     0
 10
0.0
 20
0.0
 30
0.0
  3
$MODEL_SPACE
  1

  0
ENDBLK
  5
21
  8
0
  0
BLOCK
 67
     1
  8
0
  2
$PAPER_SPACE
 70
     0
 10
0.0
 20
0.0
 30
0.0
  3
$PAPER_SPACE
  1

  0
ENDBLK
  5
1D
 67
     1
  8
0
  0
BLOCK
  8
0
  2
SW_NOTE_0
 70
     0
 10
0.0
 20
0.0
 30
0.0
  3
SW_NOTE_0
  1

  0
TEXT
  5
8F
  8
0
  6
CONTINUOUS
 62
     0
 10
0.0
 20
0.0595238095
 30
0.0
 40
0.2083333333
  1
Auburn Bearing
 41
0.7
 11
0.0
 21
0.0
 31
0.0
 73
     1
  0
TEXT
  5
90
  8
0
  6
CONTINUOUS
 62
     0
 10
0.3324845058
 20
-0.1309523812
 30
0.0
 40
0.125
  1
& MANUFACTURING
 41
0.7
 11
0.3324845058
 21
-0.1666666669
 31
0.0
 73
     1
  0
TEXT
  5
91
  8
0
  6
CONTINUOUS
 62
     0
 10
0.2038966512
 20
-0.2757936494
 30
0.0
 40
0.1041666667
  1
Made in the USA since 1898
 41
0.6326923077
 11
0.2038966512
 21
-0.3055555542
 31
0.0
 73
     1
  0
ENDBLK
  5
8E
  8
0
  0
BLOCK
  8
0
  2
SW_NOTE_1
 70
     0
 10
0.0
 20
0.0
 30
0.0
  3
SW_NOTE_1
  1

  0
TEXT
  5
97
  8
0
  6
CONTINUOUS
 62
     0
 10
0.0
 20
0.0142857143
 30
0.0
 40
0.05
  1
THE INFORMATION CONTAINED IN THIS DRAWING IS THE SOLE PROPERTY OF AUBURN BALL BEARING.  ANY 
 41
0.6391304348
 11
0.0
 21
0.0
 31
0.0
 73
     1
  0
TEXT
  5
98
  8
0
  6
CONTINUOUS
 62
     0
 10
-0.1618921698
 20
-0.0750843666
 30
0.0
 40
0.05
  1
REPRODUCTION IN WHOLE OR IN PART WITHOUT THE WRITTEN PERMISSION OF AUBURN BALL BEARING IS PROHIBITED.
 41
0.648019802
 11
-0.1618921698
 21
-0.0893700809
 31
0.0
 73
     1
  0
ENDBLK
  5
96
  8
0
  0
BLOCK
  8
0
  2
_D
 70
     0
 10
0.0
 20
0.0
 30
0.0
  3
_D
  1

  0
SOLID
  5
B3
  8
0
  6
CONTINUOUS
 62
     7
 10
4.8857760597
 20
2.4804238581
 30
0.0
 11
4.8713145213
 21
2.3864238581
 31
0.0
 12
4.9002375982
 22
2.3864238581
 32
0.0
 13
4.9002375982
 23
2.3864238581
 33
0.0
  0
SOLID
  5
B4
  8
0
  6
CONTINUOUS
 62
     7
 10
4.8857760597
 20
1.7929238581
 30
0.0
 11
4.9002375982
 21
1.8869238581
 31
0.0
 12
4.8713145213
 22
1.8869238581
 32
0.0
 13
4.8713145213
 23
1.8869238581
 33
0.0
  0
LINE
  5
B5
  8
0
  6
CONTINUOUS
 62
     7
 10
4.206413855
 20
2.4804238581
 30
0.0
 11
5.0107760597
 21
2.4804238581
 31
0.0
  0
LINE
  5
B6
  8
0
  6
CONTINUOUS
 62
     7
 10
4.296413855
 20
1.7929238581
 30
0.0
 11
5.0107760597
 21
1.7929238581
 31
0.0
  0
LINE
  5
B7
  8
0
  6
CONTINUOUS
 62
     7
 10
4.8857760597
 20
2.4804238581
 30
0.0
 11
4.8857760597
 21
2.2356325637
 31
0.0
  0
LINE
  5
B8
  8
0
  6
CONTINUOUS
 62
     7
 10
4.8857760597
 20
1.7929238581
 30
0.0
 11
4.8857760597
 21
2.0864075634
 31
0.0
  0
TEXT
  5
B9
  8
0
  6
CONTINUOUS
 62
     7
 10
4.7642288389
 20
2.1132647086
 30
0.0
 40
0.094
  1
.688
 41
0.7
 11
4.7642288389
 21
2.0864075657
 31
0.0
 73
     1
  0
ENDBLK
  5
B2
  8
0
  0
BLOCK
  8
0
  2
_D_1
 70
     0
 10
0.0
 20
0.0
 30
0.0
  3
_D_1
  1

  0
SOLID
  5
CE
  8
0
  6
CONTINUOUS
 62
     7
 10
2.349538855
 20
3.9996017178
 30
0.0
 11
2.443538855
 21
3.9851401794
 31
0.0
 12
2.443538855
 22
4.0140632563
 32
0.0
 13
2.443538855
 23
4.0140632563
 33
0.0
  0
SOLID
  5
CF
  8
0
  6
CONTINUOUS
 62
     7
 10
3.787038855
 20
3.9996017178
 30
0.0
 11
3.693038855
 21
4.0140632563
 31
0.0
 12
3.693038855
 22
3.9851401794
 32
0.0
 13
3.693038855
 23
3.9851401794
 33
0.0
  0
LINE
  5
D0
  8
0
  6
CONTINUOUS
 62
     7
 10
2.349538855
 20
5.5464275052
 30
0.0
 11
2.349538855
 21
3.8746017178
 31
0.0
  0
LINE
  5
D1
  8
0
  6
CONTINUOUS
 62
     7
 10
3.787038855
 20
5.5464275052
 30
0.0
 11
3.787038855
 21
3.8746017178
 31
0.0
  0
LINE
  5
D2
  8
0
  6
CONTINUOUS
 62
     7
 10
2.349538855
 20
3.9996017178
 30
0.0
 11
2.7640081839
 21
3.9996017178
 31
0.0
  0
LINE
  5
D3
  8
0
  6
CONTINUOUS
 62
     7
 10
3.787038855
 20
3.9996017178
 30
0.0
 11
3.2183218923
 21
3.9996017178
 31
0.0
  0
TEXT
  5
D4
  8
0
  6
CONTINUOUS
 62
     7
 10
2.7640081839
 20
3.9511283049
 30
-0.9375
 40
0.094
  1
%%c
 41
0.7
 11
2.7640081839
 21
3.924271162
 31
-0.9375
 73
     1
  0
TEXT
  5
D5
  8
0
  6
CONTINUOUS
 62
     7
 10
2.9057719338
 20
3.9525644162
 30
-0.9375
 40
0.094
  1
1.438
 41
0.7
 11
2.9057719338
 21
3.9257072734
 31
-0.9375
 73
     1
  0
ENDBLK
  5
CD
  8
0
  0
BLOCK
  8
0
  2
_D_2
 70
     0
 10
0.0
 20
0.0
 30
0.0
  3
_D_2
  1

  0
SOLID
  5
DA
  8
0
  6
CONTINUOUS
 62
     7
 10
1.865163855
 20
7.1932532926
 30
0.0
 11
1.959163855
 21
7.1787917542
 31
0.0
 12
1.959163855
 22
7.2077148311
 32
0.0
 13
1.959163855
 23
7.2077148311
 33
0.0
  0
SOLID
  5
DB
  8
0
  6
CONTINUOUS
 62
     7
 10
4.271413855
 20
7.1932532926
 30
0.0
 11
4.177413855
 21
7.2077148311
 31
0.0
 12
4.177413855
 22
7.1787917542
 32
0.0
 13
4.177413855
 23
7.1787917542
 33
0.0
  0
LINE
  5
DC
  8
0
  6
CONTINUOUS
 62
     7
 10
1.865163855
 20
5.6464275052
 30
0.0
 11
1.865163855
 21
7.3182532926
 31
0.0
  0
LINE
  5
DD
  8
0
  6
CONTINUOUS
 62
     7
 10
4.271413855
 20
5.6464275052
 30
0.0
 11
4.271413855
 21
7.3182532926
 31
0.0
  0
LINE
  5
DE
  8
0
  6
CONTINUOUS
 62
     7
 10
1.865163855
 20
7.1932532926
 30
0.0
 11
2.8672796493
 21
7.1932532926
 31
0.0
  0
LINE
  5
DF
  8
0
  6
CONTINUOUS
 62
     7
 10
4.271413855
 20
7.1932532926
 30
0.0
 11
3.3215933577
 21
7.1932532926
 31
0.0
  0
TEXT
  5
E0
  8
0
  6
CONTINUOUS
 62
     7
 10
2.8672796493
 20
7.1447798797
 30
-0.9375
 40
0.094
  1
%%c
 41
0.7
 11
2.8672796493
 21
7.1179227368
 31
-0.9375
 73
     1
  0
TEXT
  5
E1
  8
0
  6
CONTINUOUS
 62
     7
 10
3.0090433992
 20
7.146215991
 30
-0.9375
 40
0.094
  1
2.406
 41
0.7
 11
3.0090433992
 21
7.1193588482
 31
-0.9375
 73
     1
  0
ENDBLK
  5
D9
  8
0
  0
ENDSEC
  0
SECTION
  2
ENTITIES
  0
LINE
  5
75
  8
0
  6
CONTINUOUS
 62
     7
 10
0.2588915831
 20
8.1920731707
 30
0.0
 11
10.629927
 21
8.1920731707
 31
0.0
  0
LINE
  5
76
  8
0
  6
CONTINUOUS
 62
     7
 10
0.2588915831
 20
8.1920731707
 30
0.0
 11
0.2588915831
 21
0.3920731707
 31
0.0
  0
LINE
  5
77
  8
0
  6
CONTINUOUS
 62
     7
 10
10.629927
 20
0.3920731707
 30
0.0
 11
0.2588915831
 21
0.3920731707
 31
0.0
  0
LINE
  5
78
  8
0
  6
CONTINUOUS
 62
     7
 10
10.629927
 20
0.3920731707
 30
0.0
 11
10.629927
 21
8.1920731707
 31
0.0
  0
LINE
  5
79
  8
0
  6
CONTINUOUS
 62
     7
 10
6.895369671
 20
0.6920731707
 30
0.0
 11
6.895369671
 21
0.3920731707
 31
0.0
  0
LINE
  5
7A
  8
0
  6
CONTINUOUS
 62
     7
 10
6.895369671
 20
2.2538646663
 30
0.0
 11
6.895369671
 21
0.6920731707
 31
0.0
  0
LINE
  5
7B
  8
0
  6
CONTINUOUS
 62
     7
 10
6.895369671
 20
0.6920731707
 30
0.0
 11
10.629927
 21
0.6920731707
 31
0.0
  0
LINE
  5
7C
  8
0
  6
CONTINUOUS
 62
     7
 10
6.895369671
 20
1.2938884062
 30
0.0
 11
10.629927
 21
1.2938884062
 31
0.0
  0
LINE
  5
7D
  8
0
  6
CONTINUOUS
 62
     7
 10
7.4789412454
 20
1.0420731707
 30
0.0
 11
10.629927
 21
1.0420731707
 31
0.0
  0
LINE
  5
7E
  8
0
  6
CONTINUOUS
 62
     7
 10
7.4789412454
 20
1.0420731707
 30
0.0
 11
6.895369671
 21
1.0420731707
 31
0.0
  0
LINE
  5
7F
  8
0
  6
CONTINUOUS
 62
     7
 10
10.629927
 20
2.2538646663
 30
0.0
 11
5.7428859
 21
2.2538646663
 31
0.0
  0
LINE
  5
80
  8
0
  6
CONTINUOUS
 62
     7
 10
6.7188368717
 20
0.6155953096
 30
0.0
 11
6.4188368717
 21
0.6155953096
 31
0.0
  0
LINE
  5
81
  8
0
  6
CONTINUOUS
 62
     7
 10
5.9688368717
 20
0.7405953096
 30
0.0
 11
5.9688368717
 21
0.4905953096
 31
0.0
  0
LINE
  5
82
  8
0
  6
CONTINUOUS
 62
     7
 10
5.9688368717
 20
0.7405953096
 30
0.0
 11
6.2688368717
 21
0.6780953096
 31
0.0
  0
LINE
  5
83
  8
0
  6
CONTINUOUS
 62
     7
 10
6.2688368717
 20
0.6780953096
 30
0.0
 11
6.2688368717
 21
0.5530953096
 31
0.0
  0
LINE
  5
84
  8
0
  6
CONTINUOUS
 62
     7
 10
6.2688368717
 20
0.5530953096
 30
0.0
 11
5.9688368717
 21
0.4905953096
 31
0.0
  0
LINE
  5
85
  8
0
  6
CONTINUOUS
 62
     7
 10
6.5688368717
 20
0.7655953096
 30
0.0
 11
6.5688368717
 21
0.4655953096
 31
0.0
  0
LINE
  5
86
  8
0
  6
CONTINUOUS
 62
     7
 10
6.2938368717
 20
0.6155953096
 30
0.0
 11
5.9438368717
 21
0.6155953096
 31
0.0
  0
LINE
  5
87
  8
0
  6
CONTINUOUS
 62
     7
 10
6.895369671
 20
0.8670731707
 30
0.0
 11
5.7428859
 21
0.8670731707
 31
0.0
  0
LINE
  5
88
  8
0
  6
CONTINUOUS
 62
     7
 10
5.7428859
 20
0.3920731707
 30
0.0
 11
5.7428859
 21
2.2538646663
 31
0.0
  0
CIRCLE
  5
89
  8
0
  6
CONTINUOUS
 62
     7
 10
6.5688368717
 20
0.6155953096
 30
0.0
 40
0.1250000000000005
  0
CIRCLE
  5
8A
  8
0
  6
CONTINUOUS
 62
     7
 10
6.5688368717
 20
0.6155953096
 30
0.0
 40
0.0624999999999998
  0
TEXT
  5
8B
  8
0
  6
CONTINUOUS
 62
     7
 10
6.9454407988
 20
0.9317074042
 30
0.0
 40
0.0833333333
  1
ITEM NUMBER
 41
0.7
 11
6.9454407988
 21
0.9078978804
 31
0.0
 73
     1
  0
INSERT
  5
92
  8
0
  6
CONTINUOUS
 62
     7
  2
SW_NOTE_0
 10
7.6846410003
 20
1.7911336193
 30
0.0
  0
TEXT
  5
93
  8
0
  6
CONTINUOUS
 62
     7
 10
6.9585720202
 20
1.2010031148
 30
0.0
 40
0.065
  1
DESCRIPTION
 41
0.7
 11
6.9585720202
 21
1.1824316862
 31
0.0
 73
     1
  0
INSERT
  5
99
  8
0
  6
CONTINUOUS
 62
     7
  2
SW_NOTE_1
 10
7.1289909583
 20
0.5372783317
 30
0.0
  0
TEXT
  5
9A
  8
0
  6
CONTINUOUS
 62
     7
 10
9.0934941975
 20
1.1196799494
 30
0.0
 40
0.094
  1
Thrust Bearing, Enclosed
 41
0.6708333333
 11
9.0934941975
 21
1.0928228066
 31
0.0
 73
     1
  0
TEXT
  5
9B
  8
0
  6
CONTINUOUS
 62
     7
 10
9.5076037807
 20
0.7720958494
 30
0.0
 40
0.19
  1
T-100-18
 41
0.7
 11
9.5076037807
 21
0.7178101351
 31
0.0
 73
     1
  0
ARC
  5
9C
  8
0
  6
CONTINUOUS
 62
     7
 10
1.885163855
 20
2.4454238581
 30
0.0
 40
0.02
 50
90.0
 51
180.0
  0
ARC
  5
9D
  8
0
  6
CONTINUOUS
 62
     7
 10
4.251413855
 20
2.4454238581
 30
0.0
 40
0.02
 50
0.0
 51
90.0
  0
LINE
  5
9E
  8
0
  6
CONTINUOUS
 62
     7
 10
1.865163855
 20
2.4454238581
 30
0.0
 11
1.865163855
 21
1.8079238581
 31
0.0
  0
LINE
  5
9F
  8
0
  6
CONTINUOUS
 62
     7
 10
4.271413855
 20
1.8079238581
 30
0.0
 11
4.271413855
 21
2.4454238581
 31
0.0
  0
LINE
  5
A0
  8
0
  6
CONTINUOUS
 62
     7
 10
1.865163855
 20
1.8079238581
 30
0.0
 11
1.880163855
 21
1.7929238581
 31
0.0
  0
LINE
  5
A1
  8
0
  6
CONTINUOUS
 62
     7
 10
4.256413855
 20
1.7929238581
 30
0.0
 11
4.271413855
 21
1.8079238581
 31
0.0
  0
LINE
  5
A2
  8
0
  6
CONTINUOUS
 62
     7
 10
4.171413855
 20
2.4654238581
 30
0.0
 11
4.156413855
 21
2.4804238581
 31
0.0
  0
LINE
  5
A3
  8
0
  6
CONTINUOUS
 62
     7
 10
1.980163855
 20
2.4804238581
 30
0.0
 11
1.965163855
 21
2.4654238581
 31
0.0
  0
LINE
  5
A4
  8
0
  6
CONTINUOUS
 62
     7
 10
3.068288855
 20
2.4654238581
 30
0.0
 11
4.251413855
 21
2.4654238581
 31
0.0
  0
LINE
  5
A5
  8
0
  6
CONTINUOUS
 62
     7
 10
1.885163855
 20
2.4654238581
 30
0.0
 11
3.068288855
 21
2.4654238581
 31
0.0
  0
LINE
  5
A6
  8
0
  6
CONTINUOUS
 62
     7
 10
3.068288855
 20
1.8079238581
 30
0.0
 11
4.271413855
 21
1.8079238581
 31
0.0
  0
LINE
  5
A7
  8
0
  6
CONTINUOUS
 62
     7
 10
1.865163855
 20
1.8079238581
 30
0.0
 11
3.068288855
 21
1.8079238581
 31
0.0
  0
LINE
  5
A8
  8
0
  6
CONTINUOUS
 62
     7
 10
3.068288855
 20
1.7929238581
 30
0.0
 11
4.256413855
 21
1.7929238581
 31
0.0
  0
LINE
  5
A9
  8
0
  6
CONTINUOUS
 62
     7
 10
1.880163855
 20
1.7929238581
 30
0.0
 11
3.068288855
 21
1.7929238581
 31
0.0
  0
LINE
  5
AA
  8
0
  6
CONTINUOUS
 62
     7
 10
3.068288855
 20
2.4804238581
 30
0.0
 11
4.156413855
 21
2.4804238581
 31
0.0
  0
LINE
  5
AB
  8
0
  6
CONTINUOUS
 62
     7
 10
1.980163855
 20
2.4804238581
 30
0.0
 11
3.068288855
 21
2.4804238581
 31
0.0
  0
LINE
  5
AC
  8
0
  6
CONTINUOUS
 62
     8
 10
3.068288855
 20
2.4454238581
 30
0.0
 11
4.271413855
 21
2.4454238581
 31
0.0
  0
LINE
  5
AD
  8
0
  6
CONTINUOUS
 62
     8
 10
1.865163855
 20
2.4454238581
 30
0.0
 11
3.068288855
 21
2.4454238581
 31
0.0
  0
DIMENSION
  5
AE
  8
0
  6
CONTINUOUS
 62
     7
  2
_D
 10
4.8857760597
 20
1.7929238581
 30
0.0
 11
4.8857760597
 21
2.1610200636
 31
0.0
 70
   160
  1
<>
  3
SLDDIMSTYLE0
 13
4.156413855
 23
2.4804238581
 33
0.0
 14
4.246413855
 24
1.7929238581
 34
0.0
 50
90.0
  0
CIRCLE
  5
BA
  8
0
  6
CONTINUOUS
 62
     7
 10
3.068288855
 20
5.5964275052
 30
0.0
 40
1.203125
  0
CIRCLE
  5
BB
  8
0
  6
CONTINUOUS
 62
     7
 10
3.068288855
 20
5.5964275052
 30
0.0
 40
1.183125
  0
CIRCLE
  5
BC
  8
0
  6
CONTINUOUS
 62
     7
 10
3.068288855
 20
5.5964275052
 30
0.0
 40
1.123125
  0
CIRCLE
  5
BD
  8
0
  6
CONTINUOUS
 62
     7
 10
3.068288855
 20
5.5964275052
 30
0.0
 40
1.088125
  0
CIRCLE
  5
BE
  8
0
  6
CONTINUOUS
 62
     7
 10
3.068288855
 20
5.5964275052
 30
0.0
 40
0.7387500000000005
  0
CIRCLE
  5
BF
  8
0
  6
CONTINUOUS
 62
     7
 10
3.068288855
 20
5.5964275052
 30
0.0
 40
0.71875
  0
CIRCLE
  5
C0
  8
0
  6
HIDDEN
 62
     7
 10
3.068288855
 20
5.5964275052
 30
0.0
 40
1.183125
  0
CIRCLE
  5
C1
  8
0
  6
HIDDEN
 62
     7
 10
3.068288855
 20
5.5964275052
 30
0.0
 40
1.178125
  0
CIRCLE
  5
C2
  8
0
  6
HIDDEN
 62
     7
 10
3.068288855
 20
5.5964275052
 30
0.0
 40
1.188125
  0
CIRCLE
  5
C3
  8
0
  6
HIDDEN
 62
     7
 10
3.068288855
 20
5.5964275052
 30
0.0
 40
1.176124999999999
  0
CIRCLE
  5
C4
  8
0
  6
HIDDEN
 62
     7
 10
3.068288855
 20
5.5964275052
 30
0.0
 40
1.142875
  0
CIRCLE
  5
C5
  8
0
  6
HIDDEN
 62
     7
 10
3.068288855
 20
5.5964275052
 30
0.0
 40
0.8928749999999992
  0
CIRCLE
  5
C6
  8
0
  6
HIDDEN
 62
     7
 10
3.068288855
 20
6.6143025052
 30
0.0
 40
0.1562499999999991
  0
CIRCLE
  5
C7
  8
0
  6
HIDDEN
 62
     7
 10
4.086163855
 20
5.5964275052
 30
0.0
 40
0.1562500000000009
  0
CIRCLE
  5
C8
  8
0
  6
HIDDEN
 62
     7
 10
3.068288855
 20
4.5785525052
 30
0.0
 40
0.1562499999999991
  0
CIRCLE
  5
C9
  8
0
  6
HIDDEN
 62
     7
 10
2.050413855
 20
5.5964275052
 30
0.0
 40
0.1562499999999991
  0
DIMENSION
  5
CA
  8
0
  6
CONTINUOUS
 62
     7
  2
_D_1
 10
3.787038855
 20
3.9996017178
 30
0.0
 11
2.9911650381
 21
3.9996017178
 31
0.0
 70
   160
  1
%%c<>
  3
SLDDIMSTYLE0
 13
2.349538855
 23
5.5964275052
 33
0.0
 14
3.787038855
 24
5.5964275052
 34
0.0
  0
DIMENSION
  5
D6
  8
0
  6
CONTINUOUS
 62
     7
  2
_D_2
 10
4.271413855
 20
7.1932532926
 30
0.0
 11
3.0944365035
 21
7.1932532926
 31
0.0
 70
   160
  1
%%c<>
  3
SLDDIMSTYLE0
 13
1.865163855
 23
5.5964275052
 33
0.0
 14
4.271413855
 24
5.5964275052
 34
0.0
  0
POLYLINE
  5
E2
  8
0
  6
CONTINUOUS
 62
     7
 66
     1
 10
0.0
 20
0.0
 30
0.0
 70
   128
  0
VERTEX
  5
FC
  8
0
  6
CONTINUOUS
 62
     7
 10
9.0589164473
 20
5.7009369362
 30
0.0
  0
VERTEX
  5
FD
  8
0
  6
CONTINUOUS
 62
     7
 10
9.0588456266
 20
5.7016571298
 30
0.0
  0
VERTEX
  5
FE
  8
0
  6
CONTINUOUS
 62
     7
 10
9.0537955311
 20
5.7312513839
 30
0.0
  0
VERTEX
  5
FF
  8
0
  6
CONTINUOUS
 62
     7
 10
9.0466243362
 20
5.7606897839
 30
0.0
  0
VERTEX
  5
100
  8
0
  6
CONTINUOUS
 62
     7
 10
9.0373419163
 20
5.7899251958
 30
0.0
  0
VERTEX
  5
101
  8
0
  6
CONTINUOUS
 62
     7
 10
9.0259605672
 20
5.8189093459
 30
0.0
  0
VERTEX
  5
102
  8
0
  6
CONTINUOUS
 62
     7
 10
9.0124957998
 20
5.8475925042
 30
0.0
  0
VERTEX
  5
103
  8
0
  6
CONTINUOUS
 62
     7
 10
8.9969671203
 20
5.8759235293
 30
0.0
  0
VERTEX
  5
104
  8
0
  6
CONTINUOUS
 62
     7
 10
8.9793986474
 20
5.9038502266
 30
0.0
  0
VERTEX
  5
105
  8
0
  6
CONTINUOUS
 62
     7
 10
8.9598194766
 20
5.9313199177
 30
0.0
  0
VERTEX
  5
106
  8
0
  6
CONTINUOUS
 62
     7
 10
8.9382637668
 20
5.958280098
 30
0.0
  0
VERTEX
  5
107
  8
0
  6
CONTINUOUS
 62
     7
 10
8.9147705886
 20
5.9846790685
 30
0.0
  0
VERTEX
  5
108
  8
0
  6
CONTINUOUS
 62
     7
 10
8.8893836027
 20
6.0104664652
 30
0.0
  0
VERTEX
  5
109
  8
0
  6
CONTINUOUS
 62
     7
 10
8.8621506504
 20
6.0355936471
 30
0.0
  0
VERTEX
  5
10A
  8
0
  6
CONTINUOUS
 62
     7
 10
8.8331233247
 20
6.0600139402
 30
0.0
  0
VERTEX
  5
10B
  8
0
  6
CONTINUOUS
 62
     7
 10
8.8023565719
 20
6.0836827579
 30
0.0
  0
VERTEX
  5
10C
  8
0
  6
CONTINUOUS
 62
     7
 10
8.7699083503
 20
6.1065576322
 30
0.0
  0
VERTEX
  5
10D
  8
0
  6
CONTINUOUS
 62
     7
 10
8.7358393524
 20
6.1285981852
 30
0.0
  0
VERTEX
  5
10E
  8
0
  6
CONTINUOUS
 62
     7
 10
8.7002127892
 20
6.1497660726
 30
0.0
  0
VERTEX
  5
10F
  8
0
  6
CONTINUOUS
 62
     7
 10
8.6630950496
 20
6.1700244857
 30
0.0
  0
VERTEX
  5
110
  8
0
  6
CONTINUOUS
 62
     7
 10
8.6245537967
 20
6.1893391198
 30
0.0
  0
VERTEX
  5
111
  8
0
  6
CONTINUOUS
 62
     7
 10
8.5846587872
 20
6.2076775051
 30
0.0
  0
VERTEX
  5
112
  8
0
  6
CONTINUOUS
 62
     7
 10
8.5434818099
 20
6.2250089643
 30
0.0
  0
VERTEX
  5
113
  8
0
  6
CONTINUOUS
 62
     7
 10
8.5010966035
 20
6.2413046004
 30
0.0
  0
VERTEX
  5
114
  8
0
  6
CONTINUOUS
 62
     7
 10
8.457578773
 20
6.2565372983
 30
0.0
  0
VERTEX
  5
115
  8
0
  6
CONTINUOUS
 62
     7
 10
8.4130057002
 20
6.270681738
 30
0.0
  0
VERTEX
  5
116
  8
0
  6
CONTINUOUS
 62
     7
 10
8.3674564481
 20
6.2837144151
 30
0.0
  0
VERTEX
  5
117
  8
0
  6
CONTINUOUS
 62
     7
 10
8.3210116567
 20
6.2956136678
 30
0.0
  0
VERTEX
  5
118
  8
0
  6
CONTINUOUS
 62
     7
 10
8.2737534324
 20
6.3063597066
 30
0.0
  0
VERTEX
  5
119
  8
0
  6
CONTINUOUS
 62
     7
 10
8.225765228
 20
6.3159346455
 30
0.0
  0
VERTEX
  5
11A
  8
0
  6
CONTINUOUS
 62
     7
 10
8.1771317171
 20
6.3243225339
 30
0.0
  0
VERTEX
  5
11B
  8
0
  6
CONTINUOUS
 62
     7
 10
8.1279386615
 20
6.331509386
 30
0.0
  0
VERTEX
  5
11C
  8
0
  6
CONTINUOUS
 62
     7
 10
8.078272773
 20
6.3374832089
 30
0.0
  0
VERTEX
  5
11D
  8
0
  6
CONTINUOUS
 62
     7
 10
8.0282215708
 20
6.3422340273
 30
0.0
  0
VERTEX
  5
11E
  8
0
  6
CONTINUOUS
 62
     7
 10
7.9778732347
 20
6.3457539043
 30
0.0
  0
VERTEX
  5
11F
  8
0
  6
CONTINUOUS
 62
     7
 10
7.9273164549
 20
6.348036959
 30
0.0
  0
VERTEX
  5
120
  8
0
  6
CONTINUOUS
 62
     7
 10
7.8766402793
 20
6.3490793792
 30
0.0
  0
VERTEX
  5
121
  8
0
  6
CONTINUOUS
 62
     7
 10
7.8259339597
 20
6.3488794293
 30
0.0
  0
VERTEX
  5
122
  8
0
  6
CONTINUOUS
 62
     7
 10
7.7752868427
 20
6.3474374563
 30
0.0
  0
VERTEX
  5
123
  8
0
  6
CONTINUOUS
 62
     7
 10
7.7247883642
 20
6.3447559037
 30
0.0
  0
VERTEX
  5
124
  8
0
  6
CONTINUOUS
 62
     7
 10
7.6745274467
 20
6.34083929
 30
0.0
  0
VERTEX
  5
125
  8
0
  6
CONTINUOUS
 62
     7
 10
7.6245925909
 20
6.3356941956
 30
0.0
  0
VERTEX
  5
126
  8
0
  6
CONTINUOUS
 62
     7
 10
7.5750717217
 20
6.3293292466
 30
0.0
  0
VERTEX
  5
127
  8
0
  6
CONTINUOUS
 62
     7
 10
7.5260520374
 20
6.3217550943
 30
0.0
  0
VERTEX
  5
128
  8
0
  6
CONTINUOUS
 62
     7
 10
7.4776198609
 20
6.3129843901
 30
0.0
  0
VERTEX
  5
129
  8
0
  6
CONTINUOUS
 62
     7
 10
7.4298604953
 20
6.3030317562
 30
0.0
  0
VERTEX
  5
12A
  8
0
  6
CONTINUOUS
 62
     7
 10
7.3828580833
 20
6.2919137518
 30
0.0
  0
VERTEX
  5
12B
  8
0
  6
CONTINUOUS
 62
     7
 10
7.336695472
 20
6.2796488365
 30
0.0
  0
VERTEX
  5
12C
  8
0
  6
CONTINUOUS
 62
     7
 10
7.2914540845
 20
6.266257331
 30
0.0
  0
VERTEX
  5
12D
  8
0
  6
CONTINUOUS
 62
     7
 10
7.2472137982
 20
6.2517613753
 30
0.0
  0
VERTEX
  5
12E
  8
0
  6
CONTINUOUS
 62
     7
 10
7.2040528306
 20
6.2361848873
 30
0.0
  0
VERTEX
  5
12F
  8
0
  6
CONTINUOUS
 62
     7
 10
7.1620476349
 20
6.2195535212
 30
0.0
  0
VERTEX
  5
130
  8
0
  6
CONTINUOUS
 62
     7
 10
7.1212728049
 20
6.2018946305
 30
0.0
  0
VERTEX
  5
131
  8
0
  6
CONTINUOUS
 62
     7
 10
7.0818009893
 20
6.183237235
 30
0.0
  0
VERTEX
  5
132
  8
0
  6
CONTINUOUS
 62
     7
 10
7.0437028163
 20
6.1636119978
 30
0.0
  0
VERTEX
  5
133
  8
0
  6
CONTINUOUS
 62
     7
 10
7.0070468273
 20
6.1430512146
 30
0.0
  0
VERTEX
  5
134
  8
0
  6
CONTINUOUS
 62
     7
 10
6.971899417
 20
6.1215888193
 30
0.0
  0
VERTEX
  5
135
  8
0
  6
CONTINUOUS
 62
     7
 10
6.9383247763
 20
6.0992604114
 30
0.0
  0
VERTEX
  5
136
  8
0
  6
CONTINUOUS
 62
     7
 10
6.906385127
 20
6.0761035322
 30
0.0
  0
VERTEX
  5
137
  8
0
  6
CONTINUOUS
 62
     7
 10
6.8761406854
 20
6.0521578792
 30
0.0
  0
VERTEX
  5
138
  8
0
  6
CONTINUOUS
 62
     7
 10
6.8476486762
 20
6.027464767
 30
0.0
  0
VERTEX
  5
139
  8
0
  6
CONTINUOUS
 62
     7
 10
6.8209637027
 20
6.00206759
 30
0.0
  0
VERTEX
  5
13A
  8
0
  6
CONTINUOUS
 62
     7
 10
6.7961375309
 20
5.9760119536
 30
0.0
  0
VERTEX
  5
13B
  8
0
  6
CONTINUOUS
 62
     7
 10
6.7732187985
 20
5.9493457851
 30
0.0
  0
VERTEX
  5
13C
  8
0
  6
CONTINUOUS
 62
     7
 10
6.7522526409
 20
5.9221193886
 30
0.0
  0
VERTEX
  5
13D
  8
0
  6
CONTINUOUS
 62
     7
 10
6.7332802411
 20
5.8943853996
 30
0.0
  0
VERTEX
  5
13E
  8
0
  6
CONTINUOUS
 62
     7
 10
6.7163383294
 20
5.866198592
 30
0.0
  0
VERTEX
  5
13F
  8
0
  6
CONTINUOUS
 62
     7
 10
6.7014586895
 20
5.8376154985
 30
0.0
  0
VERTEX
  5
140
  8
0
  6
CONTINUOUS
 62
     7
 10
6.6886677471
 20
5.8086938311
 30
0.0
  0
VERTEX
  5
141
  8
0
  6
CONTINUOUS
 62
     7
 10
6.6779863374
 20
5.7794917281
 30
0.0
  0
VERTEX
  5
142
  8
0
  6
CONTINUOUS
 62
     7
 10
6.6694297354
 20
5.750066906
 30
0.0
  0
VERTEX
  5
143
  8
0
  6
CONTINUOUS
 62
     7
 10
6.6630079967
 20
5.72047584
 30
0.0
  0
VERTEX
  5
144
  8
0
  6
CONTINUOUS
 62
     7
 10
6.6609037671
 20
5.7058775142
 30
0.0
  0
SEQEND
  5
4F8
  8
0
  6
CONTINUOUS
 62
     7
  0
LINE
  5
E3
  8
0
  6
CONTINUOUS
 62
     7
 10
6.65632057
 20
5.6461472923
 30
0.0
 11
6.65632057
 21
5.1256025247
 31
0.0
  0
LINE
  5
E4
  8
0
  6
CONTINUOUS
 62
     7
 10
9.06257057
 20
5.1256025247
 30
0.0
 11
9.06257057
 21
5.6461472923
 31
0.0
  0
LINE
  5
E5
  8
0
  6
CONTINUOUS
 62
     7
 10
7.0085694887
 20
4.6345618344
 30
0.0
 11
7.0191778139
 21
4.6284357879
 31
0.0
  0
LINE
  5
E6
  8
0
  6
CONTINUOUS
 62
     7
 10
8.699713326
 20
4.6284357879
 30
0.0
 11
8.7103216512
 21
4.6345618344
 31
0.0
  0
LINE
  5
E7
  8
0
  6
CONTINUOUS
 62
     7
 10
8.653743917
 20
6.1045369653
 30
0.0
 11
8.6289911583
 21
6.1188310737
 31
0.0
  0
LINE
  5
E8
  8
0
  6
CONTINUOUS
 62
     7
 10
7.0898999817
 20
6.1188310737
 30
0.0
 11
7.065147223
 21
6.1045369653
 31
0.0
  0
ARC
  5
E9
  8
0
  6
CONTINUOUS
 62
     7
 10
8.6601233599
 20
5.6461445392
 30
0.0
 40
0.4024447690098382
 50
352.0955778663
 51
7.5738483828
  0
ARC
  5
EA
  8
0
  6
CONTINUOUS
 62
     7
 10
7.0593450247
 20
5.6461465271
 30
0.0
 40
0.4030175528129565
 50
171.746702152
 51
188.3691087791
  0
POLYLINE
  5
EB
  8
0
  6
CONTINUOUS
 62
     7
 66
     1
 10
0.0
 20
0.0
 30
0.0
 70
   128
  0
VERTEX
  5
145
  8
0
  6
CONTINUOUS
 62
     7
 10
7.0228498595
 20
5.1795216849
 30
0.0
  0
VERTEX
  5
146
  8
0
  6
CONTINUOUS
 62
     7
 10
7.0612259803
 20
5.1583402319
 30
0.0
  0
VERTEX
  5
147
  8
0
  6
CONTINUOUS
 62
     7
 10
7.1012096092
 20
5.1381740454
 30
0.0
  0
VERTEX
  5
148
  8
0
  6
CONTINUOUS
 62
     7
 10
7.1427202244
 20
5.1190637376
 30
0.0
  0
VERTEX
  5
149
  8
0
  6
CONTINUOUS
 62
     7
 10
7.185674229
 20
5.101047794
 30
0.0
  0
VERTEX
  5
14A
  8
0
  6
CONTINUOUS
 62
     7
 10
7.2299851194
 20
5.0841624963
 30
0.0
  0
VERTEX
  5
14B
  8
0
  6
CONTINUOUS
 62
     7
 10
7.2755636595
 20
5.0684418493
 30
0.0
  0
VERTEX
  5
14C
  8
0
  6
CONTINUOUS
 62
     7
 10
7.32231806
 20
5.0539175123
 30
0.0
  0
VERTEX
  5
14D
  8
0
  6
CONTINUOUS
 62
     7
 10
7.3701541638
 20
5.0406187353
 30
0.0
  0
VERTEX
  5
14E
  8
0
  6
CONTINUOUS
 62
     7
 10
7.4189756354
 20
5.0285723004
 30
0.0
  0
VERTEX
  5
14F
  8
0
  6
CONTINUOUS
 62
     7
 10
7.4686841548
 20
5.0178024674
 30
0.0
  0
VERTEX
  5
150
  8
0
  6
CONTINUOUS
 62
     7
 10
7.5191796157
 20
5.0083309253
 30
0.0
  0
VERTEX
  5
151
  8
0
  6
CONTINUOUS
 62
     7
 10
7.570360327
 20
5.0001767486
 30
0.0
  0
VERTEX
  5
152
  8
0
  6
CONTINUOUS
 62
     7
 10
7.6221232174
 20
4.9933563587
 30
0.0
  0
VERTEX
  5
153
  8
0
  6
CONTINUOUS
 62
     7
 10
7.6743640435
 20
4.9878834909
 30
0.0
  0
VERTEX
  5
154
  8
0
  6
CONTINUOUS
 62
     7
 10
7.7269775992
 20
4.983769167
 30
0.0
  0
VERTEX
  5
155
  8
0
  6
CONTINUOUS
 62
     7
 10
7.7798579277
 20
4.9810216725
 30
0.0
  0
VERTEX
  5
156
  8
0
  6
CONTINUOUS
 62
     7
 10
7.8328985352
 20
4.9796465406
 30
0.0
  0
VERTEX
  5
157
  8
0
  6
CONTINUOUS
 62
     7
 10
7.8859926048
 20
4.9796465406
 30
0.0
  0
VERTEX
  5
158
  8
0
  6
CONTINUOUS
 62
     7
 10
7.9390332122
 20
4.9810216725
 30
0.0
  0
VERTEX
  5
159
  8
0
  6
CONTINUOUS
 62
     7
 10
7.9919135408
 20
4.983769167
 30
0.0
  0
VERTEX
  5
15A
  8
0
  6
CONTINUOUS
 62
     7
 10
8.0445270964
 20
4.9878834909
 30
0.0
  0
VERTEX
  5
15B
  8
0
  6
CONTINUOUS
 62
     7
 10
8.0967679225
 20
4.9933563587
 30
0.0
  0
VERTEX
  5
15C
  8
0
  6
CONTINUOUS
 62
     7
 10
8.148530813
 20
5.0001767486
 30
0.0
  0
VERTEX
  5
15D
  8
0
  6
CONTINUOUS
 62
     7
 10
8.1997115242
 20
5.0083309253
 30
0.0
  0
VERTEX
  5
15E
  8
0
  6
CONTINUOUS
 62
     7
 10
8.2502069851
 20
5.0178024674
 30
0.0
  0
VERTEX
  5
15F
  8
0
  6
CONTINUOUS
 62
     7
 10
8.2999155046
 20
5.0285723004
 30
0.0
  0
VERTEX
  5
160
  8
0
  6
CONTINUOUS
 62
     7
 10
8.3487369762
 20
5.0406187353
 30
0.0
  0
VERTEX
  5
161
  8
0
  6
CONTINUOUS
 62
     7
 10
8.39657308
 20
5.0539175123
 30
0.0
  0
VERTEX
  5
162
  8
0
  6
CONTINUOUS
 62
     7
 10
8.4433274805
 20
5.0684418493
 30
0.0
  0
VERTEX
  5
163
  8
0
  6
CONTINUOUS
 62
     7
 10
8.4889060205
 20
5.0841624963
 30
0.0
  0
VERTEX
  5
164
  8
0
  6
CONTINUOUS
 62
     7
 10
8.533216911
 20
5.101047794
 30
0.0
  0
VERTEX
  5
165
  8
0
  6
CONTINUOUS
 62
     7
 10
8.5761709156
 20
5.1190637376
 30
0.0
  0
VERTEX
  5
166
  8
0
  6
CONTINUOUS
 62
     7
 10
8.6176815308
 20
5.1381740454
 30
0.0
  0
VERTEX
  5
167
  8
0
  6
CONTINUOUS
 62
     7
 10
8.6576651596
 20
5.1583402319
 30
0.0
  0
VERTEX
  5
168
  8
0
  6
CONTINUOUS
 62
     7
 10
8.6960412805
 20
5.1795216849
 30
0.0
  0
VERTEX
  5
169
  8
0
  6
CONTINUOUS
 62
     7
 10
8.7327326089
 20
5.2016757479
 30
0.0
  0
VERTEX
  5
16A
  8
0
  6
CONTINUOUS
 62
     7
 10
8.7676652534
 20
5.2247578055
 30
0.0
  0
VERTEX
  5
16B
  8
0
  6
CONTINUOUS
 62
     7
 10
8.8007688644
 20
5.2487213736
 30
0.0
  0
VERTEX
  5
16C
  8
0
  6
CONTINUOUS
 62
     7
 10
8.8319767755
 20
5.2735181926
 30
0.0
  0
VERTEX
  5
16D
  8
0
  6
CONTINUOUS
 62
     7
 10
8.8612261382
 20
5.2990983252
 30
0.0
  0
VERTEX
  5
16E
  8
0
  6
CONTINUOUS
 62
     7
 10
8.8884580481
 20
5.3254102563
 30
0.0
  0
VERTEX
  5
16F
  8
0
  6
CONTINUOUS
 62
     7
 10
8.9136176639
 20
5.3524009972
 30
0.0
  0
VERTEX
  5
170
  8
0
  6
CONTINUOUS
 62
     7
 10
8.9366543174
 20
5.3800161921
 30
0.0
  0
VERTEX
  5
171
  8
0
  6
CONTINUOUS
 62
     7
 10
8.9575216158
 20
5.4082002278
 30
0.0
  0
VERTEX
  5
172
  8
0
  6
CONTINUOUS
 62
     7
 10
8.9761775351
 20
5.4368963452
 30
0.0
  0
VERTEX
  5
173
  8
0
  6
CONTINUOUS
 62
     7
 10
8.992584505
 20
5.4660467543
 30
0.0
  0
VERTEX
  5
174
  8
0
  6
CONTINUOUS
 62
     7
 10
9.0067094838
 20
5.49559275
 30
0.0
  0
VERTEX
  5
175
  8
0
  6
CONTINUOUS
 62
     7
 10
9.0185240257
 20
5.5254748306
 30
0.0
  0
VERTEX
  5
176
  8
0
  6
CONTINUOUS
 62
     7
 10
9.0280043379
 20
5.5556328176
 30
0.0
  0
VERTEX
  5
177
  8
0
  6
CONTINUOUS
 62
     7
 10
9.0351313283
 20
5.5860059768
 30
0.0
  0
VERTEX
  5
178
  8
0
  6
CONTINUOUS
 62
     7
 10
9.039890644
 20
5.6165331406
 30
0.0
  0
VERTEX
  5
179
  8
0
  6
CONTINUOUS
 62
     7
 10
9.0422727004
 20
5.6471528316
 30
0.0
  0
VERTEX
  5
17A
  8
0
  6
CONTINUOUS
 62
     7
 10
9.0422727004
 20
5.6778033855
 30
0.0
  0
VERTEX
  5
17B
  8
0
  6
CONTINUOUS
 62
     7
 10
9.039890644
 20
5.7084230765
 30
0.0
  0
VERTEX
  5
17C
  8
0
  6
CONTINUOUS
 62
     7
 10
9.0351313283
 20
5.7389502403
 30
0.0
  0
VERTEX
  5
17D
  8
0
  6
CONTINUOUS
 62
     7
 10
9.0280043379
 20
5.7693233995
 30
0.0
  0
VERTEX
  5
17E
  8
0
  6
CONTINUOUS
 62
     7
 10
9.0185240257
 20
5.7994813865
 30
0.0
  0
VERTEX
  5
17F
  8
0
  6
CONTINUOUS
 62
     7
 10
9.0067094838
 20
5.8293634671
 30
0.0
  0
VERTEX
  5
180
  8
0
  6
CONTINUOUS
 62
     7
 10
8.992584505
 20
5.8589094628
 30
0.0
  0
VERTEX
  5
181
  8
0
  6
CONTINUOUS
 62
     7
 10
8.9761775351
 20
5.8880598719
 30
0.0
  0
VERTEX
  5
182
  8
0
  6
CONTINUOUS
 62
     7
 10
8.9575216158
 20
5.9167559893
 30
0.0
  0
VERTEX
  5
183
  8
0
  6
CONTINUOUS
 62
     7
 10
8.9366543174
 20
5.944940025
 30
0.0
  0
VERTEX
  5
184
  8
0
  6
CONTINUOUS
 62
     7
 10
8.9136176639
 20
5.9725552199
 30
0.0
  0
VERTEX
  5
185
  8
0
  6
CONTINUOUS
 62
     7
 10
8.8884580481
 20
5.9995459608
 30
0.0
  0
VERTEX
  5
186
  8
0
  6
CONTINUOUS
 62
     7
 10
8.8612261382
 20
6.0258578919
 30
0.0
  0
VERTEX
  5
187
  8
0
  6
CONTINUOUS
 62
     7
 10
8.8319767755
 20
6.0514380244
 30
0.0
  0
VERTEX
  5
188
  8
0
  6
CONTINUOUS
 62
     7
 10
8.8007688644
 20
6.0762348435
 30
0.0
  0
VERTEX
  5
189
  8
0
  6
CONTINUOUS
 62
     7
 10
8.7676652534
 20
6.1001984116
 30
0.0
  0
VERTEX
  5
18A
  8
0
  6
CONTINUOUS
 62
     7
 10
8.7327326089
 20
6.1232804692
 30
0.0
  0
VERTEX
  5
18B
  8
0
  6
CONTINUOUS
 62
     7
 10
8.6960412805
 20
6.1454345322
 30
0.0
  0
VERTEX
  5
18C
  8
0
  6
CONTINUOUS
 62
     7
 10
8.6576651596
 20
6.1666159852
 30
0.0
  0
VERTEX
  5
18D
  8
0
  6
CONTINUOUS
 62
     7
 10
8.6176815308
 20
6.1867821717
 30
0.0
  0
VERTEX
  5
18E
  8
0
  6
CONTINUOUS
 62
     7
 10
8.5761709156
 20
6.2058924795
 30
0.0
  0
VERTEX
  5
18F
  8
0
  6
CONTINUOUS
 62
     7
 10
8.533216911
 20
6.2239084231
 30
0.0
  0
VERTEX
  5
190
  8
0
  6
CONTINUOUS
 62
     7
 10
8.4889060205
 20
6.2407937208
 30
0.0
  0
VERTEX
  5
191
  8
0
  6
CONTINUOUS
 62
     7
 10
8.4433274805
 20
6.2565143678
 30
0.0
  0
VERTEX
  5
192
  8
0
  6
CONTINUOUS
 62
     7
 10
8.39657308
 20
6.2710387048
 30
0.0
  0
VERTEX
  5
193
  8
0
  6
CONTINUOUS
 62
     7
 10
8.3487369762
 20
6.2843374818
 30
0.0
  0
VERTEX
  5
194
  8
0
  6
CONTINUOUS
 62
     7
 10
8.2999155046
 20
6.2963839167
 30
0.0
  0
VERTEX
  5
195
  8
0
  6
CONTINUOUS
 62
     7
 10
8.2502069851
 20
6.3071537497
 30
0.0
  0
VERTEX
  5
196
  8
0
  6
CONTINUOUS
 62
     7
 10
8.1997115242
 20
6.3166252918
 30
0.0
  0
VERTEX
  5
197
  8
0
  6
CONTINUOUS
 62
     7
 10
8.148530813
 20
6.3247794685
 30
0.0
  0
VERTEX
  5
198
  8
0
  6
CONTINUOUS
 62
     7
 10
8.0967679225
 20
6.3315998584
 30
0.0
  0
VERTEX
  5
199
  8
0
  6
CONTINUOUS
 62
     7
 10
8.0445270964
 20
6.3370727261
 30
0.0
  0
VERTEX
  5
19A
  8
0
  6
CONTINUOUS
 62
     7
 10
7.9919135408
 20
6.3411870501
 30
0.0
  0
VERTEX
  5
19B
  8
0
  6
CONTINUOUS
 62
     7
 10
7.9390332122
 20
6.3439345446
 30
0.0
  0
VERTEX
  5
19C
  8
0
  6
CONTINUOUS
 62
     7
 10
7.8859926048
 20
6.3453096765
 30
0.0
  0
VERTEX
  5
19D
  8
0
  6
CONTINUOUS
 62
     7
 10
7.8328985352
 20
6.3453096765
 30
0.0
  0
VERTEX
  5
19E
  8
0
  6
CONTINUOUS
 62
     7
 10
7.7798579277
 20
6.3439345446
 30
0.0
  0
VERTEX
  5
19F
  8
0
  6
CONTINUOUS
 62
     7
 10
7.7269775992
 20
6.3411870501
 30
0.0
  0
VERTEX
  5
1A0
  8
0
  6
CONTINUOUS
 62
     7
 10
7.6743640435
 20
6.3370727261
 30
0.0
  0
VERTEX
  5
1A1
  8
0
  6
CONTINUOUS
 62
     7
 10
7.6221232174
 20
6.3315998584
 30
0.0
  0
VERTEX
  5
1A2
  8
0
  6
CONTINUOUS
 62
     7
 10
7.570360327
 20
6.3247794685
 30
0.0
  0
VERTEX
  5
1A3
  8
0
  6
CONTINUOUS
 62
     7
 10
7.5191796157
 20
6.3166252918
 30
0.0
  0
VERTEX
  5
1A4
  8
0
  6
CONTINUOUS
 62
     7
 10
7.4686841548
 20
6.3071537497
 30
0.0
  0
VERTEX
  5
1A5
  8
0
  6
CONTINUOUS
 62
     7
 10
7.4189756354
 20
6.2963839167
 30
0.0
  0
VERTEX
  5
1A6
  8
0
  6
CONTINUOUS
 62
     7
 10
7.3701541638
 20
6.2843374818
 30
0.0
  0
VERTEX
  5
1A7
  8
0
  6
CONTINUOUS
 62
     7
 10
7.32231806
 20
6.2710387048
 30
0.0
  0
VERTEX
  5
1A8
  8
0
  6
CONTINUOUS
 62
     7
 10
7.2755636595
 20
6.2565143678
 30
0.0
  0
VERTEX
  5
1A9
  8
0
  6
CONTINUOUS
 62
     7
 10
7.2299851194
 20
6.2407937208
 30
0.0
  0
VERTEX
  5
1AA
  8
0
  6
CONTINUOUS
 62
     7
 10
7.185674229
 20
6.2239084231
 30
0.0
  0
VERTEX
  5
1AB
  8
0
  6
CONTINUOUS
 62
     7
 10
7.1427202244
 20
6.2058924795
 30
0.0
  0
VERTEX
  5
1AC
  8
0
  6
CONTINUOUS
 62
     7
 10
7.1012096092
 20
6.1867821717
 30
0.0
  0
VERTEX
  5
1AD
  8
0
  6
CONTINUOUS
 62
     7
 10
7.0612259803
 20
6.1666159852
 30
0.0
  0
VERTEX
  5
1AE
  8
0
  6
CONTINUOUS
 62
     7
 10
7.0228498595
 20
6.1454345322
 30
0.0
  0
VERTEX
  5
1AF
  8
0
  6
CONTINUOUS
 62
     7
 10
6.9861585311
 20
6.1232804692
 30
0.0
  0
VERTEX
  5
1B0
  8
0
  6
CONTINUOUS
 62
     7
 10
6.9512258865
 20
6.1001984116
 30
0.0
  0
VERTEX
  5
1B1
  8
0
  6
CONTINUOUS
 62
     7
 10
6.9181222756
 20
6.0762348435
 30
0.0
  0
VERTEX
  5
1B2
  8
0
  6
CONTINUOUS
 62
     7
 10
6.8869143645
 20
6.0514380244
 30
0.0
  0
VERTEX
  5
1B3
  8
0
  6
CONTINUOUS
 62
     7
 10
6.8576650018
 20
6.0258578919
 30
0.0
  0
VERTEX
  5
1B4
  8
0
  6
CONTINUOUS
 62
     7
 10
6.8304330918
 20
5.9995459608
 30
0.0
  0
VERTEX
  5
1B5
  8
0
  6
CONTINUOUS
 62
     7
 10
6.805273476
 20
5.9725552199
 30
0.0
  0
VERTEX
  5
1B6
  8
0
  6
CONTINUOUS
 62
     7
 10
6.7822368226
 20
5.944940025
 30
0.0
  0
VERTEX
  5
1B7
  8
0
  6
CONTINUOUS
 62
     7
 10
6.7613695242
 20
5.9167559893
 30
0.0
  0
VERTEX
  5
1B8
  8
0
  6
CONTINUOUS
 62
     7
 10
6.7427136048
 20
5.8880598719
 30
0.0
  0
VERTEX
  5
1B9
  8
0
  6
CONTINUOUS
 62
     7
 10
6.726306635
 20
5.8589094628
 30
0.0
  0
VERTEX
  5
1BA
  8
0
  6
CONTINUOUS
 62
     7
 10
6.7121816562
 20
5.8293634671
 30
0.0
  0
VERTEX
  5
1BB
  8
0
  6
CONTINUOUS
 62
     7
 10
6.7003671142
 20
5.7994813865
 30
0.0
  0
VERTEX
  5
1BC
  8
0
  6
CONTINUOUS
 62
     7
 10
6.690886802
 20
5.7693233995
 30
0.0
  0
VERTEX
  5
1BD
  8
0
  6
CONTINUOUS
 62
     7
 10
6.6837598116
 20
5.7389502403
 30
0.0
  0
VERTEX
  5
1BE
  8
0
  6
CONTINUOUS
 62
     7
 10
6.6790004959
 20
5.7084230765
 30
0.0
  0
VERTEX
  5
1BF
  8
0
  6
CONTINUOUS
 62
     7
 10
6.6766184395
 20
5.6778033855
 30
0.0
  0
VERTEX
  5
1C0
  8
0
  6
CONTINUOUS
 62
     7
 10
6.6766184395
 20
5.6471528316
 30
0.0
  0
VERTEX
  5
1C1
  8
0
  6
CONTINUOUS
 62
     7
 10
6.6790004959
 20
5.6165331406
 30
0.0
  0
VERTEX
  5
1C2
  8
0
  6
CONTINUOUS
 62
     7
 10
6.6837598116
 20
5.5860059768
 30
0.0
  0
VERTEX
  5
1C3
  8
0
  6
CONTINUOUS
 62
     7
 10
6.690886802
 20
5.5556328176
 30
0.0
  0
VERTEX
  5
1C4
  8
0
  6
CONTINUOUS
 62
     7
 10
6.7003671142
 20
5.5254748306
 30
0.0
  0
VERTEX
  5
1C5
  8
0
  6
CONTINUOUS
 62
     7
 10
6.7121816562
 20
5.49559275
 30
0.0
  0
VERTEX
  5
1C6
  8
0
  6
CONTINUOUS
 62
     7
 10
6.726306635
 20
5.4660467543
 30
0.0
  0
VERTEX
  5
1C7
  8
0
  6
CONTINUOUS
 62
     7
 10
6.7427136048
 20
5.4368963452
 30
0.0
  0
VERTEX
  5
1C8
  8
0
  6
CONTINUOUS
 62
     7
 10
6.7613695242
 20
5.4082002278
 30
0.0
  0
VERTEX
  5
1C9
  8
0
  6
CONTINUOUS
 62
     7
 10
6.7822368226
 20
5.3800161921
 30
0.0
  0
VERTEX
  5
1CA
  8
0
  6
CONTINUOUS
 62
     7
 10
6.805273476
 20
5.3524009972
 30
0.0
  0
VERTEX
  5
1CB
  8
0
  6
CONTINUOUS
 62
     7
 10
6.8304330918
 20
5.3254102563
 30
0.0
  0
VERTEX
  5
1CC
  8
0
  6
CONTINUOUS
 62
     7
 10
6.8576650018
 20
5.2990983252
 30
0.0
  0
VERTEX
  5
1CD
  8
0
  6
CONTINUOUS
 62
     7
 10
6.8869143645
 20
5.2735181926
 30
0.0
  0
VERTEX
  5
1CE
  8
0
  6
CONTINUOUS
 62
     7
 10
6.9181222756
 20
5.2487213736
 30
0.0
  0
VERTEX
  5
1CF
  8
0
  6
CONTINUOUS
 62
     7
 10
6.9512258865
 20
5.2247578055
 30
0.0
  0
VERTEX
  5
1D0
  8
0
  6
CONTINUOUS
 62
     7
 10
6.9861585311
 20
5.2016757479
 30
0.0
  0
VERTEX
  5
1D1
  8
0
  6
CONTINUOUS
 62
     7
 10
7.0228498595
 20
5.1795216849
 30
0.0
  0
SEQEND
  5
4F9
  8
0
  6
CONTINUOUS
 62
     7
  0
POLYLINE
  5
EC
  8
0
  6
CONTINUOUS
 62
     7
 66
     1
 10
0.0
 20
0.0
 30
0.0
 70
   128
  0
VERTEX
  5
1D2
  8
0
  6
CONTINUOUS
 62
     7
 10
7.0087077239
 20
4.63448202
 30
0.0
  0
VERTEX
  5
1D3
  8
0
  6
CONTINUOUS
 62
     7
 10
7.0474499469
 20
4.6130916849
 30
0.0
  0
VERTEX
  5
1D4
  8
0
  6
CONTINUOUS
 62
     7
 10
7.0878043122
 20
4.5927188927
 30
0.0
  0
VERTEX
  5
1D5
  8
0
  6
CONTINUOUS
 62
     7
 10
7.1296906997
 20
4.5734040917
 30
0.0
  0
VERTEX
  5
1D6
  8
0
  6
CONTINUOUS
 62
     7
 10
7.173025948
 20
4.5551856295
 30
0.0
  0
VERTEX
  5
1D7
  8
0
  6
CONTINUOUS
 62
     7
 10
7.2177240189
 20
4.5380996772
 30
0.0
  0
VERTEX
  5
1D8
  8
0
  6
CONTINUOUS
 62
     7
 10
7.2636961685
 20
4.5221801575
 30
0.0
  0
VERTEX
  5
1D9
  8
0
  6
CONTINUOUS
 62
     7
 10
7.3108511234
 20
4.5074586771
 30
0.0
  0
VERTEX
  5
1DA
  8
0
  6
CONTINUOUS
 62
     7
 10
7.3590952618
 20
4.493964464
 30
0.0
  0
VERTEX
  5
1DB
  8
0
  6
CONTINUOUS
 62
     7
 10
7.4083327995
 20
4.4817243098
 30
0.0
  0
VERTEX
  5
1DC
  8
0
  6
CONTINUOUS
 62
     7
 10
7.4584659797
 20
4.4707625162
 30
0.0
  0
VERTEX
  5
1DD
  8
0
  6
CONTINUOUS
 62
     7
 10
7.5093952679
 20
4.4611008469
 30
0.0
  0
VERTEX
  5
1DE
  8
0
  6
CONTINUOUS
 62
     7
 10
7.5610195485
 20
4.4527584841
 30
0.0
  0
VERTEX
  5
1DF
  8
0
  6
CONTINUOUS
 62
     7
 10
7.6132363264
 20
4.4457519908
 30
0.0
  0
VERTEX
  5
1E0
  8
0
  6
CONTINUOUS
 62
     7
 10
7.6659419299
 20
4.4400952779
 30
0.0
  0
VERTEX
  5
1E1
  8
0
  6
CONTINUOUS
 62
     7
 10
7.719031717
 20
4.4357995762
 30
0.0
  0
VERTEX
  5
1E2
  8
0
  6
CONTINUOUS
 62
     7
 10
7.7724002828
 20
4.4328734144
 30
0.0
  0
VERTEX
  5
1E3
  8
0
  6
CONTINUOUS
 62
     7
 10
7.8259416689
 20
4.4313226021
 30
0.0
  0
VERTEX
  5
1E4
  8
0
  6
CONTINUOUS
 62
     7
 10
7.879549574
 20
4.4311502183
 30
0.0
  0
VERTEX
  5
1E5
  8
0
  6
CONTINUOUS
 62
     7
 10
7.9331175644
 20
4.4323566053
 30
0.0
  0
VERTEX
  5
1E6
  8
0
  6
CONTINUOUS
 62
     7
 10
7.9865392859
 20
4.4349393679
 30
0.0
  0
VERTEX
  5
1E7
  8
0
  6
CONTINUOUS
 62
     7
 10
8.0397086746
 20
4.4388933782
 30
0.0
  0
VERTEX
  5
1E8
  8
0
  6
CONTINUOUS
 62
     7
 10
8.0925201675
 20
4.444210786
 30
0.0
  0
VERTEX
  5
1E9
  8
0
  6
CONTINUOUS
 62
     7
 10
8.1448689125
 20
4.450881034
 30
0.0
  0
VERTEX
  5
1EA
  8
0
  6
CONTINUOUS
 62
     7
 10
8.1966509758
 20
4.4588908791
 30
0.0
  0
VERTEX
  5
1EB
  8
0
  6
CONTINUOUS
 62
     7
 10
8.2477635489
 20
4.4682244185
 30
0.0
  0
VERTEX
  5
1EC
  8
0
  6
CONTINUOUS
 62
     7
 10
8.2981051527
 20
4.4788631212
 30
0.0
  0
VERTEX
  5
1ED
  8
0
  6
CONTINUOUS
 62
     7
 10
8.3475758385
 20
4.4907858652
 30
0.0
  0
VERTEX
  5
1EE
  8
0
  6
CONTINUOUS
 62
     7
 10
8.3960773868
 20
4.5039689789
 30
0.0
  0
VERTEX
  5
1EF
  8
0
  6
CONTINUOUS
 62
     7
 10
8.4435135023
 20
4.5183862884
 30
0.0
  0
VERTEX
  5
1F0
  8
0
  6
CONTINUOUS
 62
     7
 10
8.4897900051
 20
4.5340091695
 30
0.0
  0
VERTEX
  5
1F1
  8
0
  6
CONTINUOUS
 62
     7
 10
8.5348150172
 20
4.5508066046
 30
0.0
  0
VERTEX
  5
1F2
  8
0
  6
CONTINUOUS
 62
     7
 10
8.5784991459
 20
4.5687452437
 30
0.0
  0
VERTEX
  5
1F3
  8
0
  6
CONTINUOUS
 62
     7
 10
8.6207556602
 20
4.5877894714
 30
0.0
  0
VERTEX
  5
1F4
  8
0
  6
CONTINUOUS
 62
     7
 10
8.6615006638
 20
4.6079014771
 30
0.0
  0
VERTEX
  5
1F5
  8
0
  6
CONTINUOUS
 62
     7
 10
8.7006532613
 20
4.6290413303
 30
0.0
  0
VERTEX
  5
1F6
  8
0
  6
CONTINUOUS
 62
     7
 10
8.7381357188
 20
4.6511670598
 30
0.0
  0
VERTEX
  5
1F7
  8
0
  6
CONTINUOUS
 62
     7
 10
8.7738736183
 20
4.6742347371
 30
0.0
  0
VERTEX
  5
1F8
  8
0
  6
CONTINUOUS
 62
     7
 10
8.8077960056
 20
4.6981985632
 30
0.0
  0
VERTEX
  5
1F9
  8
0
  6
CONTINUOUS
 62
     7
 10
8.8398355308
 20
4.7230109604
 30
0.0
  0
VERTEX
  5
1FA
  8
0
  6
CONTINUOUS
 62
     7
 10
8.8699285826
 20
4.7486226659
 30
0.0
  0
VERTEX
  5
1FB
  8
0
  6
CONTINUOUS
 62
     7
 10
8.8980154138
 20
4.77498283
 30
0.0
  0
VERTEX
  5
1FC
  8
0
  6
CONTINUOUS
 62
     7
 10
8.9240402608
 20
4.802039117
 30
0.0
  0
VERTEX
  5
1FD
  8
0
  6
CONTINUOUS
 62
     7
 10
8.9479514536
 20
4.8297378093
 30
0.0
  0
VERTEX
  5
1FE
  8
0
  6
CONTINUOUS
 62
     7
 10
8.9697015186
 20
4.8580239135
 30
0.0
  0
VERTEX
  5
1FF
  8
0
  6
CONTINUOUS
 62
     7
 10
8.9892472733
 20
4.8868412703
 30
0.0
  0
VERTEX
  5
200
  8
0
  6
CONTINUOUS
 62
     7
 10
9.0065499113
 20
4.9161326655
 30
0.0
  0
VERTEX
  5
201
  8
0
  6
CONTINUOUS
 62
     7
 10
9.0215750797
 20
4.9458399437
 30
0.0
  0
VERTEX
  5
202
  8
0
  6
CONTINUOUS
 62
     7
 10
9.0342929476
 20
4.9759041238
 30
0.0
  0
VERTEX
  5
203
  8
0
  6
CONTINUOUS
 62
     7
 10
9.0446782648
 20
5.0062655163
 30
0.0
  0
VERTEX
  5
204
  8
0
  6
CONTINUOUS
 62
     7
 10
9.0527104122
 20
5.0368638413
 30
0.0
  0
VERTEX
  5
205
  8
0
  6
CONTINUOUS
 62
     7
 10
9.0583734427
 20
5.0676383488
 30
0.0
  0
VERTEX
  5
206
  8
0
  6
CONTINUOUS
 62
     7
 10
9.0616561128
 20
5.0985279388
 30
0.0
  0
VERTEX
  5
207
  8
0
  6
CONTINUOUS
 62
     7
 10
9.06257057
 20
5.1256025247
 30
0.0
  0
SEQEND
  5
4FA
  8
0
  6
CONTINUOUS
 62
     7
  0
POLYLINE
  5
ED
  8
0
  6
CONTINUOUS
 62
     7
 66
     1
 10
0.0
 20
0.0
 30
0.0
 70
   128
  0
VERTEX
  5
208
  8
0
  6
CONTINUOUS
 62
     7
 10
6.65632057
 20
5.1256025247
 30
0.0
  0
VERTEX
  5
209
  8
0
  6
CONTINUOUS
 62
     7
 10
6.6567871587
 20
5.1062611343
 30
0.0
  0
VERTEX
  5
20A
  8
0
  6
CONTINUOUS
 62
     7
 10
6.6594735355
 20
5.07535235
 30
0.0
  0
VERTEX
  5
20B
  8
0
  6
CONTINUOUS
 62
     7
 10
6.6645423456
 20
5.0445433328
 30
0.0
  0
VERTEX
  5
20C
  8
0
  6
CONTINUOUS
 62
     7
 10
6.6719835256
 20
5.0138952511
 30
0.0
  0
VERTEX
  5
20D
  8
0
  6
CONTINUOUS
 62
     7
 10
6.6817823015
 20
4.9834689538
 30
0.0
  0
VERTEX
  5
20E
  8
0
  6
CONTINUOUS
 62
     7
 10
6.6939192188
 20
4.9533248496
 30
0.0
  0
VERTEX
  5
20F
  8
0
  6
CONTINUOUS
 62
     7
 10
6.7083701808
 20
4.9235227867
 30
0.0
  0
VERTEX
  5
210
  8
0
  6
CONTINUOUS
 62
     7
 10
6.7251064964
 20
4.8941219345
 30
0.0
  0
VERTEX
  5
211
  8
0
  6
CONTINUOUS
 62
     7
 10
6.7440949373
 20
4.8651806655
 30
0.0
  0
VERTEX
  5
212
  8
0
  6
CONTINUOUS
 62
     7
 10
6.7652978036
 20
4.8367564401
 30
0.0
  0
VERTEX
  5
213
  8
0
  6
CONTINUOUS
 62
     7
 10
6.788672999
 20
4.8089056918
 30
0.0
  0
VERTEX
  5
214
  8
0
  6
CONTINUOUS
 62
     7
 10
6.8141741142
 20
4.7816837158
 30
0.0
  0
VERTEX
  5
215
  8
0
  6
CONTINUOUS
 62
     7
 10
6.8417505192
 20
4.7551445587
 30
0.0
  0
VERTEX
  5
216
  8
0
  6
CONTINUOUS
 62
     7
 10
6.8713474634
 20
4.7293409116
 30
0.0
  0
VERTEX
  5
217
  8
0
  6
CONTINUOUS
 62
     7
 10
6.902906185
 20
4.7043240053
 30
0.0
  0
VERTEX
  5
218
  8
0
  6
CONTINUOUS
 62
     7
 10
6.936364027
 20
4.6801435085
 30
0.0
  0
VERTEX
  5
219
  8
0
  6
CONTINUOUS
 62
     7
 10
6.971654562
 20
4.6568474293
 30
0.0
  0
VERTEX
  5
21A
  8
0
  6
CONTINUOUS
 62
     7
 10
7.0087077239
 20
4.63448202
 30
0.0
  0
SEQEND
  5
4FB
  8
0
  6
CONTINUOUS
 62
     7
  0
POLYLINE
  5
EE
  8
0
  6
CONTINUOUS
 62
     7
 66
     1
 10
0.0
 20
0.0
 30
0.0
 70
   128
  0
VERTEX
  5
21B
  8
0
  6
CONTINUOUS
 62
     7
 10
7.0652762664
 20
5.2040139283
 30
0.0
  0
VERTEX
  5
21C
  8
0
  6
CONTINUOUS
 62
     7
 10
7.1028011502
 20
5.1833296596
 30
0.0
  0
VERTEX
  5
21D
  8
0
  6
CONTINUOUS
 62
     7
 10
7.1419407514
 20
5.1636679178
 30
0.0
  0
VERTEX
  5
21E
  8
0
  6
CONTINUOUS
 62
     7
 10
7.182611544
 20
5.1450706622
 30
0.0
  0
VERTEX
  5
21F
  8
0
  6
CONTINUOUS
 62
     7
 10
7.2247267345
 20
5.1275775801
 30
0.0
  0
VERTEX
  5
220
  8
0
  6
CONTINUOUS
 62
     7
 10
7.268196447
 20
5.1112260027
 30
0.0
  0
VERTEX
  5
221
  8
0
  6
CONTINUOUS
 62
     7
 10
7.312927915
 20
5.096050825
 30
0.0
  0
VERTEX
  5
222
  8
0
  6
CONTINUOUS
 62
     7
 10
7.3588256791
 20
5.0820844318
 30
0.0
  0
VERTEX
  5
223
  8
0
  6
CONTINUOUS
 62
     7
 10
7.4057917914
 20
5.0693566279
 30
0.0
  0
VERTEX
  5
224
  8
0
  6
CONTINUOUS
 62
     7
 10
7.4537260236
 20
5.0578945751
 30
0.0
  0
VERTEX
  5
225
  8
0
  6
CONTINUOUS
 62
     7
 10
7.5025260819
 20
5.047722734
 30
0.0
  0
VERTEX
  5
226
  8
0
  6
CONTINUOUS
 62
     7
 10
7.5520878242
 20
5.0388628119
 30
0.0
  0
VERTEX
  5
227
  8
0
  6
CONTINUOUS
 62
     7
 10
7.6023054836
 20
5.0313337163
 30
0.0
  0
VERTEX
  5
228
  8
0
  6
CONTINUOUS
 62
     7
 10
7.6530718928
 20
5.0251515146
 30
0.0
  0
VERTEX
  5
229
  8
0
  6
CONTINUOUS
 62
     7
 10
7.7042787138
 20
5.0203294
 30
0.0
  0
VERTEX
  5
22A
  8
0
  6
CONTINUOUS
 62
     7
 10
7.7558166688
 20
5.0168776631
 30
0.0
  0
VERTEX
  5
22B
  8
0
  6
CONTINUOUS
 62
     7
 10
7.807575773
 20
5.01480367
 30
0.0
  0
VERTEX
  5
22C
  8
0
  6
CONTINUOUS
 62
     7
 10
7.85944557
 20
5.0141118469
 30
0.0
  0
VERTEX
  5
22D
  8
0
  6
CONTINUOUS
 62
     7
 10
7.911315367
 20
5.01480367
 30
0.0
  0
VERTEX
  5
22E
  8
0
  6
CONTINUOUS
 62
     7
 10
7.9630744712
 20
5.0168776631
 30
0.0
  0
VERTEX
  5
22F
  8
0
  6
CONTINUOUS
 62
     7
 10
8.0146124261
 20
5.0203294
 30
0.0
  0
VERTEX
  5
230
  8
0
  6
CONTINUOUS
 62
     7
 10
8.0658192472
 20
5.0251515146
 30
0.0
  0
VERTEX
  5
231
  8
0
  6
CONTINUOUS
 62
     7
 10
8.1165856564
 20
5.0313337163
 30
0.0
  0
VERTEX
  5
232
  8
0
  6
CONTINUOUS
 62
     7
 10
8.1668033157
 20
5.0388628119
 30
0.0
  0
VERTEX
  5
233
  8
0
  6
CONTINUOUS
 62
     7
 10
8.2163650581
 20
5.047722734
 30
0.0
  0
VERTEX
  5
234
  8
0
  6
CONTINUOUS
 62
     7
 10
8.2651651163
 20
5.0578945751
 30
0.0
  0
VERTEX
  5
235
  8
0
  6
CONTINUOUS
 62
     7
 10
8.3130993486
 20
5.0693566279
 30
0.0
  0
VERTEX
  5
236
  8
0
  6
CONTINUOUS
 62
     7
 10
8.3600654608
 20
5.0820844318
 30
0.0
  0
VERTEX
  5
237
  8
0
  6
CONTINUOUS
 62
     7
 10
8.405963225
 20
5.096050825
 30
0.0
  0
VERTEX
  5
238
  8
0
  6
CONTINUOUS
 62
     7
 10
8.4506946929
 20
5.1112260027
 30
0.0
  0
VERTEX
  5
239
  8
0
  6
CONTINUOUS
 62
     7
 10
8.4941644054
 20
5.1275775801
 30
0.0
  0
VERTEX
  5
23A
  8
0
  6
CONTINUOUS
 62
     7
 10
8.536279596
 20
5.1450706622
 30
0.0
  0
VERTEX
  5
23B
  8
0
  6
CONTINUOUS
 62
     7
 10
8.5769503886
 20
5.1636679178
 30
0.0
  0
VERTEX
  5
23C
  8
0
  6
CONTINUOUS
 62
     7
 10
8.6160899897
 20
5.1833296596
 30
0.0
  0
VERTEX
  5
23D
  8
0
  6
CONTINUOUS
 62
     7
 10
8.6536148736
 20
5.2040139283
 30
0.0
  0
VERTEX
  5
23E
  8
0
  6
CONTINUOUS
 62
     7
 10
8.6894449601
 20
5.2256765826
 30
0.0
  0
VERTEX
  5
23F
  8
0
  6
CONTINUOUS
 62
     7
 10
8.7235037861
 20
5.2482713934
 30
0.0
  0
VERTEX
  5
240
  8
0
  6
CONTINUOUS
 62
     7
 10
8.7557186684
 20
5.2717501422
 30
0.0
  0
VERTEX
  5
241
  8
0
  6
CONTINUOUS
 62
     7
 10
8.7860208586
 20
5.2960627242
 30
0.0
  0
VERTEX
  5
242
  8
0
  6
CONTINUOUS
 62
     7
 10
8.8143456905
 20
5.3211572551
 30
0.0
  0
VERTEX
  5
243
  8
0
  6
CONTINUOUS
 62
     7
 10
8.8406327175
 20
5.3469801819
 30
0.0
  0
VERTEX
  5
244
  8
0
  6
CONTINUOUS
 62
     7
 10
8.8648258416
 20
5.3734763971
 30
0.0
  0
VERTEX
  5
245
  8
0
  6
CONTINUOUS
 62
     7
 10
8.8868734335
 20
5.4005893566
 30
0.0
  0
VERTEX
  5
246
  8
0
  6
CONTINUOUS
 62
     7
 10
8.9067284426
 20
5.4282611999
 30
0.0
  0
VERTEX
  5
247
  8
0
  6
CONTINUOUS
 62
     7
 10
8.9243484973
 20
5.4564328739
 30
0.0
  0
VERTEX
  5
248
  8
0
  6
CONTINUOUS
 62
     7
 10
8.9396959955
 20
5.4850442587
 30
0.0
  0
VERTEX
  5
249
  8
0
  6
CONTINUOUS
 62
     7
 10
8.9527381848
 20
5.5140342964
 30
0.0
  0
VERTEX
  5
24A
  8
0
  6
CONTINUOUS
 62
     7
 10
8.9634472326
 20
5.5433411206
 30
0.0
  0
VERTEX
  5
24B
  8
0
  6
CONTINUOUS
 62
     7
 10
8.9718002852
 20
5.5729021892
 30
0.0
  0
VERTEX
  5
24C
  8
0
  6
CONTINUOUS
 62
     7
 10
8.9777795167
 20
5.6026544173
 30
0.0
  0
VERTEX
  5
24D
  8
0
  6
CONTINUOUS
 62
     7
 10
8.9813721673
 20
5.6325343121
 30
0.0
  0
VERTEX
  5
24E
  8
0
  6
CONTINUOUS
 62
     7
 10
8.98257057
 20
5.6624781085
 30
0.0
  0
VERTEX
  5
24F
  8
0
  6
CONTINUOUS
 62
     7
 10
8.9813721673
 20
5.692421905
 30
0.0
  0
VERTEX
  5
250
  8
0
  6
CONTINUOUS
 62
     7
 10
8.9777795167
 20
5.7223017998
 30
0.0
  0
VERTEX
  5
251
  8
0
  6
CONTINUOUS
 62
     7
 10
8.9718002852
 20
5.7520540279
 30
0.0
  0
VERTEX
  5
252
  8
0
  6
CONTINUOUS
 62
     7
 10
8.9634472326
 20
5.7816150965
 30
0.0
  0
VERTEX
  5
253
  8
0
  6
CONTINUOUS
 62
     7
 10
8.9527381848
 20
5.8109219207
 30
0.0
  0
VERTEX
  5
254
  8
0
  6
CONTINUOUS
 62
     7
 10
8.9396959955
 20
5.8399119584
 30
0.0
  0
VERTEX
  5
255
  8
0
  6
CONTINUOUS
 62
     7
 10
8.9243484973
 20
5.8685233432
 30
0.0
  0
VERTEX
  5
256
  8
0
  6
CONTINUOUS
 62
     7
 10
8.9067284426
 20
5.8966950172
 30
0.0
  0
VERTEX
  5
257
  8
0
  6
CONTINUOUS
 62
     7
 10
8.8868734335
 20
5.9243668605
 30
0.0
  0
VERTEX
  5
258
  8
0
  6
CONTINUOUS
 62
     7
 10
8.8648258416
 20
5.9514798199
 30
0.0
  0
VERTEX
  5
259
  8
0
  6
CONTINUOUS
 62
     7
 10
8.8406327175
 20
5.9779760352
 30
0.0
  0
VERTEX
  5
25A
  8
0
  6
CONTINUOUS
 62
     7
 10
8.8143456905
 20
6.003798962
 30
0.0
  0
VERTEX
  5
25B
  8
0
  6
CONTINUOUS
 62
     7
 10
8.7860208586
 20
6.0288934929
 30
0.0
  0
VERTEX
  5
25C
  8
0
  6
CONTINUOUS
 62
     7
 10
8.7557186684
 20
6.0532060749
 30
0.0
  0
VERTEX
  5
25D
  8
0
  6
CONTINUOUS
 62
     7
 10
8.7235037861
 20
6.0766848237
 30
0.0
  0
VERTEX
  5
25E
  8
0
  6
CONTINUOUS
 62
     7
 10
8.6894449601
 20
6.0992796345
 30
0.0
  0
VERTEX
  5
25F
  8
0
  6
CONTINUOUS
 62
     7
 10
8.6536148736
 20
6.1209422888
 30
0.0
  0
VERTEX
  5
260
  8
0
  6
CONTINUOUS
 62
     7
 10
8.6160899897
 20
6.1416265575
 30
0.0
  0
VERTEX
  5
261
  8
0
  6
CONTINUOUS
 62
     7
 10
8.5769503886
 20
6.1612882993
 30
0.0
  0
VERTEX
  5
262
  8
0
  6
CONTINUOUS
 62
     7
 10
8.536279596
 20
6.1798855549
 30
0.0
  0
VERTEX
  5
263
  8
0
  6
CONTINUOUS
 62
     7
 10
8.4941644054
 20
6.197378637
 30
0.0
  0
VERTEX
  5
264
  8
0
  6
CONTINUOUS
 62
     7
 10
8.4506946929
 20
6.2137302144
 30
0.0
  0
VERTEX
  5
265
  8
0
  6
CONTINUOUS
 62
     7
 10
8.405963225
 20
6.2289053921
 30
0.0
  0
VERTEX
  5
266
  8
0
  6
CONTINUOUS
 62
     7
 10
8.3600654608
 20
6.2428717853
 30
0.0
  0
VERTEX
  5
267
  8
0
  6
CONTINUOUS
 62
     7
 10
8.3130993486
 20
6.2555995892
 30
0.0
  0
VERTEX
  5
268
  8
0
  6
CONTINUOUS
 62
     7
 10
8.2651651163
 20
6.267061642
 30
0.0
  0
VERTEX
  5
269
  8
0
  6
CONTINUOUS
 62
     7
 10
8.2163650581
 20
6.2772334831
 30
0.0
  0
VERTEX
  5
26A
  8
0
  6
CONTINUOUS
 62
     7
 10
8.1668033157
 20
6.2860934052
 30
0.0
  0
VERTEX
  5
26B
  8
0
  6
CONTINUOUS
 62
     7
 10
8.1165856564
 20
6.2936225008
 30
0.0
  0
VERTEX
  5
26C
  8
0
  6
CONTINUOUS
 62
     7
 10
8.0658192472
 20
6.2998047025
 30
0.0
  0
VERTEX
  5
26D
  8
0
  6
CONTINUOUS
 62
     7
 10
8.0146124261
 20
6.3046268171
 30
0.0
  0
VERTEX
  5
26E
  8
0
  6
CONTINUOUS
 62
     7
 10
7.9630744712
 20
6.308078554
 30
0.0
  0
VERTEX
  5
26F
  8
0
  6
CONTINUOUS
 62
     7
 10
7.911315367
 20
6.310152547
 30
0.0
  0
VERTEX
  5
270
  8
0
  6
CONTINUOUS
 62
     7
 10
7.85944557
 20
6.3108443702
 30
0.0
  0
VERTEX
  5
271
  8
0
  6
CONTINUOUS
 62
     7
 10
7.807575773
 20
6.310152547
 30
0.0
  0
VERTEX
  5
272
  8
0
  6
CONTINUOUS
 62
     7
 10
7.7558166688
 20
6.308078554
 30
0.0
  0
VERTEX
  5
273
  8
0
  6
CONTINUOUS
 62
     7
 10
7.7042787138
 20
6.3046268171
 30
0.0
  0
VERTEX
  5
274
  8
0
  6
CONTINUOUS
 62
     7
 10
7.6530718928
 20
6.2998047025
 30
0.0
  0
VERTEX
  5
275
  8
0
  6
CONTINUOUS
 62
     7
 10
7.6023054836
 20
6.2936225008
 30
0.0
  0
VERTEX
  5
276
  8
0
  6
CONTINUOUS
 62
     7
 10
7.5520878242
 20
6.2860934052
 30
0.0
  0
VERTEX
  5
277
  8
0
  6
CONTINUOUS
 62
     7
 10
7.5025260819
 20
6.2772334831
 30
0.0
  0
VERTEX
  5
278
  8
0
  6
CONTINUOUS
 62
     7
 10
7.4537260236
 20
6.267061642
 30
0.0
  0
VERTEX
  5
279
  8
0
  6
CONTINUOUS
 62
     7
 10
7.4057917914
 20
6.2555995892
 30
0.0
  0
VERTEX
  5
27A
  8
0
  6
CONTINUOUS
 62
     7
 10
7.3588256791
 20
6.2428717853
 30
0.0
  0
VERTEX
  5
27B
  8
0
  6
CONTINUOUS
 62
     7
 10
7.312927915
 20
6.2289053921
 30
0.0
  0
VERTEX
  5
27C
  8
0
  6
CONTINUOUS
 62
     7
 10
7.268196447
 20
6.2137302144
 30
0.0
  0
VERTEX
  5
27D
  8
0
  6
CONTINUOUS
 62
     7
 10
7.2247267345
 20
6.197378637
 30
0.0
  0
VERTEX
  5
27E
  8
0
  6
CONTINUOUS
 62
     7
 10
7.182611544
 20
6.1798855549
 30
0.0
  0
VERTEX
  5
27F
  8
0
  6
CONTINUOUS
 62
     7
 10
7.1419407514
 20
6.1612882993
 30
0.0
  0
VERTEX
  5
280
  8
0
  6
CONTINUOUS
 62
     7
 10
7.1028011502
 20
6.1416265575
 30
0.0
  0
VERTEX
  5
281
  8
0
  6
CONTINUOUS
 62
     7
 10
7.0652762664
 20
6.1209422888
 30
0.0
  0
VERTEX
  5
282
  8
0
  6
CONTINUOUS
 62
     7
 10
7.0294461798
 20
6.0992796345
 30
0.0
  0
VERTEX
  5
283
  8
0
  6
CONTINUOUS
 62
     7
 10
6.9953873538
 20
6.0766848237
 30
0.0
  0
VERTEX
  5
284
  8
0
  6
CONTINUOUS
 62
     7
 10
6.9631724716
 20
6.0532060749
 30
0.0
  0
VERTEX
  5
285
  8
0
  6
CONTINUOUS
 62
     7
 10
6.9328702813
 20
6.0288934929
 30
0.0
  0
VERTEX
  5
286
  8
0
  6
CONTINUOUS
 62
     7
 10
6.9045454494
 20
6.003798962
 30
0.0
  0
VERTEX
  5
287
  8
0
  6
CONTINUOUS
 62
     7
 10
6.8782584225
 20
5.9779760352
 30
0.0
  0
VERTEX
  5
288
  8
0
  6
CONTINUOUS
 62
     7
 10
6.8540652984
 20
5.9514798199
 30
0.0
  0
VERTEX
  5
289
  8
0
  6
CONTINUOUS
 62
     7
 10
6.8320177064
 20
5.9243668605
 30
0.0
  0
VERTEX
  5
28A
  8
0
  6
CONTINUOUS
 62
     7
 10
6.8121626973
 20
5.8966950172
 30
0.0
  0
VERTEX
  5
28B
  8
0
  6
CONTINUOUS
 62
     7
 10
6.7945426426
 20
5.8685233432
 30
0.0
  0
VERTEX
  5
28C
  8
0
  6
CONTINUOUS
 62
     7
 10
6.7791951445
 20
5.8399119584
 30
0.0
  0
VERTEX
  5
28D
  8
0
  6
CONTINUOUS
 62
     7
 10
6.7661529552
 20
5.8109219207
 30
0.0
  0
VERTEX
  5
28E
  8
0
  6
CONTINUOUS
 62
     7
 10
6.7554439074
 20
5.7816150965
 30
0.0
  0
VERTEX
  5
28F
  8
0
  6
CONTINUOUS
 62
     7
 10
6.7470908548
 20
5.7520540279
 30
0.0
  0
VERTEX
  5
290
  8
0
  6
CONTINUOUS
 62
     7
 10
6.7411116232
 20
5.7223017998
 30
0.0
  0
VERTEX
  5
291
  8
0
  6
CONTINUOUS
 62
     7
 10
6.7375189726
 20
5.692421905
 30
0.0
  0
VERTEX
  5
292
  8
0
  6
CONTINUOUS
 62
     7
 10
6.73632057
 20
5.6624781085
 30
0.0
  0
VERTEX
  5
293
  8
0
  6
CONTINUOUS
 62
     7
 10
6.7375189726
 20
5.6325343121
 30
0.0
  0
VERTEX
  5
294
  8
0
  6
CONTINUOUS
 62
     7
 10
6.7411116232
 20
5.6026544173
 30
0.0
  0
VERTEX
  5
295
  8
0
  6
CONTINUOUS
 62
     7
 10
6.7470908548
 20
5.5729021892
 30
0.0
  0
VERTEX
  5
296
  8
0
  6
CONTINUOUS
 62
     7
 10
6.7554439074
 20
5.5433411206
 30
0.0
  0
VERTEX
  5
297
  8
0
  6
CONTINUOUS
 62
     7
 10
6.7661529552
 20
5.5140342964
 30
0.0
  0
VERTEX
  5
298
  8
0
  6
CONTINUOUS
 62
     7
 10
6.7791951445
 20
5.4850442587
 30
0.0
  0
VERTEX
  5
299
  8
0
  6
CONTINUOUS
 62
     7
 10
6.7945426426
 20
5.4564328739
 30
0.0
  0
VERTEX
  5
29A
  8
0
  6
CONTINUOUS
 62
     7
 10
6.8121626973
 20
5.4282611999
 30
0.0
  0
VERTEX
  5
29B
  8
0
  6
CONTINUOUS
 62
     7
 10
6.8320177064
 20
5.4005893566
 30
0.0
  0
VERTEX
  5
29C
  8
0
  6
CONTINUOUS
 62
     7
 10
6.8540652984
 20
5.3734763971
 30
0.0
  0
VERTEX
  5
29D
  8
0
  6
CONTINUOUS
 62
     7
 10
6.8782584225
 20
5.3469801819
 30
0.0
  0
VERTEX
  5
29E
  8
0
  6
CONTINUOUS
 62
     7
 10
6.9045454494
 20
5.3211572551
 30
0.0
  0
VERTEX
  5
29F
  8
0
  6
CONTINUOUS
 62
     7
 10
6.9328702813
 20
5.2960627242
 30
0.0
  0
VERTEX
  5
2A0
  8
0
  6
CONTINUOUS
 62
     7
 10
6.9631724716
 20
5.2717501422
 30
0.0
  0
VERTEX
  5
2A1
  8
0
  6
CONTINUOUS
 62
     7
 10
6.9953873538
 20
5.2482713934
 30
0.0
  0
VERTEX
  5
2A2
  8
0
  6
CONTINUOUS
 62
     7
 10
7.0294461798
 20
5.2256765826
 30
0.0
  0
VERTEX
  5
2A3
  8
0
  6
CONTINUOUS
 62
     7
 10
7.0652762664
 20
5.2040139283
 30
0.0
  0
SEQEND
  5
4FC
  8
0
  6
CONTINUOUS
 62
     7
  0
POLYLINE
  5
EF
  8
0
  6
CONTINUOUS
 62
     7
 66
     1
 10
0.0
 20
0.0
 30
0.0
 70
   128
  0
VERTEX
  5
2A4
  8
0
  6
CONTINUOUS
 62
     7
 10
8.9824815002
 20
5.6543127004
 30
0.0
  0
VERTEX
  5
2A5
  8
0
  6
CONTINUOUS
 62
     7
 10
8.9813721673
 20
5.6760910887
 30
0.0
  0
VERTEX
  5
2A6
  8
0
  6
CONTINUOUS
 62
     7
 10
8.9777795167
 20
5.7059709836
 30
0.0
  0
VERTEX
  5
2A7
  8
0
  6
CONTINUOUS
 62
     7
 10
8.9718002852
 20
5.7357232117
 30
0.0
  0
VERTEX
  5
2A8
  8
0
  6
CONTINUOUS
 62
     7
 10
8.9634472326
 20
5.7652842803
 30
0.0
  0
VERTEX
  5
2A9
  8
0
  6
CONTINUOUS
 62
     7
 10
8.9527381848
 20
5.7945911045
 30
0.0
  0
VERTEX
  5
2AA
  8
0
  6
CONTINUOUS
 62
     7
 10
8.9396959955
 20
5.8235811421
 30
0.0
  0
VERTEX
  5
2AB
  8
0
  6
CONTINUOUS
 62
     7
 10
8.9243484973
 20
5.852192527
 30
0.0
  0
VERTEX
  5
2AC
  8
0
  6
CONTINUOUS
 62
     7
 10
8.9067284426
 20
5.880364201
 30
0.0
  0
VERTEX
  5
2AD
  8
0
  6
CONTINUOUS
 62
     7
 10
8.8868734335
 20
5.9080360442
 30
0.0
  0
VERTEX
  5
2AE
  8
0
  6
CONTINUOUS
 62
     7
 10
8.8648258416
 20
5.9351490037
 30
0.0
  0
VERTEX
  5
2AF
  8
0
  6
CONTINUOUS
 62
     7
 10
8.8406327175
 20
5.961645219
 30
0.0
  0
VERTEX
  5
2B0
  8
0
  6
CONTINUOUS
 62
     7
 10
8.8143456905
 20
5.9874681458
 30
0.0
  0
VERTEX
  5
2B1
  8
0
  6
CONTINUOUS
 62
     7
 10
8.7860208586
 20
6.0125626766
 30
0.0
  0
VERTEX
  5
2B2
  8
0
  6
CONTINUOUS
 62
     7
 10
8.7557186684
 20
6.0368752586
 30
0.0
  0
VERTEX
  5
2B3
  8
0
  6
CONTINUOUS
 62
     7
 10
8.7235037861
 20
6.0603540074
 30
0.0
  0
VERTEX
  5
2B4
  8
0
  6
CONTINUOUS
 62
     7
 10
8.6894449601
 20
6.0829488183
 30
0.0
  0
VERTEX
  5
2B5
  8
0
  6
CONTINUOUS
 62
     7
 10
8.653743917
 20
6.1045369653
 30
0.0
  0
SEQEND
  5
4FD
  8
0
  6
CONTINUOUS
 62
     7
  0
POLYLINE
  5
F0
  8
0
  6
CONTINUOUS
 62
     7
 66
     1
 10
0.0
 20
0.0
 30
0.0
 70
   128
  0
VERTEX
  5
2B6
  8
0
  6
CONTINUOUS
 62
     7
 10
7.065147223
 20
6.1045369653
 30
0.0
  0
VERTEX
  5
2B7
  8
0
  6
CONTINUOUS
 62
     7
 10
7.0294461798
 20
6.0829488183
 30
0.0
  0
VERTEX
  5
2B8
  8
0
  6
CONTINUOUS
 62
     7
 10
6.9953873538
 20
6.0603540074
 30
0.0
  0
VERTEX
  5
2B9
  8
0
  6
CONTINUOUS
 62
     7
 10
6.9631724716
 20
6.0368752586
 30
0.0
  0
VERTEX
  5
2BA
  8
0
  6
CONTINUOUS
 62
     7
 10
6.9328702813
 20
6.0125626766
 30
0.0
  0
VERTEX
  5
2BB
  8
0
  6
CONTINUOUS
 62
     7
 10
6.9045454494
 20
5.9874681458
 30
0.0
  0
VERTEX
  5
2BC
  8
0
  6
CONTINUOUS
 62
     7
 10
6.8782584225
 20
5.961645219
 30
0.0
  0
VERTEX
  5
2BD
  8
0
  6
CONTINUOUS
 62
     7
 10
6.8540652984
 20
5.9351490037
 30
0.0
  0
VERTEX
  5
2BE
  8
0
  6
CONTINUOUS
 62
     7
 10
6.8320177064
 20
5.9080360442
 30
0.0
  0
VERTEX
  5
2BF
  8
0
  6
CONTINUOUS
 62
     7
 10
6.8121626973
 20
5.880364201
 30
0.0
  0
VERTEX
  5
2C0
  8
0
  6
CONTINUOUS
 62
     7
 10
6.7945426426
 20
5.852192527
 30
0.0
  0
VERTEX
  5
2C1
  8
0
  6
CONTINUOUS
 62
     7
 10
6.7791951445
 20
5.8235811421
 30
0.0
  0
VERTEX
  5
2C2
  8
0
  6
CONTINUOUS
 62
     7
 10
6.7661529552
 20
5.7945911045
 30
0.0
  0
VERTEX
  5
2C3
  8
0
  6
CONTINUOUS
 62
     7
 10
6.7554439074
 20
5.7652842803
 30
0.0
  0
VERTEX
  5
2C4
  8
0
  6
CONTINUOUS
 62
     7
 10
6.7470908548
 20
5.7357232117
 30
0.0
  0
VERTEX
  5
2C5
  8
0
  6
CONTINUOUS
 62
     7
 10
6.7411116232
 20
5.7059709836
 30
0.0
  0
VERTEX
  5
2C6
  8
0
  6
CONTINUOUS
 62
     7
 10
6.7375189726
 20
5.6760910887
 30
0.0
  0
VERTEX
  5
2C7
  8
0
  6
CONTINUOUS
 62
     7
 10
6.7364096397
 20
5.6543127004
 30
0.0
  0
SEQEND
  5
4FE
  8
0
  6
CONTINUOUS
 62
     7
  0
ARC
  5
F1
  8
0
  6
CONTINUOUS
 62
     7
 10
7.85944557
 20
4.4455590541
 30
0.0
 40
1.389854271693477
 50
64.4465664084
 51
115.5534335916
  0
POLYLINE
  5
F2
  8
0
  6
CONTINUOUS
 62
     7
 66
     1
 10
0.0
 20
0.0
 30
0.0
 70
   128
  0
VERTEX
  5
2C8
  8
0
  6
CONTINUOUS
 62
     7
 10
7.0193143256
 20
4.6283569686
 30
0.0
  0
VERTEX
  5
2C9
  8
0
  6
CONTINUOUS
 62
     7
 10
7.0578526276
 20
4.6070860007
 30
0.0
  0
VERTEX
  5
2CA
  8
0
  6
CONTINUOUS
 62
     7
 10
7.0980052311
 20
4.5868345901
 30
0.0
  0
VERTEX
  5
2CB
  8
0
  6
CONTINUOUS
 62
     7
 10
7.1396912741
 20
4.5676435202
 30
0.0
  0
VERTEX
  5
2CC
  8
0
  6
CONTINUOUS
 62
     7
 10
7.1828268065
 20
4.5495514395
 30
0.0
  0
VERTEX
  5
2CD
  8
0
  6
CONTINUOUS
 62
     7
 10
7.2273249591
 20
4.5325947829
 30
0.0
  0
VERTEX
  5
2CE
  8
0
  6
CONTINUOUS
 62
     7
 10
7.2730961184
 20
4.516807699
 30
0.0
  0
VERTEX
  5
2CF
  8
0
  6
CONTINUOUS
 62
     7
 10
7.3200481075
 20
4.5022219807
 30
0.0
  0
VERTEX
  5
2D0
  8
0
  6
CONTINUOUS
 62
     7
 10
7.3680863713
 20
4.4888670018
 30
0.0
  0
VERTEX
  5
2D1
  8
0
  6
CONTINUOUS
 62
     7
 10
7.4171141671
 20
4.4767696575
 30
0.0
  0
VERTEX
  5
2D2
  8
0
  6
CONTINUOUS
 62
     7
 10
7.4670327595
 20
4.4659543101
 30
0.0
  0
VERTEX
  5
2D3
  8
0
  6
CONTINUOUS
 62
     7
 10
7.5177416191
 20
4.4564427404
 30
0.0
  0
VERTEX
  5
2D4
  8
0
  6
CONTINUOUS
 62
     7
 10
7.5691386249
 20
4.4482541034
 30
0.0
  0
VERTEX
  5
2D5
  8
0
  6
CONTINUOUS
 62
     7
 10
7.6211202703
 20
4.4414048899
 30
0.0
  0
VERTEX
  5
2D6
  8
0
  6
CONTINUOUS
 62
     7
 10
7.6735818712
 20
4.4359088932
 30
0.0
  0
VERTEX
  5
2D7
  8
0
  6
CONTINUOUS
 62
     7
 10
7.7264177768
 20
4.4317771818
 30
0.0
  0
VERTEX
  5
2D8
  8
0
  6
CONTINUOUS
 62
     7
 10
7.7795215827
 20
4.4290180761
 30
0.0
  0
VERTEX
  5
2D9
  8
0
  6
CONTINUOUS
 62
     7
 10
7.8327863448
 20
4.4276371328
 30
0.0
  0
VERTEX
  5
2DA
  8
0
  6
CONTINUOUS
 62
     7
 10
7.8861047951
 20
4.4276371328
 30
0.0
  0
VERTEX
  5
2DB
  8
0
  6
CONTINUOUS
 62
     7
 10
7.9393695573
 20
4.4290180761
 30
0.0
  0
VERTEX
  5
2DC
  8
0
  6
CONTINUOUS
 62
     7
 10
7.9924733631
 20
4.4317771818
 30
0.0
  0
VERTEX
  5
2DD
  8
0
  6
CONTINUOUS
 62
     7
 10
8.0453092687
 20
4.4359088932
 30
0.0
  0
VERTEX
  5
2DE
  8
0
  6
CONTINUOUS
 62
     7
 10
8.0977708696
 20
4.4414048899
 30
0.0
  0
VERTEX
  5
2DF
  8
0
  6
CONTINUOUS
 62
     7
 10
8.149752515
 20
4.4482541034
 30
0.0
  0
VERTEX
  5
2E0
  8
0
  6
CONTINUOUS
 62
     7
 10
8.2011495209
 20
4.4564427404
 30
0.0
  0
VERTEX
  5
2E1
  8
0
  6
CONTINUOUS
 62
     7
 10
8.2518583805
 20
4.4659543101
 30
0.0
  0
VERTEX
  5
2E2
  8
0
  6
CONTINUOUS
 62
     7
 10
8.3017769729
 20
4.4767696575
 30
0.0
  0
VERTEX
  5
2E3
  8
0
  6
CONTINUOUS
 62
     7
 10
8.3508047687
 20
4.4888670018
 30
0.0
  0
VERTEX
  5
2E4
  8
0
  6
CONTINUOUS
 62
     7
 10
8.3988430325
 20
4.5022219807
 30
0.0
  0
VERTEX
  5
2E5
  8
0
  6
CONTINUOUS
 62
     7
 10
8.4457950216
 20
4.516807699
 30
0.0
  0
VERTEX
  5
2E6
  8
0
  6
CONTINUOUS
 62
     7
 10
8.4915661809
 20
4.5325947829
 30
0.0
  0
VERTEX
  5
2E7
  8
0
  6
CONTINUOUS
 62
     7
 10
8.5360643334
 20
4.5495514395
 30
0.0
  0
VERTEX
  5
2E8
  8
0
  6
CONTINUOUS
 62
     7
 10
8.5791998658
 20
4.5676435202
 30
0.0
  0
VERTEX
  5
2E9
  8
0
  6
CONTINUOUS
 62
     7
 10
8.6208859088
 20
4.5868345901
 30
0.0
  0
VERTEX
  5
2EA
  8
0
  6
CONTINUOUS
 62
     7
 10
8.6610385124
 20
4.6070860007
 30
0.0
  0
VERTEX
  5
2EB
  8
0
  6
CONTINUOUS
 62
     7
 10
8.6995768144
 20
4.6283569686
 30
0.0
  0
VERTEX
  5
2EC
  8
0
  6
CONTINUOUS
 62
     7
 10
8.699713326
 20
4.6284357879
 30
0.0
  0
SEQEND
  5
4FF
  8
0
  6
CONTINUOUS
 62
     7
  0
POLYLINE
  5
F3
  8
0
  6
CONTINUOUS
 62
     7
 66
     1
 10
0.0
 20
0.0
 30
0.0
 70
   128
  0
VERTEX
  5
2ED
  8
0
  6
CONTINUOUS
 62
     7
 10
8.5147471061
 20
5.48794251
 30
0.0
  0
VERTEX
  5
2EE
  8
0
  6
CONTINUOUS
 62
     7
 10
8.5007943246
 20
5.5047955378
 30
0.0
  0
VERTEX
  5
2EF
  8
0
  6
CONTINUOUS
 62
     7
 10
8.481036377
 20
5.5258148517
 30
0.0
  0
VERTEX
  5
2F0
  8
0
  6
CONTINUOUS
 62
     7
 10
8.4592135672
 20
5.5461421301
 30
0.0
  0
VERTEX
  5
2F1
  8
0
  6
CONTINUOUS
 62
     7
 10
8.4353983885
 20
5.5657098479
 30
0.0
  0
VERTEX
  5
2F2
  8
0
  6
CONTINUOUS
 62
     7
 10
8.4096699525
 20
5.584453003
 30
0.0
  0
VERTEX
  5
2F3
  8
0
  6
CONTINUOUS
 62
     7
 10
8.3821137263
 20
5.6023093326
 30
0.0
  0
VERTEX
  5
2F4
  8
0
  6
CONTINUOUS
 62
     7
 10
8.3528212492
 20
5.6192195197
 30
0.0
  0
VERTEX
  5
2F5
  8
0
  6
CONTINUOUS
 62
     7
 10
8.3218898276
 20
5.6351273904
 30
0.0
  0
VERTEX
  5
2F6
  8
0
  6
CONTINUOUS
 62
     7
 10
8.2894222127
 20
5.6499801004
 30
0.0
  0
VERTEX
  5
2F7
  8
0
  6
CONTINUOUS
 62
     7
 10
8.2555262587
 20
5.6637283104
 30
0.0
  0
VERTEX
  5
2F8
  8
0
  6
CONTINUOUS
 62
     7
 10
8.2203145644
 20
5.6763263504
 30
0.0
  0
VERTEX
  5
2F9
  8
0
  6
CONTINUOUS
 62
     7
 10
8.1839040996
 20
5.6877323707
 30
0.0
  0
VERTEX
  5
2FA
  8
0
  6
CONTINUOUS
 62
     7
 10
8.1464158163
 20
5.6979084819
 30
0.0
  0
VERTEX
  5
2FB
  8
0
  6
CONTINUOUS
 62
     7
 10
8.1079742466
 20
5.7068208798
 30
0.0
  0
VERTEX
  5
2FC
  8
0
  6
CONTINUOUS
 62
     7
 10
8.0687070896
 20
5.7144399585
 30
0.0
  0
VERTEX
  5
2FD
  8
0
  6
CONTINUOUS
 62
     7
 10
8.028744787
 20
5.720740408
 30
0.0
  0
VERTEX
  5
2FE
  8
0
  6
CONTINUOUS
 62
     7
 10
7.9882200893
 20
5.7257012989
 30
0.0
  0
VERTEX
  5
2FF
  8
0
  6
CONTINUOUS
 62
     7
 10
7.9472676157
 20
5.7293061517
 30
0.0
  0
VERTEX
  5
300
  8
0
  6
CONTINUOUS
 62
     7
 10
7.906023406
 20
5.7315429914
 30
0.0
  0
VERTEX
  5
301
  8
0
  6
CONTINUOUS
 62
     7
 10
7.8646244695
 20
5.7324043874
 30
0.0
  0
VERTEX
  5
302
  8
0
  6
CONTINUOUS
 62
     7
 10
7.8232083291
 20
5.7318874782
 30
0.0
  0
VERTEX
  5
303
  8
0
  6
CONTINUOUS
 62
     7
 10
7.7819125653
 20
5.729993981
 30
0.0
  0
VERTEX
  5
304
  8
0
  6
CONTINUOUS
 62
     7
 10
7.7408743583
 20
5.7267301858
 30
0.0
  0
VERTEX
  5
305
  8
0
  6
CONTINUOUS
 62
     7
 10
7.7002300329
 20
5.7221069346
 30
0.0
  0
VERTEX
  5
306
  8
0
  6
CONTINUOUS
 62
     7
 10
7.6601146056
 20
5.7161395853
 30
0.0
  0
VERTEX
  5
307
  8
0
  6
CONTINUOUS
 62
     7
 10
7.6206613356
 20
5.708847961
 30
0.0
  0
VERTEX
  5
308
  8
0
  6
CONTINUOUS
 62
     7
 10
7.5820012829
 20
5.7002562835
 30
0.0
  0
VERTEX
  5
309
  8
0
  6
CONTINUOUS
 62
     7
 10
7.5442628722
 20
5.6903930937
 30
0.0
  0
VERTEX
  5
30A
  8
0
  6
CONTINUOUS
 62
     7
 10
7.5075714667
 20
5.679291156
 30
0.0
  0
VERTEX
  5
30B
  8
0
  6
CONTINUOUS
 62
     7
 10
7.4720489516
 20
5.66698735
 30
0.0
  0
VERTEX
  5
30C
  8
0
  6
CONTINUOUS
 62
     7
 10
7.4378133291
 20
5.6535225477
 30
0.0
  0
VERTEX
  5
30D
  8
0
  6
CONTINUOUS
 62
     7
 10
7.4049783265
 20
5.6389414778
 30
0.0
  0
VERTEX
  5
30E
  8
0
  6
CONTINUOUS
 62
     7
 10
7.3736530184
 20
5.6232925771
 30
0.0
  0
VERTEX
  5
30F
  8
0
  6
CONTINUOUS
 62
     7
 10
7.3439414643
 20
5.6066278297
 30
0.0
  0
VERTEX
  5
310
  8
0
  6
CONTINUOUS
 62
     7
 10
7.3159423629
 20
5.5890025942
 30
0.0
  0
VERTEX
  5
311
  8
0
  6
CONTINUOUS
 62
     7
 10
7.2897487246
 20
5.57047542
 30
0.0
  0
VERTEX
  5
312
  8
0
  6
CONTINUOUS
 62
     7
 10
7.2654475619
 20
5.5511078523
 30
0.0
  0
VERTEX
  5
313
  8
0
  6
CONTINUOUS
 62
     7
 10
7.2431196009
 20
5.5309642284
 30
0.0
  0
VERTEX
  5
314
  8
0
  6
CONTINUOUS
 62
     7
 10
7.2228390127
 20
5.5101114632
 30
0.0
  0
VERTEX
  5
315
  8
0
  6
CONTINUOUS
 62
     7
 10
7.2046731675
 20
5.4886188277
 30
0.0
  0
VERTEX
  5
316
  8
0
  6
CONTINUOUS
 62
     7
 10
7.2041440339
 20
5.48794251
 30
0.0
  0
SEQEND
  5
500
  8
0
  6
CONTINUOUS
 62
     7
  0
POLYLINE
  5
F4
  8
0
  6
CONTINUOUS
 62
     7
 66
     1
 10
0.0
 20
0.0
 30
0.0
 70
   128
  0
VERTEX
  5
317
  8
0
  6
CONTINUOUS
 62
     7
 10
8.4134358998
 20
5.3940403166
 30
0.0
  0
VERTEX
  5
318
  8
0
  6
CONTINUOUS
 62
     7
 10
8.4096699525
 20
5.3966486162
 30
0.0
  0
VERTEX
  5
319
  8
0
  6
CONTINUOUS
 62
     7
 10
8.3821137263
 20
5.4145049458
 30
0.0
  0
VERTEX
  5
31A
  8
0
  6
CONTINUOUS
 62
     7
 10
8.3528212492
 20
5.431415133
 30
0.0
  0
VERTEX
  5
31B
  8
0
  6
CONTINUOUS
 62
     7
 10
8.3218898276
 20
5.4473230037
 30
0.0
  0
VERTEX
  5
31C
  8
0
  6
CONTINUOUS
 62
     7
 10
8.2894222127
 20
5.4621757137
 30
0.0
  0
VERTEX
  5
31D
  8
0
  6
CONTINUOUS
 62
     7
 10
8.2555262587
 20
5.4759239237
 30
0.0
  0
VERTEX
  5
31E
  8
0
  6
CONTINUOUS
 62
     7
 10
8.2203145644
 20
5.4885219636
 30
0.0
  0
VERTEX
  5
31F
  8
0
  6
CONTINUOUS
 62
     7
 10
8.1839040996
 20
5.499927984
 30
0.0
  0
VERTEX
  5
320
  8
0
  6
CONTINUOUS
 62
     7
 10
8.1464158163
 20
5.5101040951
 30
0.0
  0
VERTEX
  5
321
  8
0
  6
CONTINUOUS
 62
     7
 10
8.1079742466
 20
5.5190164931
 30
0.0
  0
VERTEX
  5
322
  8
0
  6
CONTINUOUS
 62
     7
 10
8.0687070896
 20
5.5266355717
 30
0.0
  0
VERTEX
  5
323
  8
0
  6
CONTINUOUS
 62
     7
 10
8.028744787
 20
5.5329360213
 30
0.0
  0
VERTEX
  5
324
  8
0
  6
CONTINUOUS
 62
     7
 10
7.9882200893
 20
5.5378969122
 30
0.0
  0
VERTEX
  5
325
  8
0
  6
CONTINUOUS
 62
     7
 10
7.9472676157
 20
5.541501765
 30
0.0
  0
VERTEX
  5
326
  8
0
  6
CONTINUOUS
 62
     7
 10
7.906023406
 20
5.5437386046
 30
0.0
  0
VERTEX
  5
327
  8
0
  6
CONTINUOUS
 62
     7
 10
7.8646244695
 20
5.5446000006
 30
0.0
  0
VERTEX
  5
328
  8
0
  6
CONTINUOUS
 62
     7
 10
7.8232083291
 20
5.5440830915
 30
0.0
  0
VERTEX
  5
329
  8
0
  6
CONTINUOUS
 62
     7
 10
7.7819125653
 20
5.5421895943
 30
0.0
  0
VERTEX
  5
32A
  8
0
  6
CONTINUOUS
 62
     7
 10
7.7408743583
 20
5.5389257991
 30
0.0
  0
VERTEX
  5
32B
  8
0
  6
CONTINUOUS
 62
     7
 10
7.7002300329
 20
5.5343025479
 30
0.0
  0
VERTEX
  5
32C
  8
0
  6
CONTINUOUS
 62
     7
 10
7.6601146056
 20
5.5283351986
 30
0.0
  0
VERTEX
  5
32D
  8
0
  6
CONTINUOUS
 62
     7
 10
7.6206613356
 20
5.5210435742
 30
0.0
  0
VERTEX
  5
32E
  8
0
  6
CONTINUOUS
 62
     7
 10
7.5820012829
 20
5.5124518968
 30
0.0
  0
VERTEX
  5
32F
  8
0
  6
CONTINUOUS
 62
     7
 10
7.5442628722
 20
5.502588707
 30
0.0
  0
VERTEX
  5
330
  8
0
  6
CONTINUOUS
 62
     7
 10
7.5075714667
 20
5.4914867693
 30
0.0
  0
VERTEX
  5
331
  8
0
  6
CONTINUOUS
 62
     7
 10
7.4720489516
 20
5.4791829633
 30
0.0
  0
VERTEX
  5
332
  8
0
  6
CONTINUOUS
 62
     7
 10
7.4378133291
 20
5.465718161
 30
0.0
  0
VERTEX
  5
333
  8
0
  6
CONTINUOUS
 62
     7
 10
7.4049783265
 20
5.451137091
 30
0.0
  0
VERTEX
  5
334
  8
0
  6
CONTINUOUS
 62
     7
 10
7.3736530184
 20
5.4354881903
 30
0.0
  0
VERTEX
  5
335
  8
0
  6
CONTINUOUS
 62
     7
 10
7.3439414643
 20
5.4188234429
 30
0.0
  0
VERTEX
  5
336
  8
0
  6
CONTINUOUS
 62
     7
 10
7.3159423629
 20
5.4011982075
 30
0.0
  0
VERTEX
  5
337
  8
0
  6
CONTINUOUS
 62
     7
 10
7.3054552402
 20
5.3940403166
 30
0.0
  0
SEQEND
  5
501
  8
0
  6
CONTINUOUS
 62
     7
  0
ARC
  5
F5
  8
0
  6
CONTINUOUS
 62
     7
 10
7.85944557
 20
4.4035235092
 30
0.0
 40
1.138690407533171
 50
63.0939261069
 51
116.9060738931
  0
POLYLINE
  5
F6
  8
0
  6
CONTINUOUS
 62
     7
 66
     1
 10
0.0
 20
0.0
 30
0.0
 70
   128
  0
VERTEX
  5
338
  8
0
  6
CONTINUOUS
 62
     7
 10
7.0900250037
 20
5.2305491824
 30
0.0
  0
VERTEX
  5
339
  8
0
  6
CONTINUOUS
 62
     7
 10
7.1269351631
 20
5.2102177984
 30
0.0
  0
VERTEX
  5
33A
  8
0
  6
CONTINUOUS
 62
     7
 10
7.1654555394
 20
5.1909075048
 30
0.0
  0
VERTEX
  5
33B
  8
0
  6
CONTINUOUS
 62
     7
 10
7.2055014564
 20
5.1726607497
 30
0.0
  0
VERTEX
  5
33C
  8
0
  6
CONTINUOUS
 62
     7
 10
7.2469848844
 20
5.1555176435
 30
0.0
  0
VERTEX
  5
33D
  8
0
  6
CONTINUOUS
 62
     7
 10
7.289814634
 20
5.1395158704
 30
0.0
  0
VERTEX
  5
33E
  8
0
  6
CONTINUOUS
 62
     7
 10
7.333896556
 20
5.1246906058
 30
0.0
  0
VERTEX
  5
33F
  8
0
  6
CONTINUOUS
 62
     7
 10
7.3791337488
 20
5.1110744389
 30
0.0
  0
VERTEX
  5
340
  8
0
  6
CONTINUOUS
 62
     7
 10
7.4254267712
 20
5.0986973009
 30
0.0
  0
VERTEX
  5
341
  8
0
  6
CONTINUOUS
 62
     7
 10
7.4726738612
 20
5.0875863995
 30
0.0
  0
VERTEX
  5
342
  8
0
  6
CONTINUOUS
 62
     7
 10
7.5207711592
 20
5.0777661588
 30
0.0
  0
VERTEX
  5
343
  8
0
  6
CONTINUOUS
 62
     7
 10
7.5696129372
 20
5.0692581659
 30
0.0
  0
VERTEX
  5
344
  8
0
  6
CONTINUOUS
 62
     7
 10
7.6190918302
 20
5.0620811232
 30
0.0
  0
VERTEX
  5
345
  8
0
  6
CONTINUOUS
 62
     7
 10
7.6690990728
 20
5.0562508074
 30
0.0
  0
VERTEX
  5
346
  8
0
  6
CONTINUOUS
 62
     7
 10
7.7195247384
 20
5.0517800348
 30
0.0
  0
VERTEX
  5
347
  8
0
  6
CONTINUOUS
 62
     7
 10
7.7702579803
 20
5.0486786331
 30
0.0
  0
VERTEX
  5
348
  8
0
  6
CONTINUOUS
 62
     7
 10
7.8211872759
 20
5.0469534199
 30
0.0
  0
VERTEX
  5
349
  8
0
  6
CONTINUOUS
 62
     7
 10
7.8722006715
 20
5.0466081875
 30
0.0
  0
VERTEX
  5
34A
  8
0
  6
CONTINUOUS
 62
     7
 10
7.9231860287
 20
5.0476436949
 30
0.0
  0
VERTEX
  5
34B
  8
0
  6
CONTINUOUS
 62
     7
 10
7.9740312705
 20
5.0500576658
 30
0.0
  0
VERTEX
  5
34C
  8
0
  6
CONTINUOUS
 62
     7
 10
8.024624628
 20
5.0538447937
 30
0.0
  0
VERTEX
  5
34D
  8
0
  6
CONTINUOUS
 62
     7
 10
8.0748548862
 20
5.0589967537
 30
0.0
  0
VERTEX
  5
34E
  8
0
  6
CONTINUOUS
 62
     7
 10
8.1246116279
 20
5.0655022208
 30
0.0
  0
VERTEX
  5
34F
  8
0
  6
CONTINUOUS
 62
     7
 10
8.173785477
 20
5.0733468944
 30
0.0
  0
VERTEX
  5
350
  8
0
  6
CONTINUOUS
 62
     7
 10
8.2222683388
 20
5.0825135303
 30
0.0
  0
VERTEX
  5
351
  8
0
  6
CONTINUOUS
 62
     7
 10
8.2699536375
 20
5.0929819782
 30
0.0
  0
VERTEX
  5
352
  8
0
  6
CONTINUOUS
 62
     7
 10
8.3167365503
 20
5.1047292262
 30
0.0
  0
VERTEX
  5
353
  8
0
  6
CONTINUOUS
 62
     7
 10
8.3625142383
 20
5.1177294513
 30
0.0
  0
VERTEX
  5
354
  8
0
  6
CONTINUOUS
 62
     7
 10
8.4071860722
 20
5.1319540762
 30
0.0
  0
VERTEX
  5
355
  8
0
  6
CONTINUOUS
 62
     7
 10
8.4506538536
 20
5.1473718321
 30
0.0
  0
VERTEX
  5
356
  8
0
  6
CONTINUOUS
 62
     7
 10
8.4928220308
 20
5.1639488273
 30
0.0
  0
VERTEX
  5
357
  8
0
  6
CONTINUOUS
 62
     7
 10
8.5335979092
 20
5.1816486222
 30
0.0
  0
VERTEX
  5
358
  8
0
  6
CONTINUOUS
 62
     7
 10
8.5728918543
 20
5.2004323086
 30
0.0
  0
VERTEX
  5
359
  8
0
  6
CONTINUOUS
 62
     7
 10
8.6106174898
 20
5.2202585959
 30
0.0
  0
VERTEX
  5
35A
  8
0
  6
CONTINUOUS
 62
     7
 10
8.6466918863
 20
5.2410839018
 30
0.0
  0
VERTEX
  5
35B
  8
0
  6
CONTINUOUS
 62
     7
 10
8.6810357445
 20
5.2628624475
 30
0.0
  0
VERTEX
  5
35C
  8
0
  6
CONTINUOUS
 62
     7
 10
8.7135735693
 20
5.2855463592
 30
0.0
  0
VERTEX
  5
35D
  8
0
  6
CONTINUOUS
 62
     7
 10
8.7442338353
 20
5.3090857728
 30
0.0
  0
VERTEX
  5
35E
  8
0
  6
CONTINUOUS
 62
     7
 10
8.7729491447
 20
5.3334289433
 30
0.0
  0
VERTEX
  5
35F
  8
0
  6
CONTINUOUS
 62
     7
 10
8.799656375
 20
5.3585223594
 30
0.0
  0
VERTEX
  5
360
  8
0
  6
CONTINUOUS
 62
     7
 10
8.8242968179
 20
5.3843108602
 30
0.0
  0
VERTEX
  5
361
  8
0
  6
CONTINUOUS
 62
     7
 10
8.8468163083
 20
5.4107377569
 30
0.0
  0
VERTEX
  5
362
  8
0
  6
CONTINUOUS
 62
     7
 10
8.8671653436
 20
5.4377449576
 30
0.0
  0
VERTEX
  5
363
  8
0
  6
CONTINUOUS
 62
     7
 10
8.8852991921
 20
5.4652730946
 30
0.0
  0
VERTEX
  5
364
  8
0
  6
CONTINUOUS
 62
     7
 10
8.9011779917
 20
5.493261655
 30
0.0
  0
VERTEX
  5
365
  8
0
  6
CONTINUOUS
 62
     7
 10
8.9147668373
 20
5.5216491138
 30
0.0
  0
VERTEX
  5
366
  8
0
  6
CONTINUOUS
 62
     7
 10
8.9260358578
 20
5.5503730694
 30
0.0
  0
VERTEX
  5
367
  8
0
  6
CONTINUOUS
 62
     7
 10
8.9349602814
 20
5.5793703802
 30
0.0
  0
VERTEX
  5
368
  8
0
  6
CONTINUOUS
 62
     7
 10
8.9415204901
 20
5.6085773038
 30
0.0
  0
VERTEX
  5
369
  8
0
  6
CONTINUOUS
 62
     7
 10
8.9457020634
 20
5.6379296372
 30
0.0
  0
VERTEX
  5
36A
  8
0
  6
CONTINUOUS
 62
     7
 10
8.9474958092
 20
5.6673628573
 30
0.0
  0
VERTEX
  5
36B
  8
0
  6
CONTINUOUS
 62
     7
 10
8.9468977844
 20
5.6968122638
 30
0.0
  0
VERTEX
  5
36C
  8
0
  6
CONTINUOUS
 62
     7
 10
8.9439093036
 20
5.7262131203
 30
0.0
  0
VERTEX
  5
36D
  8
0
  6
CONTINUOUS
 62
     7
 10
8.9385369361
 20
5.7555007975
 30
0.0
  0
VERTEX
  5
36E
  8
0
  6
CONTINUOUS
 62
     7
 10
8.9307924917
 20
5.7846109146
 30
0.0
  0
VERTEX
  5
36F
  8
0
  6
CONTINUOUS
 62
     7
 10
8.9206929942
 20
5.8134794813
 30
0.0
  0
VERTEX
  5
370
  8
0
  6
CONTINUOUS
 62
     7
 10
8.9082606445
 20
5.8420430382
 30
0.0
  0
VERTEX
  5
371
  8
0
  6
CONTINUOUS
 62
     7
 10
8.8935227717
 20
5.8702387964
 30
0.0
  0
VERTEX
  5
372
  8
0
  6
CONTINUOUS
 62
     7
 10
8.8765117728
 20
5.8980047756
 30
0.0
  0
VERTEX
  5
373
  8
0
  6
CONTINUOUS
 62
     7
 10
8.8572650416
 20
5.9252799401
 30
0.0
  0
VERTEX
  5
374
  8
0
  6
CONTINUOUS
 62
     7
 10
8.8358248867
 20
5.952004333
 30
0.0
  0
VERTEX
  5
375
  8
0
  6
CONTINUOUS
 62
     7
 10
8.8122384381
 20
5.9781192086
 30
0.0
  0
VERTEX
  5
376
  8
0
  6
CONTINUOUS
 62
     7
 10
8.786557544
 20
6.0035671605
 30
0.0
  0
VERTEX
  5
377
  8
0
  6
CONTINUOUS
 62
     7
 10
8.7588386566
 20
6.0282922486
 30
0.0
  0
VERTEX
  5
378
  8
0
  6
CONTINUOUS
 62
     7
 10
8.729142708
 20
6.0522401219
 30
0.0
  0
VERTEX
  5
379
  8
0
  6
CONTINUOUS
 62
     7
 10
8.6975349764
 20
6.0753581377
 30
0.0
  0
VERTEX
  5
37A
  8
0
  6
CONTINUOUS
 62
     7
 10
8.6640849423
 20
6.0975954776
 30
0.0
  0
VERTEX
  5
37B
  8
0
  6
CONTINUOUS
 62
     7
 10
8.6288661363
 20
6.1189032591
 30
0.0
  0
VERTEX
  5
37C
  8
0
  6
CONTINUOUS
 62
     7
 10
8.5919559768
 20
6.139234643
 30
0.0
  0
VERTEX
  5
37D
  8
0
  6
CONTINUOUS
 62
     7
 10
8.5534356005
 20
6.1585449367
 30
0.0
  0
VERTEX
  5
37E
  8
0
  6
CONTINUOUS
 62
     7
 10
8.5133896836
 20
6.1767916918
 30
0.0
  0
VERTEX
  5
37F
  8
0
  6
CONTINUOUS
 62
     7
 10
8.4719062555
 20
6.193934798
 30
0.0
  0
VERTEX
  5
380
  8
0
  6
CONTINUOUS
 62
     7
 10
8.4290765059
 20
6.2099365711
 30
0.0
  0
VERTEX
  5
381
  8
0
  6
CONTINUOUS
 62
     7
 10
8.3849945839
 20
6.2247618357
 30
0.0
  0
VERTEX
  5
382
  8
0
  6
CONTINUOUS
 62
     7
 10
8.3397573911
 20
6.2383780026
 30
0.0
  0
VERTEX
  5
383
  8
0
  6
CONTINUOUS
 62
     7
 10
8.2934643687
 20
6.2507551406
 30
0.0
  0
VERTEX
  5
384
  8
0
  6
CONTINUOUS
 62
     7
 10
8.2462172788
 20
6.261866042
 30
0.0
  0
VERTEX
  5
385
  8
0
  6
CONTINUOUS
 62
     7
 10
8.1981199807
 20
6.2716862826
 30
0.0
  0
VERTEX
  5
386
  8
0
  6
CONTINUOUS
 62
     7
 10
8.1492782028
 20
6.2801942755
 30
0.0
  0
VERTEX
  5
387
  8
0
  6
CONTINUOUS
 62
     7
 10
8.0997993098
 20
6.2873713182
 30
0.0
  0
VERTEX
  5
388
  8
0
  6
CONTINUOUS
 62
     7
 10
8.0497920671
 20
6.293201634
 30
0.0
  0
VERTEX
  5
389
  8
0
  6
CONTINUOUS
 62
     7
 10
7.9993664016
 20
6.2976724066
 30
0.0
  0
VERTEX
  5
38A
  8
0
  6
CONTINUOUS
 62
     7
 10
7.9486331597
 20
6.3007738083
 30
0.0
  0
VERTEX
  5
38B
  8
0
  6
CONTINUOUS
 62
     7
 10
7.8977038641
 20
6.3024990216
 30
0.0
  0
VERTEX
  5
38C
  8
0
  6
CONTINUOUS
 62
     7
 10
7.8466904684
 20
6.3028442539
 30
0.0
  0
VERTEX
  5
38D
  8
0
  6
CONTINUOUS
 62
     7
 10
7.7957051113
 20
6.3018087466
 30
0.0
  0
VERTEX
  5
38E
  8
0
  6
CONTINUOUS
 62
     7
 10
7.7448598695
 20
6.2993947757
 30
0.0
  0
VERTEX
  5
38F
  8
0
  6
CONTINUOUS
 62
     7
 10
7.6942665119
 20
6.2956076478
 30
0.0
  0
VERTEX
  5
390
  8
0
  6
CONTINUOUS
 62
     7
 10
7.6440362538
 20
6.2904556877
 30
0.0
  0
VERTEX
  5
391
  8
0
  6
CONTINUOUS
 62
     7
 10
7.5942795121
 20
6.2839502207
 30
0.0
  0
VERTEX
  5
392
  8
0
  6
CONTINUOUS
 62
     7
 10
7.5451056629
 20
6.2761055471
 30
0.0
  0
VERTEX
  5
393
  8
0
  6
CONTINUOUS
 62
     7
 10
7.4966228011
 20
6.2669389112
 30
0.0
  0
VERTEX
  5
394
  8
0
  6
CONTINUOUS
 62
     7
 10
7.4489375025
 20
6.2564704633
 30
0.0
  0
VERTEX
  5
395
  8
0
  6
CONTINUOUS
 62
     7
 10
7.4021545896
 20
6.2447232152
 30
0.0
  0
VERTEX
  5
396
  8
0
  6
CONTINUOUS
 62
     7
 10
7.3563769017
 20
6.2317229901
 30
0.0
  0
VERTEX
  5
397
  8
0
  6
CONTINUOUS
 62
     7
 10
7.3117050678
 20
6.2174983652
 30
0.0
  0
VERTEX
  5
398
  8
0
  6
CONTINUOUS
 62
     7
 10
7.2682372864
 20
6.2020806094
 30
0.0
  0
VERTEX
  5
399
  8
0
  6
CONTINUOUS
 62
     7
 10
7.2260691091
 20
6.1855036141
 30
0.0
  0
VERTEX
  5
39A
  8
0
  6
CONTINUOUS
 62
     7
 10
7.1852932308
 20
6.1678038193
 30
0.0
  0
VERTEX
  5
39B
  8
0
  6
CONTINUOUS
 62
     7
 10
7.1459992856
 20
6.1490201329
 30
0.0
  0
VERTEX
  5
39C
  8
0
  6
CONTINUOUS
 62
     7
 10
7.1082736502
 20
6.1291938455
 30
0.0
  0
VERTEX
  5
39D
  8
0
  6
CONTINUOUS
 62
     7
 10
7.0721992537
 20
6.1083685397
 30
0.0
  0
VERTEX
  5
39E
  8
0
  6
CONTINUOUS
 62
     7
 10
7.0378553954
 20
6.0865899939
 30
0.0
  0
VERTEX
  5
39F
  8
0
  6
CONTINUOUS
 62
     7
 10
7.0053175707
 20
6.0639060822
 30
0.0
  0
VERTEX
  5
3A0
  8
0
  6
CONTINUOUS
 62
     7
 10
6.9746573046
 20
6.0403666687
 30
0.0
  0
VERTEX
  5
3A1
  8
0
  6
CONTINUOUS
 62
     7
 10
6.9459419952
 20
6.0160234981
 30
0.0
  0
VERTEX
  5
3A2
  8
0
  6
CONTINUOUS
 62
     7
 10
6.919234765
 20
5.9909300821
 30
0.0
  0
VERTEX
  5
3A3
  8
0
  6
CONTINUOUS
 62
     7
 10
6.8945943221
 20
5.9651415813
 30
0.0
  0
VERTEX
  5
3A4
  8
0
  6
CONTINUOUS
 62
     7
 10
6.8720748316
 20
5.9387146845
 30
0.0
  0
VERTEX
  5
3A5
  8
0
  6
CONTINUOUS
 62
     7
 10
6.8517257964
 20
5.9117074838
 30
0.0
  0
VERTEX
  5
3A6
  8
0
  6
CONTINUOUS
 62
     7
 10
6.8335919479
 20
5.8841793469
 30
0.0
  0
VERTEX
  5
3A7
  8
0
  6
CONTINUOUS
 62
     7
 10
6.8177131483
 20
5.8561907865
 30
0.0
  0
VERTEX
  5
3A8
  8
0
  6
CONTINUOUS
 62
     7
 10
6.8041243026
 20
5.8278033276
 30
0.0
  0
VERTEX
  5
3A9
  8
0
  6
CONTINUOUS
 62
     7
 10
6.7928552821
 20
5.799079372
 30
0.0
  0
VERTEX
  5
3AA
  8
0
  6
CONTINUOUS
 62
     7
 10
6.7839308586
 20
5.7700820612
 30
0.0
  0
VERTEX
  5
3AB
  8
0
  6
CONTINUOUS
 62
     7
 10
6.7773706498
 20
5.7408751376
 30
0.0
  0
VERTEX
  5
3AC
  8
0
  6
CONTINUOUS
 62
     7
 10
6.7731890765
 20
5.7115228043
 30
0.0
  0
VERTEX
  5
3AD
  8
0
  6
CONTINUOUS
 62
     7
 10
6.7713953308
 20
5.6820895841
 30
0.0
  0
VERTEX
  5
3AE
  8
0
  6
CONTINUOUS
 62
     7
 10
6.7719933556
 20
5.6526401777
 30
0.0
  0
VERTEX
  5
3AF
  8
0
  6
CONTINUOUS
 62
     7
 10
6.7749818364
 20
5.6232393211
 30
0.0
  0
VERTEX
  5
3B0
  8
0
  6
CONTINUOUS
 62
     7
 10
6.7803542038
 20
5.593951644
 30
0.0
  0
VERTEX
  5
3B1
  8
0
  6
CONTINUOUS
 62
     7
 10
6.7880986483
 20
5.5648415269
 30
0.0
  0
VERTEX
  5
3B2
  8
0
  6
CONTINUOUS
 62
     7
 10
6.7981981458
 20
5.5359729602
 30
0.0
  0
VERTEX
  5
3B3
  8
0
  6
CONTINUOUS
 62
     7
 10
6.8106304954
 20
5.5074094033
 30
0.0
  0
VERTEX
  5
3B4
  8
0
  6
CONTINUOUS
 62
     7
 10
6.8253683682
 20
5.479213645
 30
0.0
  0
VERTEX
  5
3B5
  8
0
  6
CONTINUOUS
 62
     7
 10
6.8423793672
 20
5.4514476658
 30
0.0
  0
VERTEX
  5
3B6
  8
0
  6
CONTINUOUS
 62
     7
 10
6.8616260983
 20
5.4241725014
 30
0.0
  0
VERTEX
  5
3B7
  8
0
  6
CONTINUOUS
 62
     7
 10
6.8830662533
 20
5.3974481084
 30
0.0
  0
VERTEX
  5
3B8
  8
0
  6
CONTINUOUS
 62
     7
 10
6.9066527018
 20
5.3713332329
 30
0.0
  0
VERTEX
  5
3B9
  8
0
  6
CONTINUOUS
 62
     7
 10
6.9323335959
 20
5.345885281
 30
0.0
  0
VERTEX
  5
3BA
  8
0
  6
CONTINUOUS
 62
     7
 10
6.9600524833
 20
5.3211601928
 30
0.0
  0
VERTEX
  5
3BB
  8
0
  6
CONTINUOUS
 62
     7
 10
6.9897484319
 20
5.2972123196
 30
0.0
  0
VERTEX
  5
3BC
  8
0
  6
CONTINUOUS
 62
     7
 10
7.0213561636
 20
5.2740943038
 30
0.0
  0
VERTEX
  5
3BD
  8
0
  6
CONTINUOUS
 62
     7
 10
7.0548061977
 20
5.2518569639
 30
0.0
  0
VERTEX
  5
3BE
  8
0
  6
CONTINUOUS
 62
     7
 10
7.0900250037
 20
5.2305491824
 30
0.0
  0
SEQEND
  5
502
  8
0
  6
CONTINUOUS
 62
     7
  0
POLYLINE
  5
F7
  8
0
  6
CONTINUOUS
 62
     7
 66
     1
 10
0.0
 20
0.0
 30
0.0
 70
   128
  0
VERTEX
  5
3BF
  8
0
  6
CONTINUOUS
 62
     7
 10
7.3370704354
 20
5.3731654744
 30
0.0
  0
VERTEX
  5
3C0
  8
0
  6
CONTINUOUS
 62
     7
 10
7.3677441502
 20
5.3564415442
 30
0.0
  0
VERTEX
  5
3C1
  8
0
  6
CONTINUOUS
 62
     7
 10
7.4000216928
 20
5.3407557925
 30
0.0
  0
VERTEX
  5
3C2
  8
0
  6
CONTINUOUS
 62
     7
 10
7.4337977807
 20
5.3261593829
 30
0.0
  0
VERTEX
  5
3C3
  8
0
  6
CONTINUOUS
 62
     7
 10
7.4689622431
 20
5.3126999259
 30
0.0
  0
VERTEX
  5
3C4
  8
0
  6
CONTINUOUS
 62
     7
 10
7.505400381
 20
5.3004213234
 30
0.0
  0
VERTEX
  5
3C5
  8
0
  6
CONTINUOUS
 62
     7
 10
7.5429933408
 20
5.2893636257
 30
0.0
  0
VERTEX
  5
3C6
  8
0
  6
CONTINUOUS
 62
     7
 10
7.5816185019
 20
5.2795629007
 30
0.0
  0
VERTEX
  5
3C7
  8
0
  6
CONTINUOUS
 62
     7
 10
7.6211498771
 20
5.2710511163
 30
0.0
  0
VERTEX
  5
3C8
  8
0
  6
CONTINUOUS
 62
     7
 10
7.6614585234
 20
5.2638560361
 30
0.0
  0
VERTEX
  5
3C9
  8
0
  6
CONTINUOUS
 62
     7
 10
7.7024129623
 20
5.2580011291
 30
0.0
  0
VERTEX
  5
3CA
  8
0
  6
CONTINUOUS
 62
     7
 10
7.7438796089
 20
5.2535054928
 30
0.0
  0
VERTEX
  5
3CB
  8
0
  6
CONTINUOUS
 62
     7
 10
7.7857232077
 20
5.2503837909
 30
0.0
  0
VERTEX
  5
3CC
  8
0
  6
CONTINUOUS
 62
     7
 10
7.8278072735
 20
5.2486462058
 30
0.0
  0
VERTEX
  5
3CD
  8
0
  6
CONTINUOUS
 62
     7
 10
7.8699945368
 20
5.2482984052
 30
0.0
  0
VERTEX
  5
3CE
  8
0
  6
CONTINUOUS
 62
     7
 10
7.9121473916
 20
5.2493415234
 30
0.0
  0
VERTEX
  5
3CF
  8
0
  6
CONTINUOUS
 62
     7
 10
7.954128344
 20
5.2517721581
 30
0.0
  0
VERTEX
  5
3D0
  8
0
  6
CONTINUOUS
 62
     7
 10
7.9958004608
 20
5.2555823811
 30
0.0
  0
VERTEX
  5
3D1
  8
0
  6
CONTINUOUS
 62
     7
 10
8.0370278164
 20
5.2607597641
 30
0.0
  0
VERTEX
  5
3D2
  8
0
  6
CONTINUOUS
 62
     7
 10
8.0776759356
 20
5.2672874197
 30
0.0
  0
VERTEX
  5
3D3
  8
0
  6
CONTINUOUS
 62
     7
 10
8.1176122327
 20
5.275144056
 30
0.0
  0
VERTEX
  5
3D4
  8
0
  6
CONTINUOUS
 62
     7
 10
8.1567064437
 20
5.2843040462
 30
0.0
  0
VERTEX
  5
3D5
  8
0
  6
CONTINUOUS
 62
     7
 10
8.1948310517
 20
5.2947375124
 30
0.0
  0
VERTEX
  5
3D6
  8
0
  6
CONTINUOUS
 62
     7
 10
8.2318617018
 20
5.3064104229
 30
0.0
  0
VERTEX
  5
3D7
  8
0
  6
CONTINUOUS
 62
     7
 10
8.267677608
 20
5.3192847028
 30
0.0
  0
VERTEX
  5
3D8
  8
0
  6
CONTINUOUS
 62
     7
 10
8.3021619461
 20
5.3333183592
 30
0.0
  0
VERTEX
  5
3D9
  8
0
  6
CONTINUOUS
 62
     7
 10
8.3352022354
 20
5.348465617
 30
0.0
  0
VERTEX
  5
3DA
  8
0
  6
CONTINUOUS
 62
     7
 10
8.3666907054
 20
5.3646770691
 30
0.0
  0
VERTEX
  5
3DB
  8
0
  6
CONTINUOUS
 62
     7
 10
8.3965246471
 20
5.381899837
 30
0.0
  0
VERTEX
  5
3DC
  8
0
  6
CONTINUOUS
 62
     7
 10
8.4246067486
 20
5.4000777438
 30
0.0
  0
VERTEX
  5
3DD
  8
0
  6
CONTINUOUS
 62
     7
 10
8.4508454117
 20
5.4191514968
 30
0.0
  0
VERTEX
  5
3DE
  8
0
  6
CONTINUOUS
 62
     7
 10
8.4751550515
 20
5.4390588815
 30
0.0
  0
VERTEX
  5
3DF
  8
0
  6
CONTINUOUS
 62
     7
 10
8.4974563749
 20
5.459734964
 30
0.0
  0
VERTEX
  5
3E0
  8
0
  6
CONTINUOUS
 62
     7
 10
8.5176766397
 20
5.4811123033
 30
0.0
  0
VERTEX
  5
3E1
  8
0
  6
CONTINUOUS
 62
     7
 10
8.5357498916
 20
5.503121171
 30
0.0
  0
VERTEX
  5
3E2
  8
0
  6
CONTINUOUS
 62
     7
 10
8.5516171793
 20
5.5256897787
 30
0.0
  0
VERTEX
  5
3E3
  8
0
  6
CONTINUOUS
 62
     7
 10
8.5652267471
 20
5.5487445123
 30
0.0
  0
VERTEX
  5
3E4
  8
0
  6
CONTINUOUS
 62
     7
 10
8.5765342034
 20
5.572210172
 30
0.0
  0
VERTEX
  5
3E5
  8
0
  6
CONTINUOUS
 62
     7
 10
8.5855026657
 20
5.5960102178
 30
0.0
  0
VERTEX
  5
3E6
  8
0
  6
CONTINUOUS
 62
     7
 10
8.5921028806
 20
5.6200670188
 30
0.0
  0
VERTEX
  5
3E7
  8
0
  6
CONTINUOUS
 62
     7
 10
8.5963133196
 20
5.6443021067
 30
0.0
  0
VERTEX
  5
3E8
  8
0
  6
CONTINUOUS
 62
     7
 10
8.5981202492
 20
5.6686364318
 30
0.0
  0
VERTEX
  5
3E9
  8
0
  6
CONTINUOUS
 62
     7
 10
8.5975177756
 20
5.6929906205
 30
0.0
  0
VERTEX
  5
3EA
  8
0
  6
CONTINUOUS
 62
     7
 10
8.5945078638
 20
5.7172852346
 30
0.0
  0
VERTEX
  5
3EB
  8
0
  6
CONTINUOUS
 62
     7
 10
8.5891003316
 20
5.74144103
 30
0.0
  0
VERTEX
  5
3EC
  8
0
  6
CONTINUOUS
 62
     7
 10
8.5813128172
 20
5.7653792155
 30
0.0
  0
VERTEX
  5
3ED
  8
0
  6
CONTINUOUS
 62
     7
 10
8.5711707219
 20
5.7890217098
 30
0.0
  0
VERTEX
  5
3EE
  8
0
  6
CONTINUOUS
 62
     7
 10
8.5587071271
 20
5.812291396
 30
0.0
  0
VERTEX
  5
3EF
  8
0
  6
CONTINUOUS
 62
     7
 10
8.5439626864
 20
5.8351123732
 30
0.0
  0
VERTEX
  5
3F0
  8
0
  6
CONTINUOUS
 62
     7
 10
8.5269854932
 20
5.8574102041
 30
0.0
  0
VERTEX
  5
3F1
  8
0
  6
CONTINUOUS
 62
     7
 10
8.5078309235
 20
5.8791121578
 30
0.0
  0
VERTEX
  5
3F2
  8
0
  6
CONTINUOUS
 62
     7
 10
8.4865614556
 20
5.9001474471
 30
0.0
  0
VERTEX
  5
3F3
  8
0
  6
CONTINUOUS
 62
     7
 10
8.4632464659
 20
5.9204474592
 30
0.0
  0
VERTEX
  5
3F4
  8
0
  6
CONTINUOUS
 62
     7
 10
8.4379620033
 20
5.9399459796
 30
0.0
  0
VERTEX
  5
3F5
  8
0
  6
CONTINUOUS
 62
     7
 10
8.4107905403
 20
5.9585794084
 30
0.0
  0
VERTEX
  5
3F6
  8
0
  6
CONTINUOUS
 62
     7
 10
8.3818207046
 20
5.976286967
 30
0.0
  0
VERTEX
  5
3F7
  8
0
  6
CONTINUOUS
 62
     7
 10
8.3511469898
 20
5.9930108972
 30
0.0
  0
VERTEX
  5
3F8
  8
0
  6
CONTINUOUS
 62
     7
 10
8.3188694471
 20
6.0086966489
 30
0.0
  0
VERTEX
  5
3F9
  8
0
  6
CONTINUOUS
 62
     7
 10
8.2850933593
 20
6.0232930585
 30
0.0
  0
VERTEX
  5
3FA
  8
0
  6
CONTINUOUS
 62
     7
 10
8.2499288968
 20
6.0367525155
 30
0.0
  0
VERTEX
  5
3FB
  8
0
  6
CONTINUOUS
 62
     7
 10
8.2134907589
 20
6.049031118
 30
0.0
  0
VERTEX
  5
3FC
  8
0
  6
CONTINUOUS
 62
     7
 10
8.1758977992
 20
6.0600888157
 30
0.0
  0
VERTEX
  5
3FD
  8
0
  6
CONTINUOUS
 62
     7
 10
8.1372726381
 20
6.0698895408
 30
0.0
  0
VERTEX
  5
3FE
  8
0
  6
CONTINUOUS
 62
     7
 10
8.0977412628
 20
6.0784013252
 30
0.0
  0
VERTEX
  5
3FF
  8
0
  6
CONTINUOUS
 62
     7
 10
8.0574326165
 20
6.0855964053
 30
0.0
  0
VERTEX
  5
400
  8
0
  6
CONTINUOUS
 62
     7
 10
8.0164781776
 20
6.0914513123
 30
0.0
  0
VERTEX
  5
401
  8
0
  6
CONTINUOUS
 62
     7
 10
7.975011531
 20
6.0959469487
 30
0.0
  0
VERTEX
  5
402
  8
0
  6
CONTINUOUS
 62
     7
 10
7.9331679323
 20
6.0990686506
 30
0.0
  0
VERTEX
  5
403
  8
0
  6
CONTINUOUS
 62
     7
 10
7.8910838665
 20
6.1008062357
 30
0.0
  0
VERTEX
  5
404
  8
0
  6
CONTINUOUS
 62
     7
 10
7.8488966032
 20
6.1011540363
 30
0.0
  0
VERTEX
  5
405
  8
0
  6
CONTINUOUS
 62
     7
 10
7.8067437484
 20
6.100110918
 30
0.0
  0
VERTEX
  5
406
  8
0
  6
CONTINUOUS
 62
     7
 10
7.764762796
 20
6.0976802833
 30
0.0
  0
VERTEX
  5
407
  8
0
  6
CONTINUOUS
 62
     7
 10
7.7230906791
 20
6.0938700604
 30
0.0
  0
VERTEX
  5
408
  8
0
  6
CONTINUOUS
 62
     7
 10
7.6818633236
 20
6.0886926773
 30
0.0
  0
VERTEX
  5
409
  8
0
  6
CONTINUOUS
 62
     7
 10
7.6412152044
 20
6.0821650217
 30
0.0
  0
VERTEX
  5
40A
  8
0
  6
CONTINUOUS
 62
     7
 10
7.6012789073
 20
6.0743083855
 30
0.0
  0
VERTEX
  5
40B
  8
0
  6
CONTINUOUS
 62
     7
 10
7.5621846962
 20
6.0651483952
 30
0.0
  0
VERTEX
  5
40C
  8
0
  6
CONTINUOUS
 62
     7
 10
7.5240600883
 20
6.054714929
 30
0.0
  0
VERTEX
  5
40D
  8
0
  6
CONTINUOUS
 62
     7
 10
7.4870294381
 20
6.0430420186
 30
0.0
  0
VERTEX
  5
40E
  8
0
  6
CONTINUOUS
 62
     7
 10
7.4512135319
 20
6.0301677386
 30
0.0
  0
VERTEX
  5
40F
  8
0
  6
CONTINUOUS
 62
     7
 10
7.4167291938
 20
6.0161340823
 30
0.0
  0
VERTEX
  5
410
  8
0
  6
CONTINUOUS
 62
     7
 10
7.3836889045
 20
6.0009868245
 30
0.0
  0
VERTEX
  5
411
  8
0
  6
CONTINUOUS
 62
     7
 10
7.3522004346
 20
5.9847753724
 30
0.0
  0
VERTEX
  5
412
  8
0
  6
CONTINUOUS
 62
     7
 10
7.3223664928
 20
5.9675526044
 30
0.0
  0
VERTEX
  5
413
  8
0
  6
CONTINUOUS
 62
     7
 10
7.2942843914
 20
5.9493746976
 30
0.0
  0
VERTEX
  5
414
  8
0
  6
CONTINUOUS
 62
     7
 10
7.2680457282
 20
5.9303009446
 30
0.0
  0
VERTEX
  5
415
  8
0
  6
CONTINUOUS
 62
     7
 10
7.2437360885
 20
5.91039356
 30
0.0
  0
VERTEX
  5
416
  8
0
  6
CONTINUOUS
 62
     7
 10
7.221434765
 20
5.8897174774
 30
0.0
  0
VERTEX
  5
417
  8
0
  6
CONTINUOUS
 62
     7
 10
7.2012145002
 20
5.8683401381
 30
0.0
  0
VERTEX
  5
418
  8
0
  6
CONTINUOUS
 62
     7
 10
7.1831412484
 20
5.8463312704
 30
0.0
  0
VERTEX
  5
419
  8
0
  6
CONTINUOUS
 62
     7
 10
7.1672739606
 20
5.8237626628
 30
0.0
  0
VERTEX
  5
41A
  8
0
  6
CONTINUOUS
 62
     7
 10
7.1536643928
 20
5.8007079292
 30
0.0
  0
VERTEX
  5
41B
  8
0
  6
CONTINUOUS
 62
     7
 10
7.1423569365
 20
5.7772422695
 30
0.0
  0
VERTEX
  5
41C
  8
0
  6
CONTINUOUS
 62
     7
 10
7.1333884743
 20
5.7534422237
 30
0.0
  0
VERTEX
  5
41D
  8
0
  6
CONTINUOUS
 62
     7
 10
7.1267882593
 20
5.7293854227
 30
0.0
  0
VERTEX
  5
41E
  8
0
  6
CONTINUOUS
 62
     7
 10
7.1225778203
 20
5.7051503347
 30
0.0
  0
VERTEX
  5
41F
  8
0
  6
CONTINUOUS
 62
     7
 10
7.1207708907
 20
5.6808160096
 30
0.0
  0
VERTEX
  5
420
  8
0
  6
CONTINUOUS
 62
     7
 10
7.1213733644
 20
5.6564618209
 30
0.0
  0
VERTEX
  5
421
  8
0
  6
CONTINUOUS
 62
     7
 10
7.1243832762
 20
5.6321672069
 30
0.0
  0
VERTEX
  5
422
  8
0
  6
CONTINUOUS
 62
     7
 10
7.1297908084
 20
5.6080114115
 30
0.0
  0
VERTEX
  5
423
  8
0
  6
CONTINUOUS
 62
     7
 10
7.1375783227
 20
5.5840732259
 30
0.0
  0
VERTEX
  5
424
  8
0
  6
CONTINUOUS
 62
     7
 10
7.147720418
 20
5.5604307316
 30
0.0
  0
VERTEX
  5
425
  8
0
  6
CONTINUOUS
 62
     7
 10
7.1601840128
 20
5.5371610454
 30
0.0
  0
VERTEX
  5
426
  8
0
  6
CONTINUOUS
 62
     7
 10
7.1749284535
 20
5.5143400682
 30
0.0
  0
VERTEX
  5
427
  8
0
  6
CONTINUOUS
 62
     7
 10
7.1919056467
 20
5.4920422373
 30
0.0
  0
VERTEX
  5
428
  8
0
  6
CONTINUOUS
 62
     7
 10
7.2110602164
 20
5.4703402836
 30
0.0
  0
VERTEX
  5
429
  8
0
  6
CONTINUOUS
 62
     7
 10
7.2323296844
 20
5.4493049944
 30
0.0
  0
VERTEX
  5
42A
  8
0
  6
CONTINUOUS
 62
     7
 10
7.255644674
 20
5.4290049823
 30
0.0
  0
VERTEX
  5
42B
  8
0
  6
CONTINUOUS
 62
     7
 10
7.2809291367
 20
5.4095064618
 30
0.0
  0
VERTEX
  5
42C
  8
0
  6
CONTINUOUS
 62
     7
 10
7.3081005997
 20
5.3908730331
 30
0.0
  0
VERTEX
  5
42D
  8
0
  6
CONTINUOUS
 62
     7
 10
7.3370704354
 20
5.3731654744
 30
0.0
  0
SEQEND
  5
503
  8
0
  6
CONTINUOUS
 62
     7
  0
POLYLINE
  5
F8
  8
0
  6
CONTINUOUS
 62
     7
 66
     1
 10
0.0
 20
0.0
 30
0.0
 70
   128
  0
VERTEX
  5
42E
  8
0
  6
CONTINUOUS
 62
     7
 10
8.3747362812
 20
5.3691304516
 30
0.0
  0
VERTEX
  5
42F
  8
0
  6
CONTINUOUS
 62
     7
 10
8.3891692331
 20
5.3779533338
 30
0.0
  0
VERTEX
  5
430
  8
0
  6
CONTINUOUS
 62
     7
 10
8.4162768614
 20
5.3960370493
 30
0.0
  0
VERTEX
  5
431
  8
0
  6
CONTINUOUS
 62
     7
 10
8.4415347521
 20
5.4149922928
 30
0.0
  0
VERTEX
  5
432
  8
0
  6
CONTINUOUS
 62
     7
 10
8.4648590011
 20
5.434756097
 30
0.0
  0
VERTEX
  5
433
  8
0
  6
CONTINUOUS
 62
     7
 10
8.4861721275
 20
5.4552628085
 30
0.0
  0
VERTEX
  5
434
  8
0
  6
CONTINUOUS
 62
     7
 10
8.5054033314
 20
5.476444306
 30
0.0
  0
VERTEX
  5
435
  8
0
  6
CONTINUOUS
 62
     7
 10
8.5224887285
 20
5.4982302268
 30
0.0
  0
VERTEX
  5
436
  8
0
  6
CONTINUOUS
 62
     7
 10
8.5373715629
 20
5.5205482001
 30
0.0
  0
VERTEX
  5
437
  8
0
  6
CONTINUOUS
 62
     7
 10
8.5500023954
 20
5.5433240881
 30
0.0
  0
VERTEX
  5
438
  8
0
  6
CONTINUOUS
 62
     7
 10
8.5603392675
 20
5.5664822314
 30
0.0
  0
VERTEX
  5
439
  8
0
  6
CONTINUOUS
 62
     7
 10
8.5683478413
 20
5.589945701
 30
0.0
  0
VERTEX
  5
43A
  8
0
  6
CONTINUOUS
 62
     7
 10
8.574001513
 20
5.6136365536
 30
0.0
  0
VERTEX
  5
43B
  8
0
  6
CONTINUOUS
 62
     7
 10
8.5772815017
 20
5.6374760906
 30
0.0
  0
VERTEX
  5
43C
  8
0
  6
CONTINUOUS
 62
     7
 10
8.5781769116
 20
5.6613851195
 30
0.0
  0
VERTEX
  5
43D
  8
0
  6
CONTINUOUS
 62
     7
 10
8.5766847684
 20
5.6852842169
 30
0.0
  0
VERTEX
  5
43E
  8
0
  6
CONTINUOUS
 62
     7
 10
8.5728100286
 20
5.7090939923
 30
0.0
  0
VERTEX
  5
43F
  8
0
  6
CONTINUOUS
 62
     7
 10
8.5665655638
 20
5.7327353521
 30
0.0
  0
VERTEX
  5
440
  8
0
  6
CONTINUOUS
 62
     7
 10
8.5579721175
 20
5.7561297621
 30
0.0
  0
VERTEX
  5
441
  8
0
  6
CONTINUOUS
 62
     7
 10
8.5470582363
 20
5.7791995084
 30
0.0
  0
VERTEX
  5
442
  8
0
  6
CONTINUOUS
 62
     7
 10
8.533860175
 20
5.8018679556
 30
0.0
  0
VERTEX
  5
443
  8
0
  6
CONTINUOUS
 62
     7
 10
8.5184217761
 20
5.8240598014
 30
0.0
  0
VERTEX
  5
444
  8
0
  6
CONTINUOUS
 62
     7
 10
8.5007943246
 20
5.8457013267
 30
0.0
  0
VERTEX
  5
445
  8
0
  6
CONTINUOUS
 62
     7
 10
8.481036377
 20
5.8667206406
 30
0.0
  0
VERTEX
  5
446
  8
0
  6
CONTINUOUS
 62
     7
 10
8.4592135672
 20
5.8870479191
 30
0.0
  0
VERTEX
  5
447
  8
0
  6
CONTINUOUS
 62
     7
 10
8.4353983885
 20
5.9066156368
 30
0.0
  0
VERTEX
  5
448
  8
0
  6
CONTINUOUS
 62
     7
 10
8.4096699525
 20
5.9253587919
 30
0.0
  0
VERTEX
  5
449
  8
0
  6
CONTINUOUS
 62
     7
 10
8.3821137263
 20
5.9432151215
 30
0.0
  0
VERTEX
  5
44A
  8
0
  6
CONTINUOUS
 62
     7
 10
8.3528212492
 20
5.9601253087
 30
0.0
  0
VERTEX
  5
44B
  8
0
  6
CONTINUOUS
 62
     7
 10
8.3218898276
 20
5.9760331794
 30
0.0
  0
VERTEX
  5
44C
  8
0
  6
CONTINUOUS
 62
     7
 10
8.2894222127
 20
5.9908858894
 30
0.0
  0
VERTEX
  5
44D
  8
0
  6
CONTINUOUS
 62
     7
 10
8.2555262587
 20
6.0046340994
 30
0.0
  0
VERTEX
  5
44E
  8
0
  6
CONTINUOUS
 62
     7
 10
8.2203145644
 20
6.0172321393
 30
0.0
  0
VERTEX
  5
44F
  8
0
  6
CONTINUOUS
 62
     7
 10
8.1839040996
 20
6.0286381597
 30
0.0
  0
VERTEX
  5
450
  8
0
  6
CONTINUOUS
 62
     7
 10
8.1464158163
 20
6.0388142708
 30
0.0
  0
VERTEX
  5
451
  8
0
  6
CONTINUOUS
 62
     7
 10
8.1079742466
 20
6.0477266688
 30
0.0
  0
VERTEX
  5
452
  8
0
  6
CONTINUOUS
 62
     7
 10
8.0687070896
 20
6.0553457474
 30
0.0
  0
VERTEX
  5
453
  8
0
  6
CONTINUOUS
 62
     7
 10
8.028744787
 20
6.061646197
 30
0.0
  0
VERTEX
  5
454
  8
0
  6
CONTINUOUS
 62
     7
 10
7.9882200893
 20
6.0666070879
 30
0.0
  0
VERTEX
  5
455
  8
0
  6
CONTINUOUS
 62
     7
 10
7.9472676157
 20
6.0702119407
 30
0.0
  0
VERTEX
  5
456
  8
0
  6
CONTINUOUS
 62
     7
 10
7.906023406
 20
6.0724487803
 30
0.0
  0
VERTEX
  5
457
  8
0
  6
CONTINUOUS
 62
     7
 10
7.8646244695
 20
6.0733101763
 30
0.0
  0
VERTEX
  5
458
  8
0
  6
CONTINUOUS
 62
     7
 10
7.8232083291
 20
6.0727932672
 30
0.0
  0
VERTEX
  5
459
  8
0
  6
CONTINUOUS
 62
     7
 10
7.7819125653
 20
6.07089977
 30
0.0
  0
VERTEX
  5
45A
  8
0
  6
CONTINUOUS
 62
     7
 10
7.7408743583
 20
6.0676359748
 30
0.0
  0
VERTEX
  5
45B
  8
0
  6
CONTINUOUS
 62
     7
 10
7.7002300329
 20
6.0630127236
 30
0.0
  0
VERTEX
  5
45C
  8
0
  6
CONTINUOUS
 62
     7
 10
7.6601146056
 20
6.0570453743
 30
0.0
  0
VERTEX
  5
45D
  8
0
  6
CONTINUOUS
 62
     7
 10
7.6206613356
 20
6.0497537499
 30
0.0
  0
VERTEX
  5
45E
  8
0
  6
CONTINUOUS
 62
     7
 10
7.5820012829
 20
6.0411620725
 30
0.0
  0
VERTEX
  5
45F
  8
0
  6
CONTINUOUS
 62
     7
 10
7.5442628722
 20
6.0312988827
 30
0.0
  0
VERTEX
  5
460
  8
0
  6
CONTINUOUS
 62
     7
 10
7.5075714667
 20
6.020196945
 30
0.0
  0
VERTEX
  5
461
  8
0
  6
CONTINUOUS
 62
     7
 10
7.4720489516
 20
6.007893139
 30
0.0
  0
VERTEX
  5
462
  8
0
  6
CONTINUOUS
 62
     7
 10
7.4378133291
 20
5.9944283367
 30
0.0
  0
VERTEX
  5
463
  8
0
  6
CONTINUOUS
 62
     7
 10
7.4049783265
 20
5.9798472667
 30
0.0
  0
VERTEX
  5
464
  8
0
  6
CONTINUOUS
 62
     7
 10
7.3736530184
 20
5.964198366
 30
0.0
  0
VERTEX
  5
465
  8
0
  6
CONTINUOUS
 62
     7
 10
7.3439414643
 20
5.9475336186
 30
0.0
  0
VERTEX
  5
466
  8
0
  6
CONTINUOUS
 62
     7
 10
7.3159423629
 20
5.9299083832
 30
0.0
  0
VERTEX
  5
467
  8
0
  6
CONTINUOUS
 62
     7
 10
7.2897487246
 20
5.9113812089
 30
0.0
  0
VERTEX
  5
468
  8
0
  6
CONTINUOUS
 62
     7
 10
7.2654475619
 20
5.8920136413
 30
0.0
  0
VERTEX
  5
469
  8
0
  6
CONTINUOUS
 62
     7
 10
7.2431196009
 20
5.8718700173
 30
0.0
  0
VERTEX
  5
46A
  8
0
  6
CONTINUOUS
 62
     7
 10
7.2228390127
 20
5.8510172522
 30
0.0
  0
VERTEX
  5
46B
  8
0
  6
CONTINUOUS
 62
     7
 10
7.2046731675
 20
5.8295246166
 30
0.0
  0
VERTEX
  5
46C
  8
0
  6
CONTINUOUS
 62
     7
 10
7.1886824104
 20
5.807463507
 30
0.0
  0
VERTEX
  5
46D
  8
0
  6
CONTINUOUS
 62
     7
 10
7.1749198611
 20
5.7849072082
 30
0.0
  0
VERTEX
  5
46E
  8
0
  6
CONTINUOUS
 62
     7
 10
7.1634312373
 20
5.7619306499
 30
0.0
  0
VERTEX
  5
46F
  8
0
  6
CONTINUOUS
 62
     7
 10
7.1542547031
 20
5.7386101579
 30
0.0
  0
VERTEX
  5
470
  8
0
  6
CONTINUOUS
 62
     7
 10
7.147420742
 20
5.7150232005
 30
0.0
  0
VERTEX
  5
471
  8
0
  6
CONTINUOUS
 62
     7
 10
7.1429520559
 20
5.6912481314
 30
0.0
  0
VERTEX
  5
472
  8
0
  6
CONTINUOUS
 62
     7
 10
7.1408634891
 20
5.6673639287
 30
0.0
  0
VERTEX
  5
473
  8
0
  6
CONTINUOUS
 62
     7
 10
7.1411619798
 20
5.6434499336
 30
0.0
  0
VERTEX
  5
474
  8
0
  6
CONTINUOUS
 62
     7
 10
7.1438465363
 20
5.6195855857
 30
0.0
  0
VERTEX
  5
475
  8
0
  6
CONTINUOUS
 62
     7
 10
7.1489082408
 20
5.5958501602
 30
0.0
  0
VERTEX
  5
476
  8
0
  6
CONTINUOUS
 62
     7
 10
7.1563302789
 20
5.5723225037
 30
0.0
  0
VERTEX
  5
477
  8
0
  6
CONTINUOUS
 62
     7
 10
7.1660879952
 20
5.5490807728
 30
0.0
  0
VERTEX
  5
478
  8
0
  6
CONTINUOUS
 62
     7
 10
7.1781489757
 20
5.526202174
 30
0.0
  0
VERTEX
  5
479
  8
0
  6
CONTINUOUS
 62
     7
 10
7.192473155
 20
5.5037627079
 30
0.0
  0
VERTEX
  5
47A
  8
0
  6
CONTINUOUS
 62
     7
 10
7.2090129495
 20
5.481836916
 30
0.0
  0
VERTEX
  5
47B
  8
0
  6
CONTINUOUS
 62
     7
 10
7.2277134158
 20
5.4604976337
 30
0.0
  0
VERTEX
  5
47C
  8
0
  6
CONTINUOUS
 62
     7
 10
7.2485124328
 20
5.4398157478
 30
0.0
  0
VERTEX
  5
47D
  8
0
  6
CONTINUOUS
 62
     7
 10
7.2713409083
 20
5.4198599616
 30
0.0
  0
VERTEX
  5
47E
  8
0
  6
CONTINUOUS
 62
     7
 10
7.2961230083
 20
5.4006965662
 30
0.0
  0
VERTEX
  5
47F
  8
0
  6
CONTINUOUS
 62
     7
 10
7.3227764091
 20
5.3823892203
 30
0.0
  0
VERTEX
  5
480
  8
0
  6
CONTINUOUS
 62
     7
 10
7.3441548587
 20
5.3691304516
 30
0.0
  0
SEQEND
  5
504
  8
0
  6
CONTINUOUS
 62
     7
  0
POLYLINE
  5
F9
  8
0
  6
CONTINUOUS
 62
     7
 66
     1
 10
0.0
 20
0.0
 30
0.0
 70
   128
  0
VERTEX
  5
481
  8
0
  6
CONTINUOUS
 62
     7
 10
8.5595476792
 20
5.5644932111
 30
0.0
  0
VERTEX
  5
482
  8
0
  6
CONTINUOUS
 62
     7
 10
8.5579721175
 20
5.5683253754
 30
0.0
  0
VERTEX
  5
483
  8
0
  6
CONTINUOUS
 62
     7
 10
8.5470582363
 20
5.5913951217
 30
0.0
  0
VERTEX
  5
484
  8
0
  6
CONTINUOUS
 62
     7
 10
8.533860175
 20
5.6140635689
 30
0.0
  0
VERTEX
  5
485
  8
0
  6
CONTINUOUS
 62
     7
 10
8.5184217761
 20
5.6362554147
 30
0.0
  0
VERTEX
  5
486
  8
0
  6
CONTINUOUS
 62
     7
 10
8.5007943246
 20
5.65789694
 30
0.0
  0
VERTEX
  5
487
  8
0
  6
CONTINUOUS
 62
     7
 10
8.481036377
 20
5.6789162539
 30
0.0
  0
VERTEX
  5
488
  8
0
  6
CONTINUOUS
 62
     7
 10
8.4592135672
 20
5.6992435323
 30
0.0
  0
VERTEX
  5
489
  8
0
  6
CONTINUOUS
 62
     7
 10
8.4353983885
 20
5.7188112501
 30
0.0
  0
VERTEX
  5
48A
  8
0
  6
CONTINUOUS
 62
     7
 10
8.4096699525
 20
5.7375544052
 30
0.0
  0
VERTEX
  5
48B
  8
0
  6
CONTINUOUS
 62
     7
 10
8.3821137263
 20
5.7554107348
 30
0.0
  0
VERTEX
  5
48C
  8
0
  6
CONTINUOUS
 62
     7
 10
8.3528212492
 20
5.7723209219
 30
0.0
  0
VERTEX
  5
48D
  8
0
  6
CONTINUOUS
 62
     7
 10
8.3218898276
 20
5.7882287927
 30
0.0
  0
VERTEX
  5
48E
  8
0
  6
CONTINUOUS
 62
     7
 10
8.2894222127
 20
5.8030815026
 30
0.0
  0
VERTEX
  5
48F
  8
0
  6
CONTINUOUS
 62
     7
 10
8.2555262587
 20
5.8168297127
 30
0.0
  0
VERTEX
  5
490
  8
0
  6
CONTINUOUS
 62
     7
 10
8.2203145644
 20
5.8294277526
 30
0.0
  0
VERTEX
  5
491
  8
0
  6
CONTINUOUS
 62
     7
 10
8.1839040996
 20
5.8408337729
 30
0.0
  0
VERTEX
  5
492
  8
0
  6
CONTINUOUS
 62
     7
 10
8.1464158163
 20
5.8510098841
 30
0.0
  0
VERTEX
  5
493
  8
0
  6
CONTINUOUS
 62
     7
 10
8.1079742466
 20
5.8599222821
 30
0.0
  0
VERTEX
  5
494
  8
0
  6
CONTINUOUS
 62
     7
 10
8.0687070896
 20
5.8675413607
 30
0.0
  0
VERTEX
  5
495
  8
0
  6
CONTINUOUS
 62
     7
 10
8.028744787
 20
5.8738418102
 30
0.0
  0
VERTEX
  5
496
  8
0
  6
CONTINUOUS
 62
     7
 10
7.9882200893
 20
5.8788027012
 30
0.0
  0
VERTEX
  5
497
  8
0
  6
CONTINUOUS
 62
     7
 10
7.9472676157
 20
5.8824075539
 30
0.0
  0
VERTEX
  5
498
  8
0
  6
CONTINUOUS
 62
     7
 10
7.906023406
 20
5.8846443936
 30
0.0
  0
VERTEX
  5
499
  8
0
  6
CONTINUOUS
 62
     7
 10
7.8646244695
 20
5.8855057896
 30
0.0
  0
VERTEX
  5
49A
  8
0
  6
CONTINUOUS
 62
     7
 10
7.8232083291
 20
5.8849888804
 30
0.0
  0
VERTEX
  5
49B
  8
0
  6
CONTINUOUS
 62
     7
 10
7.7819125653
 20
5.8830953832
 30
0.0
  0
VERTEX
  5
49C
  8
0
  6
CONTINUOUS
 62
     7
 10
7.7408743583
 20
5.879831588
 30
0.0
  0
VERTEX
  5
49D
  8
0
  6
CONTINUOUS
 62
     7
 10
7.7002300329
 20
5.8752083368
 30
0.0
  0
VERTEX
  5
49E
  8
0
  6
CONTINUOUS
 62
     7
 10
7.6601146056
 20
5.8692409876
 30
0.0
  0
VERTEX
  5
49F
  8
0
  6
CONTINUOUS
 62
     7
 10
7.6206613356
 20
5.8619493632
 30
0.0
  0
VERTEX
  5
4A0
  8
0
  6
CONTINUOUS
 62
     7
 10
7.5820012829
 20
5.8533576857
 30
0.0
  0
VERTEX
  5
4A1
  8
0
  6
CONTINUOUS
 62
     7
 10
7.5442628722
 20
5.8434944959
 30
0.0
  0
VERTEX
  5
4A2
  8
0
  6
CONTINUOUS
 62
     7
 10
7.5075714667
 20
5.8323925583
 30
0.0
  0
VERTEX
  5
4A3
  8
0
  6
CONTINUOUS
 62
     7
 10
7.4720489516
 20
5.8200887523
 30
0.0
  0
VERTEX
  5
4A4
  8
0
  6
CONTINUOUS
 62
     7
 10
7.4378133291
 20
5.8066239499
 30
0.0
  0
VERTEX
  5
4A5
  8
0
  6
CONTINUOUS
 62
     7
 10
7.4049783265
 20
5.79204288
 30
0.0
  0
VERTEX
  5
4A6
  8
0
  6
CONTINUOUS
 62
     7
 10
7.3736530184
 20
5.7763939793
 30
0.0
  0
VERTEX
  5
4A7
  8
0
  6
CONTINUOUS
 62
     7
 10
7.3439414643
 20
5.7597292319
 30
0.0
  0
VERTEX
  5
4A8
  8
0
  6
CONTINUOUS
 62
     7
 10
7.3159423629
 20
5.7421039965
 30
0.0
  0
VERTEX
  5
4A9
  8
0
  6
CONTINUOUS
 62
     7
 10
7.2897487246
 20
5.7235768222
 30
0.0
  0
VERTEX
  5
4AA
  8
0
  6
CONTINUOUS
 62
     7
 10
7.2654475619
 20
5.7042092545
 30
0.0
  0
VERTEX
  5
4AB
  8
0
  6
CONTINUOUS
 62
     7
 10
7.2431196009
 20
5.6840656306
 30
0.0
  0
VERTEX
  5
4AC
  8
0
  6
CONTINUOUS
 62
     7
 10
7.2228390127
 20
5.6632128654
 30
0.0
  0
VERTEX
  5
4AD
  8
0
  6
CONTINUOUS
 62
     7
 10
7.2046731675
 20
5.6417202299
 30
0.0
  0
VERTEX
  5
4AE
  8
0
  6
CONTINUOUS
 62
     7
 10
7.1886824104
 20
5.6196591203
 30
0.0
  0
VERTEX
  5
4AF
  8
0
  6
CONTINUOUS
 62
     7
 10
7.1749198611
 20
5.5971028215
 30
0.0
  0
VERTEX
  5
4B0
  8
0
  6
CONTINUOUS
 62
     7
 10
7.1634312373
 20
5.5741262631
 30
0.0
  0
VERTEX
  5
4B1
  8
0
  6
CONTINUOUS
 62
     7
 10
7.1593434607
 20
5.5644932111
 30
0.0
  0
SEQEND
  5
505
  8
0
  6
CONTINUOUS
 62
     7
  0
POLYLINE
  5
FA
  8
0
  6
CONTINUOUS
 62
     8
 66
     1
 10
0.0
 20
0.0
 30
0.0
 70
   128
  0
VERTEX
  5
4B2
  8
0
  6
CONTINUOUS
 62
     8
 10
7.0087077239
 20
5.1550267875
 30
0.0
  0
VERTEX
  5
4B3
  8
0
  6
CONTINUOUS
 62
     8
 10
7.0474499469
 20
5.1336364525
 30
0.0
  0
VERTEX
  5
4B4
  8
0
  6
CONTINUOUS
 62
     8
 10
7.0878043122
 20
5.1132636603
 30
0.0
  0
VERTEX
  5
4B5
  8
0
  6
CONTINUOUS
 62
     8
 10
7.1296906997
 20
5.0939488593
 30
0.0
  0
VERTEX
  5
4B6
  8
0
  6
CONTINUOUS
 62
     8
 10
7.173025948
 20
5.0757303971
 30
0.0
  0
VERTEX
  5
4B7
  8
0
  6
CONTINUOUS
 62
     8
 10
7.2177240189
 20
5.0586444448
 30
0.0
  0
VERTEX
  5
4B8
  8
0
  6
CONTINUOUS
 62
     8
 10
7.2636961685
 20
5.0427249251
 30
0.0
  0
VERTEX
  5
4B9
  8
0
  6
CONTINUOUS
 62
     8
 10
7.3108511234
 20
5.0280034446
 30
0.0
  0
VERTEX
  5
4BA
  8
0
  6
CONTINUOUS
 62
     8
 10
7.3590952618
 20
5.0145092315
 30
0.0
  0
VERTEX
  5
4BB
  8
0
  6
CONTINUOUS
 62
     8
 10
7.4083327995
 20
5.0022690774
 30
0.0
  0
VERTEX
  5
4BC
  8
0
  6
CONTINUOUS
 62
     8
 10
7.4584659797
 20
4.9913072838
 30
0.0
  0
VERTEX
  5
4BD
  8
0
  6
CONTINUOUS
 62
     8
 10
7.5093952679
 20
4.9816456144
 30
0.0
  0
VERTEX
  5
4BE
  8
0
  6
CONTINUOUS
 62
     8
 10
7.5610195485
 20
4.9733032517
 30
0.0
  0
VERTEX
  5
4BF
  8
0
  6
CONTINUOUS
 62
     8
 10
7.6132363264
 20
4.9662967584
 30
0.0
  0
VERTEX
  5
4C0
  8
0
  6
CONTINUOUS
 62
     8
 10
7.6659419299
 20
4.9606400455
 30
0.0
  0
VERTEX
  5
4C1
  8
0
  6
CONTINUOUS
 62
     8
 10
7.719031717
 20
4.9563443438
 30
0.0
  0
VERTEX
  5
4C2
  8
0
  6
CONTINUOUS
 62
     8
 10
7.7724002828
 20
4.9534181819
 30
0.0
  0
VERTEX
  5
4C3
  8
0
  6
CONTINUOUS
 62
     8
 10
7.8259416689
 20
4.9518673696
 30
0.0
  0
VERTEX
  5
4C4
  8
0
  6
CONTINUOUS
 62
     8
 10
7.879549574
 20
4.9516949859
 30
0.0
  0
VERTEX
  5
4C5
  8
0
  6
CONTINUOUS
 62
     8
 10
7.9331175644
 20
4.9529013728
 30
0.0
  0
VERTEX
  5
4C6
  8
0
  6
CONTINUOUS
 62
     8
 10
7.9865392859
 20
4.9554841354
 30
0.0
  0
VERTEX
  5
4C7
  8
0
  6
CONTINUOUS
 62
     8
 10
8.0397086746
 20
4.9594381458
 30
0.0
  0
VERTEX
  5
4C8
  8
0
  6
CONTINUOUS
 62
     8
 10
8.0925201675
 20
4.9647555536
 30
0.0
  0
VERTEX
  5
4C9
  8
0
  6
CONTINUOUS
 62
     8
 10
8.1448689125
 20
4.9714258016
 30
0.0
  0
VERTEX
  5
4CA
  8
0
  6
CONTINUOUS
 62
     8
 10
8.1966509758
 20
4.9794356467
 30
0.0
  0
VERTEX
  5
4CB
  8
0
  6
CONTINUOUS
 62
     8
 10
8.2477635489
 20
4.9887691861
 30
0.0
  0
VERTEX
  5
4CC
  8
0
  6
CONTINUOUS
 62
     8
 10
8.2981051527
 20
4.9994078888
 30
0.0
  0
VERTEX
  5
4CD
  8
0
  6
CONTINUOUS
 62
     8
 10
8.3475758385
 20
5.0113306328
 30
0.0
  0
VERTEX
  5
4CE
  8
0
  6
CONTINUOUS
 62
     8
 10
8.3960773868
 20
5.0245137464
 30
0.0
  0
VERTEX
  5
4CF
  8
0
  6
CONTINUOUS
 62
     8
 10
8.4435135023
 20
5.038931056
 30
0.0
  0
VERTEX
  5
4D0
  8
0
  6
CONTINUOUS
 62
     8
 10
8.4897900051
 20
5.0545539371
 30
0.0
  0
VERTEX
  5
4D1
  8
0
  6
CONTINUOUS
 62
     8
 10
8.5348150172
 20
5.0713513721
 30
0.0
  0
VERTEX
  5
4D2
  8
0
  6
CONTINUOUS
 62
     8
 10
8.5784991459
 20
5.0892900112
 30
0.0
  0
VERTEX
  5
4D3
  8
0
  6
CONTINUOUS
 62
     8
 10
8.6207556602
 20
5.1083342389
 30
0.0
  0
VERTEX
  5
4D4
  8
0
  6
CONTINUOUS
 62
     8
 10
8.6615006638
 20
5.1284462447
 30
0.0
  0
VERTEX
  5
4D5
  8
0
  6
CONTINUOUS
 62
     8
 10
8.7006532613
 20
5.1495860979
 30
0.0
  0
VERTEX
  5
4D6
  8
0
  6
CONTINUOUS
 62
     8
 10
8.7381357188
 20
5.1717118274
 30
0.0
  0
VERTEX
  5
4D7
  8
0
  6
CONTINUOUS
 62
     8
 10
8.7738736183
 20
5.1947795046
 30
0.0
  0
VERTEX
  5
4D8
  8
0
  6
CONTINUOUS
 62
     8
 10
8.8077960056
 20
5.2187433308
 30
0.0
  0
VERTEX
  5
4D9
  8
0
  6
CONTINUOUS
 62
     8
 10
8.8398355308
 20
5.243555728
 30
0.0
  0
VERTEX
  5
4DA
  8
0
  6
CONTINUOUS
 62
     8
 10
8.8699285826
 20
5.2691674335
 30
0.0
  0
VERTEX
  5
4DB
  8
0
  6
CONTINUOUS
 62
     8
 10
8.8980154138
 20
5.2955275976
 30
0.0
  0
VERTEX
  5
4DC
  8
0
  6
CONTINUOUS
 62
     8
 10
8.9240402608
 20
5.3225838846
 30
0.0
  0
VERTEX
  5
4DD
  8
0
  6
CONTINUOUS
 62
     8
 10
8.9479514536
 20
5.3502825768
 30
0.0
  0
VERTEX
  5
4DE
  8
0
  6
CONTINUOUS
 62
     8
 10
8.9697015186
 20
5.3785686811
 30
0.0
  0
VERTEX
  5
4DF
  8
0
  6
CONTINUOUS
 62
     8
 10
8.9892472733
 20
5.4073860379
 30
0.0
  0
VERTEX
  5
4E0
  8
0
  6
CONTINUOUS
 62
     8
 10
9.0065499113
 20
5.4366774331
 30
0.0
  0
VERTEX
  5
4E1
  8
0
  6
CONTINUOUS
 62
     8
 10
9.0215750797
 20
5.4663847112
 30
0.0
  0
VERTEX
  5
4E2
  8
0
  6
CONTINUOUS
 62
     8
 10
9.0342929476
 20
5.4964488914
 30
0.0
  0
VERTEX
  5
4E3
  8
0
  6
CONTINUOUS
 62
     8
 10
9.0446782648
 20
5.5268102839
 30
0.0
  0
VERTEX
  5
4E4
  8
0
  6
CONTINUOUS
 62
     8
 10
9.0527104122
 20
5.5574086089
 30
0.0
  0
VERTEX
  5
4E5
  8
0
  6
CONTINUOUS
 62
     8
 10
9.0583734427
 20
5.5881831164
 30
0.0
  0
VERTEX
  5
4E6
  8
0
  6
CONTINUOUS
 62
     8
 10
9.0587444417
 20
5.5907999346
 30
0.0
  0
SEQEND
  5
506
  8
0
  6
CONTINUOUS
 62
     8
  0
POLYLINE
  5
FB
  8
0
  6
CONTINUOUS
 62
     8
 66
     1
 10
0.0
 20
0.0
 30
0.0
 70
   128
  0
VERTEX
  5
4E7
  8
0
  6
CONTINUOUS
 62
     8
 10
6.6606192258
 20
5.5874874683
 30
0.0
  0
VERTEX
  5
4E8
  8
0
  6
CONTINUOUS
 62
     8
 10
6.6645423456
 20
5.5650881004
 30
0.0
  0
VERTEX
  5
4E9
  8
0
  6
CONTINUOUS
 62
     8
 10
6.6719835256
 20
5.5344400186
 30
0.0
  0
VERTEX
  5
4EA
  8
0
  6
CONTINUOUS
 62
     8
 10
6.6817823015
 20
5.5040137214
 30
0.0
  0
VERTEX
  5
4EB
  8
0
  6
CONTINUOUS
 62
     8
 10
6.6939192188
 20
5.4738696171
 30
0.0
  0
VERTEX
  5
4EC
  8
0
  6
CONTINUOUS
 62
     8
 10
6.7083701808
 20
5.4440675543
 30
0.0
  0
VERTEX
  5
4ED
  8
0
  6
CONTINUOUS
 62
     8
 10
6.7251064964
 20
5.4146667021
 30
0.0
  0
VERTEX
  5
4EE
  8
0
  6
CONTINUOUS
 62
     8
 10
6.7440949373
 20
5.3857254331
 30
0.0
  0
VERTEX
  5
4EF
  8
0
  6
CONTINUOUS
 62
     8
 10
6.7652978036
 20
5.3573012077
 30
0.0
  0
VERTEX
  5
4F0
  8
0
  6
CONTINUOUS
 62
     8
 10
6.788672999
 20
5.3294504594
 30
0.0
  0
VERTEX
  5
4F1
  8
0
  6
CONTINUOUS
 62
     8
 10
6.8141741142
 20
5.3022284833
 30
0.0
  0
VERTEX
  5
4F2
  8
0
  6
CONTINUOUS
 62
     8
 10
6.8417505192
 20
5.2756893263
 30
0.0
  0
VERTEX
  5
4F3
  8
0
  6
CONTINUOUS
 62
     8
 10
6.8713474634
 20
5.2498856792
 30
0.0
  0
VERTEX
  5
4F4
  8
0
  6
CONTINUOUS
 62
     8
 10
6.902906185
 20
5.2248687729
 30
0.0
  0
VERTEX
  5
4F5
  8
0
  6
CONTINUOUS
 62
     8
 10
6.936364027
 20
5.200688276
 30
0.0
  0
VERTEX
  5
4F6
  8
0
  6
CONTINUOUS
 62
     8
 10
6.971654562
 20
5.1773921969
 30
0.0
  0
VERTEX
  5
4F7
  8
0
  6
CONTINUOUS
 62
     8
 10
7.0087077239
 20
5.1550267875
 30
0.0
  0
SEQEND
  5
507
  8
0
  6
CONTINUOUS
 62
     8
  0
ENDSEC
  0
EOF
