  0
SECTION
  2
HEADER
  9
$ACADVER
  1
AC1009
  9
$DWGCODEPAGE
  3
ansi_1252
  9
$INSBASE
 10
0.0
 20
0.0
 30
0.0
  9
$EXTMIN
 10
0.0
 20
0.0
 30
0.0
  9
$EXTMAX
 10
11.0
 20
8.5
 30
0.0
  9
$LIMMIN
 10
0.0
 20
0.0
  9
$LIMMAX
 10
11.0
 20
8.5
  9
$ORTHOMODE
 70
     0
  9
$REGENMODE
 70
     1
  9
$FILLMODE
 70
     1
  9
$QTEXTMODE
 70
     0
  9
$MIRRTEXT
 70
     1
  9
$DRAGMODE
 70
     2
  9
$LTSCALE
 40
1.0
  9
$OSMODE
 70
    37
  9
$ATTMODE
 70
     1
  9
$TEXTSIZE
 40
0.094
  9
$TRACEWID
 40
0.05
  9
$TEXTSTYLE
  7
STANDARD
  9
$CLAYER
  8
0
  9
$CELTYPE
  6
BYLAYER
  9
$CECOLOR
 62
   256
  9
$DIMSCALE
 40
1.0
  9
$DIMASZ
 40
0.094
  9
$DIMEXO
 40
0.05
  9
$DIMDLI
 40
0.38
  9
$DIMRND
 40
0.0
  9
$DIMDLE
 40
0.0
  9
$DIMEXE
 40
0.125
  9
$DIMTP
 40
0.0
  9
$DIMTM
 40
0.0
  9
$DIMTXT
 40
0.094
  9
$DIMCEN
 40
0.09
  9
$DIMTSZ
 40
0.0
  9
$DIMTOL
 70
     0
  9
$DIMLIM
 70
     0
  9
$DIMTIH
 70
     1
  9
$DIMTOH
 70
     1
  9
$DIMSE1
 70
     0
  9
$DIMSE2
 70
     0
  9
$DIMTAD
 70
     0
  9
$DIMZIN
 70
     0
  9
$DIMBLK
  1

  9
$DIMASO
 70
     1
  9
$DIMSHO
 70
     1
  9
$DIMPOST
  1

  9
$DIMAPOST
  1

  9
$DIMALT
 70
     0
  9
$DIMALTD
 70
     2
  9
$DIMALTF
 40
25.4
  9
$DIMLFAC
 40
1.0
  9
$DIMTOFL
 70
     0
  9
$DIMTVP
 40
0.0
  9
$DIMTIX
 70
     0
  9
$DIMSOXD
 70
     0
  9
$DIMSAH
 70
     0
  9
$DIMBLK1
  1

  9
$DIMBLK2
  1

  9
$DIMSTYLE
  2
STANDARD
  9
$DIMCLRD
 70
     0
  9
$DIMCLRE
 70
     0
  9
$DIMCLRT
 70
     0
  9
$DIMTFAC
 40
1.0
  9
$DIMGAP
 40
0.06
  9
$LUNITS
 70
     2
  9
$LUPREC
 70
     3
  9
$SKETCHINC
 40
0.1
  9
$FILLETRAD
 40
0.5
  9
$AUNITS
 70
     0
  9
$AUPREC
 70
     0
  9
$MENU
  1
.
  9
$ELEVATION
 40
0.0
  9
$PELEVATION
 40
0.0
  9
$THICKNESS
 40
0.0
  9
$LIMCHECK
 70
     0
  9
$CHAMFERA
 40
0.0
  9
$CHAMFERB
 40
0.0
  9
$SKPOLY
 70
     0
  9
$TDCREATE
 40
2457570.421841563
  9
$TDUPDATE
 40
2457570.421843912
  9
$TDINDWG
 40
0.0000000116
  9
$TDUSRTIMER
 40
0.0000000116
  9
$USRTIMER
 70
     1
  9
$ANGBASE
 50
0.0
  9
$ANGDIR
 70
     0
  9
$PDMODE
 70
     0
  9
$PDSIZE
 40
-1.0
  9
$PLINEWID
 40
0.0
  9
$COORDS
 70
     1
  9
$SPLFRAME
 70
     0
  9
$SPLINETYPE
 70
     6
  9
$SPLINESEGS
 70
     8
  9
$ATTDIA
 70
     0
  9
$ATTREQ
 70
     1
  9
$HANDLING
 70
     1
  9
$HANDSEED
  5
54D
  9
$SURFTAB1
 70
     6
  9
$SURFTAB2
 70
     6
  9
$SURFTYPE
 70
     6
  9
$SURFU
 70
     6
  9
$SURFV
 70
     6
  9
$UCSNAME
  2

  9
$UCSORG
 10
0.0
 20
0.0
 30
0.0
  9
$UCSXDIR
 10
1.0
 20
0.0
 30
0.0
  9
$UCSYDIR
 10
0.0
 20
1.0
 30
0.0
  9
$PUCSNAME
  2

  9
$PUCSORG
 10
0.0
 20
0.0
 30
0.0
  9
$PUCSXDIR
 10
1.0
 20
0.0
 30
0.0
  9
$PUCSYDIR
 10
0.0
 20
1.0
 30
0.0
  9
$USERI1
 70
     0
  9
$USERI2
 70
     0
  9
$USERI3
 70
     0
  9
$USERI4
 70
     0
  9
$USERI5
 70
     0
  9
$USERR1
 40
0.0
  9
$USERR2
 40
0.0
  9
$USERR3
 40
0.0
  9
$USERR4
 40
0.0
  9
$USERR5
 40
0.0
  9
$WORLDVIEW
 70
     1
  9
$SHADEDGE
 70
     3
  9
$SHADEDIF
 70
    70
  9
$TILEMODE
 70
     1
  9
$MAXACTVP
 70
    64
  9
$PLIMCHECK
 70
     0
  9
$PEXTMIN
 10
1.0000000000E+20
 20
1.0000000000E+20
 30
1.0000000000E+20
  9
$PEXTMAX
 10
-1.0000000000E+20
 20
-1.0000000000E+20
 30
-1.0000000000E+20
  9
$PLIMMIN
 10
0.0
 20
0.0
  9
$PLIMMAX
 10
12.0
 20
9.0
  9
$UNITMODE
 70
     0
  9
$VISRETAIN
 70
     1
  9
$PLINEGEN
 70
     0
  9
$PSLTSCALE
 70
     1
  0
ENDSEC
  0
SECTION
  2
TABLES
  0
TABLE
  2
VPORT
 70
     1
  0
VPORT
  2
*ACTIVE
 70
     0
 10
0.0
 20
0.0
 11
1.0
 21
1.0
 12
5.5
 22
4.25
 13
0.0
 23
0.0
 14
0.5
 24
0.5
 15
0.5
 25
0.5
 16
0.0
 26
0.0
 36
1.0
 17
0.0
 27
0.0
 37
0.0
 40
8.5
 41
1.2941176471
 42
50.0
 43
0.0
 44
0.0
 50
0.0
 51
0.0
 71
     0
 72
  2000
 73
     1
 74
     3
 75
     0
 76
     0
 77
     0
 78
     0
  0
ENDTAB
  0
TABLE
  2
LTYPE
 70
     6
  0
LTYPE
  2
CONTINUOUS
 70
     0
  3
Solid line
 72
    65
 73
     0
 40
0.0
  0
LTYPE
  2
HIDDEN
 70
     0
  3
Hidden __ __ __ __ __ __ __ __ __ __ __ __ __ __
 72
    65
 73
     2
 40
0.075
 49
0.05
 49
-0.025
  0
LTYPE
  2
PHANTOM
 70
     0
  3
Phantom ______  __  __  ______  __  __  ______
 72
    65
 73
     6
 40
0.5
 49
0.25
 49
-0.05
 49
0.05
 49
-0.05
 49
0.05
 49
-0.05
  0
LTYPE
  2
CENTER
 70
     0
  3
Center ____ _ ____ _ ____ _ ____ _ ____ _ ____
 72
    65
 73
     4
 40
0.4
 49
0.25
 49
-0.05
 49
0.05
 49
-0.05
  0
LTYPE
  2
CENTERX2
 70
     0
  3
Center (2x) ________  __  ________  __  _____
 72
    65
 73
     4
 40
0.8
 49
0.5
 49
-0.1
 49
0.1
 49
-0.1
  0
LTYPE
  2
DOT2
 70
     0
  3
Dot (.5x) ........................................
 72
    65
 73
     2
 40
0.025
 49
0.0
 49
-0.025
  0
ENDTAB
  0
TABLE
  2
LAYER
 70
     2
  0
LAYER
  2
0
 70
     0
 62
     7
  6
CONTINUOUS
  0
LAYER
  2
FORMAT
 70
     0
 62
     7
  6
CONTINUOUS
  0
ENDTAB
  0
TABLE
  2
STYLE
 70
     1
  0
STYLE
  2
STANDARD
 70
     0
 40
0.0
 41
1.0
 50
0.0
 71
     0
 42
0.094
  3
txt
  4

  0
ENDTAB
  0
TABLE
  2
VIEW
 70
     0
  0
ENDTAB
  0
TABLE
  2
UCS
 70
     0
  0
ENDTAB
  0
TABLE
  2
APPID
 70
     1
  0
APPID
  2
ACAD
 70
     0
  0
ENDTAB
  0
TABLE
  2
DIMSTYLE
 70
     3
  0
DIMSTYLE
  2
STANDARD
 70
     0
  3

  4

  5

  6

  7

 40
1.0
 41
0.18
 42
0.0625
 43
0.38
 44
0.18
 45
0.0
 46
0.0
 47
0.0
 48
0.0
140
0.18
141
0.09
142
0.0
143
25.4
144
1.0
145
0.0
146
1.0
147
0.09
 71
     0
 72
     0
 73
     1
 74
     1
 75
     0
 76
     0
 77
     0
 78
     0
170
     0
171
     2
172
     0
173
     0
174
     0
175
     0
176
     0
177
     0
178
     0
  0
DIMSTYLE
  2
SLDDIMSTYLE0
 70
     0
  3

  4

  5

  6

  7

 40
1.0
 41
0.094
 42
0.0625
 43
0.38
 44
0.0
 45
0.000000001
 46
0.0
 47
0.0
 48
0.0
140
0.094
141
0.09
142
0.0
143
25.4
144
1.0
145
0.0
146
1.0
147
0.0235
 71
     0
 72
     0
 73
     1
 74
     1
 75
     0
 76
     0
 77
     0
 78
    12
170
     0
171
     2
172
     0
173
     1
174
     0
175
     0
176
     0
177
     0
178
     0
  0
DIMSTYLE
  2
SLDDIMSTYLE1
 70
     0
  3

  4

  5

  6

  7

 40
1.0
 41
0.094
 42
0.0625
 43
0.38
 44
0.0
 45
0.000000001
 46
0.0
 47
0.0
 48
0.0
140
0.094
141
0.09
142
0.0
143
25.4
144
1.0
145
0.0
146
1.0
147
0.0235
 71
     0
 72
     0
 73
     1
 74
     1
 75
     0
 76
     0
 77
     0
 78
     4
170
     0
171
     2
172
     0
173
     1
174
     0
175
     0
176
     0
177
     0
178
     0
  0
ENDTAB
  0
ENDSEC
  0
SECTION
  2
BLOCKS
  0
BLOCK
  8
0
  2
$MODEL_SPACE
 70
     0
 10
0.0
 20
0.0
 30
0.0
  3
$MODEL_SPACE
  1

  0
ENDBLK
  5
21
  8
0
  0
BLOCK
 67
     1
  8
0
  2
$PAPER_SPACE
 70
     0
 10
0.0
 20
0.0
 30
0.0
  3
$PAPER_SPACE
  1

  0
ENDBLK
  5
1D
 67
     1
  8
0
  0
BLOCK
  8
0
  2
SW_NOTE_0
 70
     0
 10
0.0
 20
0.0
 30
0.0
  3
SW_NOTE_0
  1

  0
TEXT
  5
8F
  8
0
  6
CONTINUOUS
 62
     0
 10
0.0
 20
0.0595238095
 30
0.0
 40
0.2083333333
  1
Auburn Bearing
 41
0.7
 11
0.0
 21
0.0
 31
0.0
 73
     1
  0
TEXT
  5
90
  8
0
  6
CONTINUOUS
 62
     0
 10
0.3324845058
 20
-0.1309523812
 30
0.0
 40
0.125
  1
& MANUFACTURING
 41
0.7
 11
0.3324845058
 21
-0.1666666669
 31
0.0
 73
     1
  0
TEXT
  5
91
  8
0
  6
CONTINUOUS
 62
     0
 10
0.2038966512
 20
-0.2757936494
 30
0.0
 40
0.1041666667
  1
Made in the USA since 1898
 41
0.6326923077
 11
0.2038966512
 21
-0.3055555542
 31
0.0
 73
     1
  0
ENDBLK
  5
8E
  8
0
  0
BLOCK
  8
0
  2
SW_NOTE_1
 70
     0
 10
0.0
 20
0.0
 30
0.0
  3
SW_NOTE_1
  1

  0
TEXT
  5
97
  8
0
  6
CONTINUOUS
 62
     0
 10
0.0
 20
0.0142857143
 30
0.0
 40
0.05
  1
THE INFORMATION CONTAINED IN THIS DRAWING IS THE SOLE PROPERTY OF AUBURN BALL BEARING.  ANY 
 41
0.6391304348
 11
0.0
 21
0.0
 31
0.0
 73
     1
  0
TEXT
  5
98
  8
0
  6
CONTINUOUS
 62
     0
 10
-0.1618921698
 20
-0.0750843666
 30
0.0
 40
0.05
  1
REPRODUCTION IN WHOLE OR IN PART WITHOUT THE WRITTEN PERMISSION OF AUBURN BALL BEARING IS PROHIBITED.
 41
0.648019802
 11
-0.1618921698
 21
-0.0893700809
 31
0.0
 73
     1
  0
ENDBLK
  5
96
  8
0
  0
BLOCK
  8
0
  2
_D
 70
     0
 10
0.0
 20
0.0
 30
0.0
  3
_D
  1

  0
SOLID
  5
B3
  8
0
  6
CONTINUOUS
 62
     7
 10
4.9435429662
 20
2.5945319516
 30
0.0
 11
4.9290814277
 21
2.5005319516
 31
0.0
 12
4.9580045046
 22
2.5005319516
 32
0.0
 13
4.9580045046
 23
2.5005319516
 33
0.0
  0
SOLID
  5
B4
  8
0
  6
CONTINUOUS
 62
     7
 10
4.9435429662
 20
1.9070319516
 30
0.0
 11
4.9580045046
 21
2.0010319516
 31
0.0
 12
4.9290814277
 22
2.0010319516
 32
0.0
 13
4.9290814277
 23
2.0010319516
 33
0.0
  0
LINE
  5
B5
  8
0
  6
CONTINUOUS
 62
     7
 10
4.2641807615
 20
2.5945319516
 30
0.0
 11
5.0685429662
 21
2.5945319516
 31
0.0
  0
LINE
  5
B6
  8
0
  6
CONTINUOUS
 62
     7
 10
4.3541807615
 20
1.9070319516
 30
0.0
 11
5.0685429662
 21
1.9070319516
 31
0.0
  0
LINE
  5
B7
  8
0
  6
CONTINUOUS
 62
     7
 10
4.9435429662
 20
2.5945319516
 30
0.0
 11
4.9435429662
 21
2.3497406573
 31
0.0
  0
LINE
  5
B8
  8
0
  6
CONTINUOUS
 62
     7
 10
4.9435429662
 20
1.9070319516
 30
0.0
 11
4.9435429662
 21
2.200515657
 31
0.0
  0
TEXT
  5
B9
  8
0
  6
CONTINUOUS
 62
     7
 10
4.8219957453
 20
2.2273728021
 30
0.0
 40
0.094
  1
.688
 41
0.7
 11
4.8219957453
 21
2.2005156593
 31
0.0
 73
     1
  0
ENDBLK
  5
B2
  8
0
  0
BLOCK
  8
0
  2
_D_1
 70
     0
 10
0.0
 20
0.0
 30
0.0
  3
_D_1
  1

  0
SOLID
  5
CE
  8
0
  6
CONTINUOUS
 62
     7
 10
2.0479307615
 20
3.8277267178
 30
0.0
 11
2.1419307615
 21
3.8132651794
 31
0.0
 12
2.1419307615
 22
3.8421882563
 32
0.0
 13
2.1419307615
 23
3.8421882563
 33
0.0
  0
SOLID
  5
CF
  8
0
  6
CONTINUOUS
 62
     7
 10
3.8604307615
 20
3.8277267178
 30
0.0
 11
3.7664307615
 21
3.8421882563
 31
0.0
 12
3.7664307615
 22
3.8132651794
 32
0.0
 13
3.7664307615
 23
3.8132651794
 33
0.0
  0
LINE
  5
D0
  8
0
  6
CONTINUOUS
 62
     7
 10
2.0479307615
 20
5.5464275052
 30
0.0
 11
2.0479307615
 21
3.7027267178
 31
0.0
  0
LINE
  5
D1
  8
0
  6
CONTINUOUS
 62
     7
 10
3.8604307615
 20
5.5464275052
 30
0.0
 11
3.8604307615
 21
3.7027267178
 31
0.0
  0
LINE
  5
D2
  8
0
  6
CONTINUOUS
 62
     7
 10
2.0479307615
 20
3.8277267178
 30
0.0
 11
2.5938119782
 21
3.8277267178
 31
0.0
  0
LINE
  5
D3
  8
0
  6
CONTINUOUS
 62
     7
 10
3.8604307615
 20
3.8277267178
 30
0.0
 11
3.0481256866
 21
3.8277267178
 31
0.0
  0
TEXT
  5
D4
  8
0
  6
CONTINUOUS
 62
     7
 10
2.5938119782
 20
3.7792533049
 30
-0.9375
 40
0.094
  1
%%c
 41
0.7
 11
2.5938119782
 21
3.752396162
 31
-0.9375
 73
     1
  0
TEXT
  5
D5
  8
0
  6
CONTINUOUS
 62
     7
 10
2.7355757281
 20
3.7806894162
 30
-0.9375
 40
0.094
  1
1.813
 41
0.7
 11
2.7355757281
 21
3.7538322734
 31
-0.9375
 73
     1
  0
ENDBLK
  5
CD
  8
0
  0
BLOCK
  8
0
  2
_D_2
 70
     0
 10
0.0
 20
0.0
 30
0.0
  3
_D_2
  1

  0
SOLID
  5
DB
  8
0
  6
CONTINUOUS
 62
     7
 10
1.5791807615
 20
7.4485079346
 30
0.0
 11
1.6731807615
 21
7.4340463962
 31
0.0
 12
1.6731807615
 22
7.4629694731
 32
0.0
 13
1.6731807615
 23
7.4629694731
 33
0.0
  0
SOLID
  5
DC
  8
0
  6
CONTINUOUS
 62
     7
 10
4.3291807615
 20
7.4485079346
 30
0.0
 11
4.2351807615
 21
7.4629694731
 31
0.0
 12
4.2351807615
 22
7.4340463962
 32
0.0
 13
4.2351807615
 23
7.4340463962
 33
0.0
  0
LINE
  5
DD
  8
0
  6
CONTINUOUS
 62
     7
 10
1.5791807615
 20
5.6464275052
 30
0.0
 11
1.5791807615
 21
7.5735079346
 31
0.0
  0
LINE
  5
DE
  8
0
  6
CONTINUOUS
 62
     7
 10
4.3291807615
 20
5.6464275052
 30
0.0
 11
4.3291807615
 21
7.5735079346
 31
0.0
  0
LINE
  5
DF
  8
0
  6
CONTINUOUS
 62
     7
 10
1.5791807615
 20
7.4485079346
 30
0.0
 11
2.5867760475
 21
7.4485079346
 31
0.0
  0
LINE
  5
E0
  8
0
  6
CONTINUOUS
 62
     7
 10
4.3291807615
 20
7.4485079346
 30
0.0
 11
3.0410897559
 21
7.4485079346
 31
0.0
  0
TEXT
  5
E1
  8
0
  6
CONTINUOUS
 62
     7
 10
2.5867760475
 20
7.4000345217
 30
-0.9375
 40
0.094
  1
%%c
 41
0.7
 11
2.5867760475
 21
7.3731773788
 31
-0.9375
 73
     1
  0
TEXT
  5
E2
  8
0
  6
CONTINUOUS
 62
     7
 10
2.7285397973
 20
7.401470633
 30
-0.9375
 40
0.094
  1
2.750
 41
0.7
 11
2.7285397973
 21
7.3746134901
 31
-0.9375
 73
     1
  0
ENDBLK
  5
DA
  8
0
  0
ENDSEC
  0
SECTION
  2
ENTITIES
  0
LINE
  5
75
  8
0
  6
CONTINUOUS
 62
     7
 10
0.2588915831
 20
8.1920731707
 30
0.0
 11
10.629927
 21
8.1920731707
 31
0.0
  0
LINE
  5
76
  8
0
  6
CONTINUOUS
 62
     7
 10
0.2588915831
 20
8.1920731707
 30
0.0
 11
0.2588915831
 21
0.3920731707
 31
0.0
  0
LINE
  5
77
  8
0
  6
CONTINUOUS
 62
     7
 10
10.629927
 20
0.3920731707
 30
0.0
 11
0.2588915831
 21
0.3920731707
 31
0.0
  0
LINE
  5
78
  8
0
  6
CONTINUOUS
 62
     7
 10
10.629927
 20
0.3920731707
 30
0.0
 11
10.629927
 21
8.1920731707
 31
0.0
  0
LINE
  5
79
  8
0
  6
CONTINUOUS
 62
     7
 10
6.895369671
 20
0.6920731707
 30
0.0
 11
6.895369671
 21
0.3920731707
 31
0.0
  0
LINE
  5
7A
  8
0
  6
CONTINUOUS
 62
     7
 10
6.895369671
 20
2.2538646663
 30
0.0
 11
6.895369671
 21
0.6920731707
 31
0.0
  0
LINE
  5
7B
  8
0
  6
CONTINUOUS
 62
     7
 10
6.895369671
 20
0.6920731707
 30
0.0
 11
10.629927
 21
0.6920731707
 31
0.0
  0
LINE
  5
7C
  8
0
  6
CONTINUOUS
 62
     7
 10
6.895369671
 20
1.2938884062
 30
0.0
 11
10.629927
 21
1.2938884062
 31
0.0
  0
LINE
  5
7D
  8
0
  6
CONTINUOUS
 62
     7
 10
7.4789412454
 20
1.0420731707
 30
0.0
 11
10.629927
 21
1.0420731707
 31
0.0
  0
LINE
  5
7E
  8
0
  6
CONTINUOUS
 62
     7
 10
7.4789412454
 20
1.0420731707
 30
0.0
 11
6.895369671
 21
1.0420731707
 31
0.0
  0
LINE
  5
7F
  8
0
  6
CONTINUOUS
 62
     7
 10
10.629927
 20
2.2538646663
 30
0.0
 11
5.7428859
 21
2.2538646663
 31
0.0
  0
LINE
  5
80
  8
0
  6
CONTINUOUS
 62
     7
 10
6.7188368717
 20
0.6155953096
 30
0.0
 11
6.4188368717
 21
0.6155953096
 31
0.0
  0
LINE
  5
81
  8
0
  6
CONTINUOUS
 62
     7
 10
5.9688368717
 20
0.7405953096
 30
0.0
 11
5.9688368717
 21
0.4905953096
 31
0.0
  0
LINE
  5
82
  8
0
  6
CONTINUOUS
 62
     7
 10
5.9688368717
 20
0.7405953096
 30
0.0
 11
6.2688368717
 21
0.6780953096
 31
0.0
  0
LINE
  5
83
  8
0
  6
CONTINUOUS
 62
     7
 10
6.2688368717
 20
0.6780953096
 30
0.0
 11
6.2688368717
 21
0.5530953096
 31
0.0
  0
LINE
  5
84
  8
0
  6
CONTINUOUS
 62
     7
 10
6.2688368717
 20
0.5530953096
 30
0.0
 11
5.9688368717
 21
0.4905953096
 31
0.0
  0
LINE
  5
85
  8
0
  6
CONTINUOUS
 62
     7
 10
6.5688368717
 20
0.7655953096
 30
0.0
 11
6.5688368717
 21
0.4655953096
 31
0.0
  0
LINE
  5
86
  8
0
  6
CONTINUOUS
 62
     7
 10
6.2938368717
 20
0.6155953096
 30
0.0
 11
5.9438368717
 21
0.6155953096
 31
0.0
  0
LINE
  5
87
  8
0
  6
CONTINUOUS
 62
     7
 10
6.895369671
 20
0.8670731707
 30
0.0
 11
5.7428859
 21
0.8670731707
 31
0.0
  0
LINE
  5
88
  8
0
  6
CONTINUOUS
 62
     7
 10
5.7428859
 20
0.3920731707
 30
0.0
 11
5.7428859
 21
2.2538646663
 31
0.0
  0
CIRCLE
  5
89
  8
0
  6
CONTINUOUS
 62
     7
 10
6.5688368717
 20
0.6155953096
 30
0.0
 40
0.1250000000000005
  0
CIRCLE
  5
8A
  8
0
  6
CONTINUOUS
 62
     7
 10
6.5688368717
 20
0.6155953096
 30
0.0
 40
0.0624999999999998
  0
TEXT
  5
8B
  8
0
  6
CONTINUOUS
 62
     7
 10
6.9454407988
 20
0.9317074042
 30
0.0
 40
0.0833333333
  1
ITEM NUMBER
 41
0.7
 11
6.9454407988
 21
0.9078978804
 31
0.0
 73
     1
  0
INSERT
  5
92
  8
0
  6
CONTINUOUS
 62
     7
  2
SW_NOTE_0
 10
7.6846410003
 20
1.7911336193
 30
0.0
  0
TEXT
  5
93
  8
0
  6
CONTINUOUS
 62
     7
 10
6.9585720202
 20
1.2010031148
 30
0.0
 40
0.065
  1
DESCRIPTION
 41
0.7
 11
6.9585720202
 21
1.1824316862
 31
0.0
 73
     1
  0
INSERT
  5
99
  8
0
  6
CONTINUOUS
 62
     7
  2
SW_NOTE_1
 10
7.1289909583
 20
0.5372783317
 30
0.0
  0
TEXT
  5
9A
  8
0
  6
CONTINUOUS
 62
     7
 10
9.0934941975
 20
1.1196799494
 30
0.0
 40
0.094
  1
Thrust Bearing, Enclosed
 41
0.6708333333
 11
9.0934941975
 21
1.0928228066
 31
0.0
 73
     1
  0
TEXT
  5
9B
  8
0
  6
CONTINUOUS
 62
     7
 10
9.5076037807
 20
0.7720958494
 30
0.0
 40
0.19
  1
T-100-25
 41
0.7
 11
9.5076037807
 21
0.7178101351
 31
0.0
 73
     1
  0
ARC
  5
9C
  8
0
  6
CONTINUOUS
 62
     7
 10
1.5991807615
 20
2.5595319516
 30
0.0
 40
0.02
 50
90.0
 51
180.0
  0
ARC
  5
9D
  8
0
  6
CONTINUOUS
 62
     7
 10
4.3091807615
 20
2.5595319516
 30
0.0
 40
0.0200000000000005
 50
0.0
 51
90.0
  0
LINE
  5
9E
  8
0
  6
CONTINUOUS
 62
     7
 10
1.5791807615
 20
2.5595319516
 30
0.0
 11
1.5791807615
 21
1.9220319516
 31
0.0
  0
LINE
  5
9F
  8
0
  6
CONTINUOUS
 62
     7
 10
4.3291807615
 20
1.9220319516
 30
0.0
 11
4.3291807615
 21
2.5595319516
 31
0.0
  0
LINE
  5
A0
  8
0
  6
CONTINUOUS
 62
     7
 10
1.5791807615
 20
1.9220319516
 30
0.0
 11
1.5941807615
 21
1.9070319516
 31
0.0
  0
LINE
  5
A1
  8
0
  6
CONTINUOUS
 62
     7
 10
4.3141807615
 20
1.9070319516
 30
0.0
 11
4.3291807615
 21
1.9220319516
 31
0.0
  0
LINE
  5
A2
  8
0
  6
CONTINUOUS
 62
     7
 10
4.2291807615
 20
2.5795319516
 30
0.0
 11
4.2141807615
 21
2.5945319516
 31
0.0
  0
LINE
  5
A3
  8
0
  6
CONTINUOUS
 62
     7
 10
1.6941807615
 20
2.5945319516
 30
0.0
 11
1.6791807615
 21
2.5795319516
 31
0.0
  0
LINE
  5
A4
  8
0
  6
CONTINUOUS
 62
     7
 10
2.9541807615
 20
2.5795319516
 30
0.0
 11
4.3091807615
 21
2.5795319516
 31
0.0
  0
LINE
  5
A5
  8
0
  6
CONTINUOUS
 62
     7
 10
1.5991807615
 20
2.5795319516
 30
0.0
 11
2.9541807615
 21
2.5795319516
 31
0.0
  0
LINE
  5
A6
  8
0
  6
CONTINUOUS
 62
     7
 10
2.9541807615
 20
1.9220319516
 30
0.0
 11
4.3291807615
 21
1.9220319516
 31
0.0
  0
LINE
  5
A7
  8
0
  6
CONTINUOUS
 62
     7
 10
1.5791807615
 20
1.9220319516
 30
0.0
 11
2.9541807615
 21
1.9220319516
 31
0.0
  0
LINE
  5
A8
  8
0
  6
CONTINUOUS
 62
     7
 10
2.9541807615
 20
1.9070319516
 30
0.0
 11
4.3141807615
 21
1.9070319516
 31
0.0
  0
LINE
  5
A9
  8
0
  6
CONTINUOUS
 62
     7
 10
1.5941807615
 20
1.9070319516
 30
0.0
 11
2.9541807615
 21
1.9070319516
 31
0.0
  0
LINE
  5
AA
  8
0
  6
CONTINUOUS
 62
     7
 10
2.9541807615
 20
2.5945319516
 30
0.0
 11
4.2141807615
 21
2.5945319516
 31
0.0
  0
LINE
  5
AB
  8
0
  6
CONTINUOUS
 62
     7
 10
1.6941807615
 20
2.5945319516
 30
0.0
 11
2.9541807615
 21
2.5945319516
 31
0.0
  0
LINE
  5
AC
  8
0
  6
CONTINUOUS
 62
     8
 10
2.9541807615
 20
2.5595319516
 30
0.0
 11
4.3291807615
 21
2.5595319516
 31
0.0
  0
LINE
  5
AD
  8
0
  6
CONTINUOUS
 62
     8
 10
1.5791807615
 20
2.5595319516
 30
0.0
 11
2.9541807615
 21
2.5595319516
 31
0.0
  0
DIMENSION
  5
AE
  8
0
  6
CONTINUOUS
 62
     7
  2
_D
 10
4.9435429662
 20
1.9070319516
 30
0.0
 11
4.9435429662
 21
2.2751281571
 31
0.0
 70
   160
  1
<>
  3
SLDDIMSTYLE0
 13
4.2141807615
 23
2.5945319516
 33
0.0
 14
4.3041807615
 24
1.9070319516
 34
0.0
 50
90.0
  0
CIRCLE
  5
BA
  8
0
  6
CONTINUOUS
 62
     7
 10
2.9541807615
 20
5.5964275052
 30
0.0
 40
1.375
  0
CIRCLE
  5
BB
  8
0
  6
CONTINUOUS
 62
     7
 10
2.9541807615
 20
5.5964275052
 30
0.0
 40
1.355
  0
CIRCLE
  5
BC
  8
0
  6
CONTINUOUS
 62
     7
 10
2.9541807615
 20
5.5964275052
 30
0.0
 40
1.295
  0
CIRCLE
  5
BD
  8
0
  6
CONTINUOUS
 62
     7
 10
2.9541807615
 20
5.5964275052
 30
0.0
 40
1.26
  0
CIRCLE
  5
BE
  8
0
  6
CONTINUOUS
 62
     7
 10
2.9541807615
 20
5.5964275052
 30
0.0
 40
0.9262500000000005
  0
CIRCLE
  5
BF
  8
0
  6
CONTINUOUS
 62
     7
 10
2.9541807615
 20
5.5964275052
 30
0.0
 40
0.90625
  0
CIRCLE
  5
C0
  8
0
  6
HIDDEN
 62
     7
 10
2.9541807615
 20
5.5964275052
 30
0.0
 40
1.355
  0
CIRCLE
  5
C1
  8
0
  6
HIDDEN
 62
     7
 10
2.9541807615
 20
5.5964275052
 30
0.0
 40
1.35
  0
CIRCLE
  5
C2
  8
0
  6
HIDDEN
 62
     7
 10
2.9541807615
 20
5.5964275052
 30
0.0
 40
1.359999999999999
  0
CIRCLE
  5
C3
  8
0
  6
HIDDEN
 62
     7
 10
2.9541807615
 20
5.5964275052
 30
0.0
 40
1.348
  0
CIRCLE
  5
C4
  8
0
  6
HIDDEN
 62
     7
 10
2.9541807615
 20
5.5964275052
 30
0.0
 40
1.31475
  0
CIRCLE
  5
C5
  8
0
  6
HIDDEN
 62
     7
 10
2.9541807615
 20
5.5964275052
 30
0.0
 40
1.06475
  0
CIRCLE
  5
C6
  8
0
  6
HIDDEN
 62
     7
 10
2.9541807615
 20
6.7861775052
 30
0.0
 40
0.1562500000000009
  0
CIRCLE
  5
C7
  8
0
  6
HIDDEN
 62
     7
 10
4.1439307615
 20
5.5964275052
 30
0.0
 40
0.1562500000000009
  0
CIRCLE
  5
C8
  8
0
  6
HIDDEN
 62
     7
 10
2.9541807615
 20
4.4066775052
 30
0.0
 40
0.15625
  0
CIRCLE
  5
C9
  8
0
  6
HIDDEN
 62
     7
 10
1.7644307615
 20
5.5964275052
 30
0.0
 40
0.1562499999999991
  0
DIMENSION
  5
CA
  8
0
  6
CONTINUOUS
 62
     7
  2
_D_1
 10
3.8604307615
 20
3.8277267178
 30
0.0
 11
2.8209688324
 21
3.8277267178
 31
0.0
 70
   160
  1
%%c<>
  3
SLDDIMSTYLE0
 13
2.0479307615
 23
5.5964275052
 33
0.0
 14
3.8604307615
 24
5.5964275052
 34
0.0
  0
DIMENSION
  5
D6
  8
0
  6
CONTINUOUS
 62
     7
  2
_D_2
 10
4.3291807615
 20
7.4485079346
 30
0.0
 11
2.8139329017
 21
7.4485079346
 31
0.0
 70
   160
  1
%%c<>
  3
SLDDIMSTYLE1
 13
1.5791807615
 23
5.5964275052
 33
0.0
 14
4.3291807615
 24
5.5964275052
 34
0.0
  0
ARC
  5
E3
  8
0
  6
CONTINUOUS
 62
     7
 10
8.8576244915
 20
5.5659038349
 30
0.0
 40
0.1562499999999994
 50
212.2329971506
 51
231.9739621125
  0
LINE
  5
E4
  8
0
  6
CONTINUOUS
 62
     7
 10
8.7959367003
 20
5.4223466027
 30
0.0
 11
8.7980939808
 21
5.4214386806
 31
0.0
  0
LINE
  5
E5
  8
0
  6
CONTINUOUS
 62
     7
 10
7.2345944165
 20
5.4214386806
 30
0.0
 11
7.2367516969
 21
5.4223466027
 31
0.0
  0
ARC
  5
E6
  8
0
  6
CONTINUOUS
 62
     7
 10
7.1750639057
 20
5.5659038349
 30
0.0
 40
0.1562500000000004
 50
308.0260378875
 51
327.7670028494
  0
POLYLINE
  5
E7
  8
0
  6
CONTINUOUS
 62
     7
 66
     1
 10
0.0
 20
0.0
 30
0.0
 70
   128
  0
VERTEX
  5
101
  8
0
  6
CONTINUOUS
 62
     7
 10
9.3849904012
 20
5.4077944912
 30
0.0
  0
VERTEX
  5
102
  8
0
  6
CONTINUOUS
 62
     7
 10
9.3824204383
 20
5.4239337126
 30
0.0
  0
VERTEX
  5
103
  8
0
  6
CONTINUOUS
 62
     7
 10
9.3746388327
 20
5.4574689283
 30
0.0
  0
VERTEX
  5
104
  8
0
  6
CONTINUOUS
 62
     7
 10
9.364453462
 20
5.4907828023
 30
0.0
  0
VERTEX
  5
105
  8
0
  6
CONTINUOUS
 62
     7
 10
9.3518782652
 20
5.5238203583
 30
0.0
  0
VERTEX
  5
106
  8
0
  6
CONTINUOUS
 62
     7
 10
9.3369307802
 20
5.5565252099
 30
0.0
  0
VERTEX
  5
107
  8
0
  6
CONTINUOUS
 62
     7
 10
9.3196329385
 20
5.5888395747
 30
0.0
  0
VERTEX
  5
108
  8
0
  6
CONTINUOUS
 62
     7
 10
9.3000117092
 20
5.6207046175
 30
0.0
  0
VERTEX
  5
109
  8
0
  6
CONTINUOUS
 62
     7
 10
9.2780994903
 20
5.6520610217
 30
0.0
  0
VERTEX
  5
10A
  8
0
  6
CONTINUOUS
 62
     7
 10
9.2539342202
 20
5.6828496608
 30
0.0
  0
VERTEX
  5
10B
  8
0
  6
CONTINUOUS
 62
     7
 10
9.227559241
 20
5.7130122543
 30
0.0
  0
VERTEX
  5
10C
  8
0
  6
CONTINUOUS
 62
     7
 10
9.1990229836
 20
5.7424919239
 30
0.0
  0
VERTEX
  5
10D
  8
0
  6
CONTINUOUS
 62
     7
 10
9.1683785567
 20
5.7712336085
 30
0.0
  0
VERTEX
  5
10E
  8
0
  6
CONTINUOUS
 62
     7
 10
9.1356833087
 20
5.7991843346
 30
0.0
  0
VERTEX
  5
10F
  8
0
  6
CONTINUOUS
 62
     7
 10
9.100998416
 20
5.8262933586
 30
0.0
  0
VERTEX
  5
110
  8
0
  6
CONTINUOUS
 62
     7
 10
9.0643885237
 20
5.8525122168
 30
0.0
  0
VERTEX
  5
111
  8
0
  6
CONTINUOUS
 62
     7
 10
9.0259214506
 20
5.8777947123
 30
0.0
  0
VERTEX
  5
112
  8
0
  6
CONTINUOUS
 62
     7
 10
8.9856679533
 20
5.9020968711
 30
0.0
  0
VERTEX
  5
113
  8
0
  6
CONTINUOUS
 62
     7
 10
8.9437022335
 20
5.9253765185
 30
0.0
  0
VERTEX
  5
114
  8
0
  6
CONTINUOUS
 62
     7
 10
8.9001004369
 20
5.9475940376
 30
0.0
  0
VERTEX
  5
115
  8
0
  6
CONTINUOUS
 62
     7
 10
8.8549410159
 20
5.9687119566
 30
0.0
  0
VERTEX
  5
116
  8
0
  6
CONTINUOUS
 62
     7
 10
8.8083048016
 20
5.988694818
 30
0.0
  0
VERTEX
  5
117
  8
0
  6
CONTINUOUS
 62
     7
 10
8.7602749053
 20
6.0075091722
 30
0.0
  0
VERTEX
  5
118
  8
0
  6
CONTINUOUS
 62
     7
 10
8.7109366173
 20
6.0251235859
 30
0.0
  0
VERTEX
  5
119
  8
0
  6
CONTINUOUS
 62
     7
 10
8.6603773014
 20
6.0415086599
 30
0.0
  0
VERTEX
  5
11A
  8
0
  6
CONTINUOUS
 62
     7
 10
8.6086862824
 20
6.0566370562
 30
0.0
  0
VERTEX
  5
11B
  8
0
  6
CONTINUOUS
 62
     7
 10
8.5559547246
 20
6.0704835298
 30
0.0
  0
VERTEX
  5
11C
  8
0
  6
CONTINUOUS
 62
     7
 10
8.5022755034
 20
6.0830249639
 30
0.0
  0
VERTEX
  5
11D
  8
0
  6
CONTINUOUS
 62
     7
 10
8.4477430681
 20
6.0942404066
 30
0.0
  0
VERTEX
  5
11E
  8
0
  6
CONTINUOUS
 62
     7
 10
8.3924532975
 20
6.1041111065
 30
0.0
  0
VERTEX
  5
11F
  8
0
  6
CONTINUOUS
 62
     7
 10
8.3365033487
 20
6.1126205479
 30
0.0
  0
VERTEX
  5
120
  8
0
  6
CONTINUOUS
 62
     7
 10
8.2799915006
 20
6.119754482
 30
0.0
  0
VERTEX
  5
121
  8
0
  6
CONTINUOUS
 62
     7
 10
8.2230169912
 20
6.1255009561
 30
0.0
  0
VERTEX
  5
122
  8
0
  6
CONTINUOUS
 62
     7
 10
8.1656798511
 20
6.1298503378
 30
0.0
  0
VERTEX
  5
123
  8
0
  6
CONTINUOUS
 62
     7
 10
8.1080807341
 20
6.1327953351
 30
0.0
  0
VERTEX
  5
124
  8
0
  6
CONTINUOUS
 62
     7
 10
8.0503207439
 20
6.1343310121
 30
0.0
  0
VERTEX
  5
125
  8
0
  6
CONTINUOUS
 62
     7
 10
7.9925012594
 20
6.1344547994
 30
0.0
  0
VERTEX
  5
126
  8
0
  6
CONTINUOUS
 62
     7
 10
7.9347237588
 20
6.133166499
 30
0.0
  0
VERTEX
  5
127
  8
0
  6
CONTINUOUS
 62
     7
 10
7.8770899062
 20
6.1304683005
 30
0.0
  0
VERTEX
  5
128
  8
0
  6
CONTINUOUS
 62
     7
 10
7.8197008689
 20
6.1263647653
 30
0.0
  0
VERTEX
  5
129
  8
0
  6
CONTINUOUS
 62
     7
 10
7.7626573544
 20
6.1208628101
 30
0.0
  0
VERTEX
  5
12A
  8
0
  6
CONTINUOUS
 62
     7
 10
7.7060594621
 20
6.113971691
 30
0.0
  0
VERTEX
  5
12B
  8
0
  6
CONTINUOUS
 62
     7
 10
7.6500065103
 20
6.1057029819
 30
0.0
  0
VERTEX
  5
12C
  8
0
  6
CONTINUOUS
 62
     7
 10
7.5945968669
 20
6.0960705482
 30
0.0
  0
VERTEX
  5
12D
  8
0
  6
CONTINUOUS
 62
     7
 10
7.5399277826
 20
6.0850905157
 30
0.0
  0
VERTEX
  5
12E
  8
0
  6
CONTINUOUS
 62
     7
 10
7.4860952298
 20
6.072781235
 30
0.0
  0
VERTEX
  5
12F
  8
0
  6
CONTINUOUS
 62
     7
 10
7.433193746
 20
6.059163241
 30
0.0
  0
VERTEX
  5
130
  8
0
  6
CONTINUOUS
 62
     7
 10
7.381316283
 20
6.0442592104
 30
0.0
  0
VERTEX
  5
131
  8
0
  6
CONTINUOUS
 62
     7
 10
7.3305540646
 20
6.0280939155
 30
0.0
  0
VERTEX
  5
132
  8
0
  6
CONTINUOUS
 62
     7
 10
7.2809964508
 20
6.010694177
 30
0.0
  0
VERTEX
  5
133
  8
0
  6
CONTINUOUS
 62
     7
 10
7.2327308117
 20
5.9920888163
 30
0.0
  0
VERTEX
  5
134
  8
0
  6
CONTINUOUS
 62
     7
 10
7.1858424111
 20
5.9723086105
 30
0.0
  0
VERTEX
  5
135
  8
0
  6
CONTINUOUS
 62
     7
 10
7.1404143002
 20
5.9513862508
 30
0.0
  0
VERTEX
  5
136
  8
0
  6
CONTINUOUS
 62
     7
 10
7.0965272216
 20
5.9293563084
 30
0.0
  0
VERTEX
  5
137
  8
0
  6
CONTINUOUS
 62
     7
 10
7.0542595228
 20
5.9062552108
 30
0.0
  0
VERTEX
  5
138
  8
0
  6
CONTINUOUS
 62
     7
 10
7.0136870785
 20
5.8821212332
 30
0.0
  0
VERTEX
  5
139
  8
0
  6
CONTINUOUS
 62
     7
 10
6.9748832171
 20
5.8569945087
 30
0.0
  0
VERTEX
  5
13A
  8
0
  6
CONTINUOUS
 62
     7
 10
6.9379186619
 20
5.8309170726
 30
0.0
  0
VERTEX
  5
13B
  8
0
  6
CONTINUOUS
 62
     7
 10
6.9028622882
 20
5.8039336018
 30
0.0
  0
VERTEX
  5
13C
  8
0
  6
CONTINUOUS
 62
     7
 10
6.8697793816
 20
5.7760903846
 30
0.0
  0
VERTEX
  5
13D
  8
0
  6
CONTINUOUS
 62
     7
 10
6.8387322499
 20
5.7474359037
 30
0.0
  0
VERTEX
  5
13E
  8
0
  6
CONTINUOUS
 62
     7
 10
6.8097800206
 20
5.7180209574
 30
0.0
  0
VERTEX
  5
13F
  8
0
  6
CONTINUOUS
 62
     7
 10
6.7829783689
 20
5.6878987697
 30
0.0
  0
VERTEX
  5
140
  8
0
  6
CONTINUOUS
 62
     7
 10
6.7583791675
 20
5.6571250604
 30
0.0
  0
VERTEX
  5
141
  8
0
  6
CONTINUOUS
 62
     7
 10
6.7360300556
 20
5.6257580322
 30
0.0
  0
VERTEX
  5
142
  8
0
  6
CONTINUOUS
 62
     7
 10
6.7159739475
 20
5.5938582293
 30
0.0
  0
VERTEX
  5
143
  8
0
  6
CONTINUOUS
 62
     7
 10
6.6982485219
 20
5.5614882219
 30
0.0
  0
VERTEX
  5
144
  8
0
  6
CONTINUOUS
 62
     7
 10
6.6828857632
 20
5.5287120915
 30
0.0
  0
VERTEX
  5
145
  8
0
  6
CONTINUOUS
 62
     7
 10
6.6699116433
 20
5.4955947243
 30
0.0
  0
VERTEX
  5
146
  8
0
  6
CONTINUOUS
 62
     7
 10
6.6593460381
 20
5.4622009702
 30
0.0
  0
VERTEX
  5
147
  8
0
  6
CONTINUOUS
 62
     7
 10
6.6512029443
 20
5.4285947752
 30
0.0
  0
VERTEX
  5
148
  8
0
  6
CONTINUOUS
 62
     7
 10
6.6480378072
 20
5.4098894721
 30
0.0
  0
SEQEND
  5
53C
  8
0
  6
CONTINUOUS
 62
     7
  0
LINE
  5
E8
  8
0
  6
CONTINUOUS
 62
     7
 10
6.6413441986
 20
5.332350035
 30
0.0
 11
6.6413441986
 21
4.8118052675
 31
0.0
  0
LINE
  5
E9
  8
0
  6
CONTINUOUS
 62
     7
 10
9.3913441986
 20
4.8118052675
 30
0.0
 11
9.3913441986
 21
5.332350035
 31
0.0
  0
LINE
  5
EA
  8
0
  6
CONTINUOUS
 62
     7
 10
7.0439143915
 20
4.250615907
 30
0.0
 11
7.0545227166
 21
4.2444898606
 31
0.0
  0
LINE
  5
EB
  8
0
  6
CONTINUOUS
 62
     7
 10
8.9781656806
 20
4.2444898606
 30
0.0
 11
8.9887740057
 21
4.250615907
 31
0.0
  0
LINE
  5
EC
  8
0
  6
CONTINUOUS
 62
     7
 10
8.9321962715
 20
5.8608883781
 30
0.0
 11
8.9074435128
 21
5.8751824864
 31
0.0
  0
LINE
  5
ED
  8
0
  6
CONTINUOUS
 62
     7
 10
7.1252448844
 20
5.8751824864
 30
0.0
 11
7.1004921257
 21
5.8608883781
 31
0.0
  0
ARC
  5
EE
  8
0
  6
CONTINUOUS
 62
     7
 10
8.9304919972
 20
5.3323532211
 30
0.0
 40
0.4608433106713223
 50
351.1521470555
 51
9.1587050455
  0
ARC
  5
EF
  8
0
  6
CONTINUOUS
 62
     7
 10
7.1024145139
 20
5.3323504271
 30
0.0
 40
0.461060175530078
 50
170.5296044331
 51
189.4370028802
  0
POLYLINE
  5
F0
  8
0
  6
CONTINUOUS
 62
     7
 66
     1
 10
0.0
 20
0.0
 30
0.0
 70
   128
  0
VERTEX
  5
149
  8
0
  6
CONTINUOUS
 62
     7
 10
7.0582145101
 20
4.7955643555
 30
0.0
  0
VERTEX
  5
14A
  8
0
  6
CONTINUOUS
 62
     7
 10
7.1021656089
 20
4.7713058293
 30
0.0
  0
VERTEX
  5
14B
  8
0
  6
CONTINUOUS
 62
     7
 10
7.1479577417
 20
4.7482100595
 30
0.0
  0
VERTEX
  5
14C
  8
0
  6
CONTINUOUS
 62
     7
 10
7.1954986892
 20
4.726323558
 30
0.0
  0
VERTEX
  5
14D
  8
0
  6
CONTINUOUS
 62
     7
 10
7.2446927104
 20
4.7056904012
 30
0.0
  0
VERTEX
  5
14E
  8
0
  6
CONTINUOUS
 62
     7
 10
7.2954407349
 20
4.6863521416
 30
0.0
  0
VERTEX
  5
14F
  8
0
  6
CONTINUOUS
 62
     7
 10
7.3476405631
 20
4.668347724
 30
0.0
  0
VERTEX
  5
150
  8
0
  6
CONTINUOUS
 62
     7
 10
7.4011870715
 20
4.6517134066
 30
0.0
  0
VERTEX
  5
151
  8
0
  6
CONTINUOUS
 62
     7
 10
7.4559724244
 20
4.636482689
 30
0.0
  0
VERTEX
  5
152
  8
0
  6
CONTINUOUS
 62
     7
 10
7.5118862915
 20
4.6226862437
 30
0.0
  0
VERTEX
  5
153
  8
0
  6
CONTINUOUS
 62
     7
 10
7.5688160697
 20
4.6103518549
 30
0.0
  0
VERTEX
  5
154
  8
0
  6
CONTINUOUS
 62
     7
 10
7.6266471099
 20
4.5995043625
 30
0.0
  0
VERTEX
  5
155
  8
0
  6
CONTINUOUS
 62
     7
 10
7.6852629483
 20
4.5901656118
 30
0.0
  0
VERTEX
  5
156
  8
0
  6
CONTINUOUS
 62
     7
 10
7.7445455402
 20
4.5823544098
 30
0.0
  0
VERTEX
  5
157
  8
0
  6
CONTINUOUS
 62
     7
 10
7.8043754985
 20
4.5760864873
 30
0.0
  0
VERTEX
  5
158
  8
0
  6
CONTINUOUS
 62
     7
 10
7.8646323335
 20
4.5713744671
 30
0.0
  0
VERTEX
  5
159
  8
0
  6
CONTINUOUS
 62
     7
 10
7.925194696
 20
4.5682278384
 30
0.0
  0
VERTEX
  5
15A
  8
0
  6
CONTINUOUS
 62
     7
 10
7.9859406215
 20
4.5666529383
 30
0.0
  0
VERTEX
  5
15B
  8
0
  6
CONTINUOUS
 62
     7
 10
8.0467477757
 20
4.5666529383
 30
0.0
  0
VERTEX
  5
15C
  8
0
  6
CONTINUOUS
 62
     7
 10
8.1074937012
 20
4.5682278384
 30
0.0
  0
VERTEX
  5
15D
  8
0
  6
CONTINUOUS
 62
     7
 10
8.1680560637
 20
4.5713744671
 30
0.0
  0
VERTEX
  5
15E
  8
0
  6
CONTINUOUS
 62
     7
 10
8.2283128987
 20
4.5760864873
 30
0.0
  0
VERTEX
  5
15F
  8
0
  6
CONTINUOUS
 62
     7
 10
8.288142857
 20
4.5823544098
 30
0.0
  0
VERTEX
  5
160
  8
0
  6
CONTINUOUS
 62
     7
 10
8.3474254489
 20
4.5901656118
 30
0.0
  0
VERTEX
  5
161
  8
0
  6
CONTINUOUS
 62
     7
 10
8.4060412873
 20
4.5995043625
 30
0.0
  0
VERTEX
  5
162
  8
0
  6
CONTINUOUS
 62
     7
 10
8.4638723276
 20
4.6103518549
 30
0.0
  0
VERTEX
  5
163
  8
0
  6
CONTINUOUS
 62
     7
 10
8.5208021057
 20
4.6226862437
 30
0.0
  0
VERTEX
  5
164
  8
0
  6
CONTINUOUS
 62
     7
 10
8.5767159728
 20
4.636482689
 30
0.0
  0
VERTEX
  5
165
  8
0
  6
CONTINUOUS
 62
     7
 10
8.6315013258
 20
4.6517134066
 30
0.0
  0
VERTEX
  5
166
  8
0
  6
CONTINUOUS
 62
     7
 10
8.6850478341
 20
4.668347724
 30
0.0
  0
VERTEX
  5
167
  8
0
  6
CONTINUOUS
 62
     7
 10
8.7372476623
 20
4.6863521416
 30
0.0
  0
VERTEX
  5
168
  8
0
  6
CONTINUOUS
 62
     7
 10
8.7879956869
 20
4.7056904012
 30
0.0
  0
VERTEX
  5
169
  8
0
  6
CONTINUOUS
 62
     7
 10
8.837189708
 20
4.726323558
 30
0.0
  0
VERTEX
  5
16A
  8
0
  6
CONTINUOUS
 62
     7
 10
8.8847306556
 20
4.7482100595
 30
0.0
  0
VERTEX
  5
16B
  8
0
  6
CONTINUOUS
 62
     7
 10
8.9305227884
 20
4.7713058293
 30
0.0
  0
VERTEX
  5
16C
  8
0
  6
CONTINUOUS
 62
     7
 10
8.9744738871
 20
4.7955643555
 30
0.0
  0
VERTEX
  5
16D
  8
0
  6
CONTINUOUS
 62
     7
 10
9.0164954402
 20
4.8209367848
 30
0.0
  0
VERTEX
  5
16E
  8
0
  6
CONTINUOUS
 62
     7
 10
9.0565028218
 20
4.8473720203
 30
0.0
  0
VERTEX
  5
16F
  8
0
  6
CONTINUOUS
 62
     7
 10
9.0944154623
 20
4.8748168252
 30
0.0
  0
VERTEX
  5
170
  8
0
  6
CONTINUOUS
 62
     7
 10
9.1301570108
 20
4.9032159291
 30
0.0
  0
VERTEX
  5
171
  8
0
  6
CONTINUOUS
 62
     7
 10
9.1636554886
 20
4.9325121401
 30
0.0
  0
VERTEX
  5
172
  8
0
  6
CONTINUOUS
 62
     7
 10
9.194843434
 20
4.9626464595
 30
0.0
  0
VERTEX
  5
173
  8
0
  6
CONTINUOUS
 62
     7
 10
9.2236580389
 20
4.9935582008
 30
0.0
  0
VERTEX
  5
174
  8
0
  6
CONTINUOUS
 62
     7
 10
9.2500412743
 20
5.0251851118
 30
0.0
  0
VERTEX
  5
175
  8
0
  6
CONTINUOUS
 62
     7
 10
9.2739400081
 20
5.0574635002
 30
0.0
  0
VERTEX
  5
176
  8
0
  6
CONTINUOUS
 62
     7
 10
9.2953061112
 20
5.0903283616
 30
0.0
  0
VERTEX
  5
177
  8
0
  6
CONTINUOUS
 62
     7
 10
9.3140965552
 20
5.1237135105
 30
0.0
  0
VERTEX
  5
178
  8
0
  6
CONTINUOUS
 62
     7
 10
9.3302734987
 20
5.1575517138
 30
0.0
  0
VERTEX
  5
179
  8
0
  6
CONTINUOUS
 62
     7
 10
9.3438043635
 20
5.1917748256
 30
0.0
  0
VERTEX
  5
17A
  8
0
  6
CONTINUOUS
 62
     7
 10
9.3546619001
 20
5.2263139253
 30
0.0
  0
VERTEX
  5
17B
  8
0
  6
CONTINUOUS
 62
     7
 10
9.362824243
 20
5.2610994558
 30
0.0
  0
VERTEX
  5
17C
  8
0
  6
CONTINUOUS
 62
     7
 10
9.3682749543
 20
5.2960613635
 30
0.0
  0
VERTEX
  5
17D
  8
0
  6
CONTINUOUS
 62
     7
 10
9.371003057
 20
5.3311292398
 30
0.0
  0
VERTEX
  5
17E
  8
0
  6
CONTINUOUS
 62
     7
 10
9.371003057
 20
5.3662324627
 30
0.0
  0
VERTEX
  5
17F
  8
0
  6
CONTINUOUS
 62
     7
 10
9.3682749543
 20
5.4013003391
 30
0.0
  0
VERTEX
  5
180
  8
0
  6
CONTINUOUS
 62
     7
 10
9.362824243
 20
5.4362622468
 30
0.0
  0
VERTEX
  5
181
  8
0
  6
CONTINUOUS
 62
     7
 10
9.3546619001
 20
5.4710477772
 30
0.0
  0
VERTEX
  5
182
  8
0
  6
CONTINUOUS
 62
     7
 10
9.3438043635
 20
5.5055868769
 30
0.0
  0
VERTEX
  5
183
  8
0
  6
CONTINUOUS
 62
     7
 10
9.3302734987
 20
5.5398099888
 30
0.0
  0
VERTEX
  5
184
  8
0
  6
CONTINUOUS
 62
     7
 10
9.3140965552
 20
5.573648192
 30
0.0
  0
VERTEX
  5
185
  8
0
  6
CONTINUOUS
 62
     7
 10
9.2953061112
 20
5.6070333409
 30
0.0
  0
VERTEX
  5
186
  8
0
  6
CONTINUOUS
 62
     7
 10
9.2739400081
 20
5.6398982023
 30
0.0
  0
VERTEX
  5
187
  8
0
  6
CONTINUOUS
 62
     7
 10
9.2500412743
 20
5.6721765907
 30
0.0
  0
VERTEX
  5
188
  8
0
  6
CONTINUOUS
 62
     7
 10
9.2236580389
 20
5.7038035018
 30
0.0
  0
VERTEX
  5
189
  8
0
  6
CONTINUOUS
 62
     7
 10
9.194843434
 20
5.7347152431
 30
0.0
  0
VERTEX
  5
18A
  8
0
  6
CONTINUOUS
 62
     7
 10
9.1636554886
 20
5.7648495624
 30
0.0
  0
VERTEX
  5
18B
  8
0
  6
CONTINUOUS
 62
     7
 10
9.1301570108
 20
5.7941457734
 30
0.0
  0
VERTEX
  5
18C
  8
0
  6
CONTINUOUS
 62
     7
 10
9.0944154623
 20
5.8225448774
 30
0.0
  0
VERTEX
  5
18D
  8
0
  6
CONTINUOUS
 62
     7
 10
9.0565028218
 20
5.8499896822
 30
0.0
  0
VERTEX
  5
18E
  8
0
  6
CONTINUOUS
 62
     7
 10
9.0164954402
 20
5.8764249178
 30
0.0
  0
VERTEX
  5
18F
  8
0
  6
CONTINUOUS
 62
     7
 10
8.9744738871
 20
5.901797347
 30
0.0
  0
VERTEX
  5
190
  8
0
  6
CONTINUOUS
 62
     7
 10
8.9305227884
 20
5.9260558733
 30
0.0
  0
VERTEX
  5
191
  8
0
  6
CONTINUOUS
 62
     7
 10
8.8847306556
 20
5.9491516431
 30
0.0
  0
VERTEX
  5
192
  8
0
  6
CONTINUOUS
 62
     7
 10
8.837189708
 20
5.9710381446
 30
0.0
  0
VERTEX
  5
193
  8
0
  6
CONTINUOUS
 62
     7
 10
8.7879956869
 20
5.9916713013
 30
0.0
  0
VERTEX
  5
194
  8
0
  6
CONTINUOUS
 62
     7
 10
8.7372476623
 20
6.0110095609
 30
0.0
  0
VERTEX
  5
195
  8
0
  6
CONTINUOUS
 62
     7
 10
8.6850478341
 20
6.0290139786
 30
0.0
  0
VERTEX
  5
196
  8
0
  6
CONTINUOUS
 62
     7
 10
8.6315013258
 20
6.0456482959
 30
0.0
  0
VERTEX
  5
197
  8
0
  6
CONTINUOUS
 62
     7
 10
8.5767159728
 20
6.0608790135
 30
0.0
  0
VERTEX
  5
198
  8
0
  6
CONTINUOUS
 62
     7
 10
8.5208021057
 20
6.0746754588
 30
0.0
  0
VERTEX
  5
199
  8
0
  6
CONTINUOUS
 62
     7
 10
8.4638723276
 20
6.0870098476
 30
0.0
  0
VERTEX
  5
19A
  8
0
  6
CONTINUOUS
 62
     7
 10
8.4060412873
 20
6.0978573401
 30
0.0
  0
VERTEX
  5
19B
  8
0
  6
CONTINUOUS
 62
     7
 10
8.3474254489
 20
6.1071960908
 30
0.0
  0
VERTEX
  5
19C
  8
0
  6
CONTINUOUS
 62
     7
 10
8.288142857
 20
6.1150072927
 30
0.0
  0
VERTEX
  5
19D
  8
0
  6
CONTINUOUS
 62
     7
 10
8.2283128987
 20
6.1212752152
 30
0.0
  0
VERTEX
  5
19E
  8
0
  6
CONTINUOUS
 62
     7
 10
8.1680560637
 20
6.1259872355
 30
0.0
  0
VERTEX
  5
19F
  8
0
  6
CONTINUOUS
 62
     7
 10
8.1074937012
 20
6.1291338641
 30
0.0
  0
VERTEX
  5
1A0
  8
0
  6
CONTINUOUS
 62
     7
 10
8.0467477757
 20
6.1307087643
 30
0.0
  0
VERTEX
  5
1A1
  8
0
  6
CONTINUOUS
 62
     7
 10
7.9859406215
 20
6.1307087643
 30
0.0
  0
VERTEX
  5
1A2
  8
0
  6
CONTINUOUS
 62
     7
 10
7.925194696
 20
6.1291338641
 30
0.0
  0
VERTEX
  5
1A3
  8
0
  6
CONTINUOUS
 62
     7
 10
7.8646323335
 20
6.1259872355
 30
0.0
  0
VERTEX
  5
1A4
  8
0
  6
CONTINUOUS
 62
     7
 10
7.8043754985
 20
6.1212752152
 30
0.0
  0
VERTEX
  5
1A5
  8
0
  6
CONTINUOUS
 62
     7
 10
7.7445455402
 20
6.1150072927
 30
0.0
  0
VERTEX
  5
1A6
  8
0
  6
CONTINUOUS
 62
     7
 10
7.6852629483
 20
6.1071960908
 30
0.0
  0
VERTEX
  5
1A7
  8
0
  6
CONTINUOUS
 62
     7
 10
7.6266471099
 20
6.0978573401
 30
0.0
  0
VERTEX
  5
1A8
  8
0
  6
CONTINUOUS
 62
     7
 10
7.5688160697
 20
6.0870098476
 30
0.0
  0
VERTEX
  5
1A9
  8
0
  6
CONTINUOUS
 62
     7
 10
7.5118862915
 20
6.0746754588
 30
0.0
  0
VERTEX
  5
1AA
  8
0
  6
CONTINUOUS
 62
     7
 10
7.4559724244
 20
6.0608790135
 30
0.0
  0
VERTEX
  5
1AB
  8
0
  6
CONTINUOUS
 62
     7
 10
7.4011870715
 20
6.0456482959
 30
0.0
  0
VERTEX
  5
1AC
  8
0
  6
CONTINUOUS
 62
     7
 10
7.3476405631
 20
6.0290139786
 30
0.0
  0
VERTEX
  5
1AD
  8
0
  6
CONTINUOUS
 62
     7
 10
7.2954407349
 20
6.0110095609
 30
0.0
  0
VERTEX
  5
1AE
  8
0
  6
CONTINUOUS
 62
     7
 10
7.2446927104
 20
5.9916713013
 30
0.0
  0
VERTEX
  5
1AF
  8
0
  6
CONTINUOUS
 62
     7
 10
7.1954986892
 20
5.9710381446
 30
0.0
  0
VERTEX
  5
1B0
  8
0
  6
CONTINUOUS
 62
     7
 10
7.1479577417
 20
5.9491516431
 30
0.0
  0
VERTEX
  5
1B1
  8
0
  6
CONTINUOUS
 62
     7
 10
7.1021656089
 20
5.9260558733
 30
0.0
  0
VERTEX
  5
1B2
  8
0
  6
CONTINUOUS
 62
     7
 10
7.0582145101
 20
5.901797347
 30
0.0
  0
VERTEX
  5
1B3
  8
0
  6
CONTINUOUS
 62
     7
 10
7.016192957
 20
5.8764249178
 30
0.0
  0
VERTEX
  5
1B4
  8
0
  6
CONTINUOUS
 62
     7
 10
6.9761855754
 20
5.8499896822
 30
0.0
  0
VERTEX
  5
1B5
  8
0
  6
CONTINUOUS
 62
     7
 10
6.9382729349
 20
5.8225448774
 30
0.0
  0
VERTEX
  5
1B6
  8
0
  6
CONTINUOUS
 62
     7
 10
6.9025313864
 20
5.7941457734
 30
0.0
  0
VERTEX
  5
1B7
  8
0
  6
CONTINUOUS
 62
     7
 10
6.8690329087
 20
5.7648495624
 30
0.0
  0
VERTEX
  5
1B8
  8
0
  6
CONTINUOUS
 62
     7
 10
6.8378449632
 20
5.7347152431
 30
0.0
  0
VERTEX
  5
1B9
  8
0
  6
CONTINUOUS
 62
     7
 10
6.8090303583
 20
5.7038035018
 30
0.0
  0
VERTEX
  5
1BA
  8
0
  6
CONTINUOUS
 62
     7
 10
6.7826471229
 20
5.6721765907
 30
0.0
  0
VERTEX
  5
1BB
  8
0
  6
CONTINUOUS
 62
     7
 10
6.7587483892
 20
5.6398982023
 30
0.0
  0
VERTEX
  5
1BC
  8
0
  6
CONTINUOUS
 62
     7
 10
6.737382286
 20
5.6070333409
 30
0.0
  0
VERTEX
  5
1BD
  8
0
  6
CONTINUOUS
 62
     7
 10
6.718591842
 20
5.573648192
 30
0.0
  0
VERTEX
  5
1BE
  8
0
  6
CONTINUOUS
 62
     7
 10
6.7024148985
 20
5.5398099888
 30
0.0
  0
VERTEX
  5
1BF
  8
0
  6
CONTINUOUS
 62
     7
 10
6.6888840337
 20
5.5055868769
 30
0.0
  0
VERTEX
  5
1C0
  8
0
  6
CONTINUOUS
 62
     7
 10
6.6780264971
 20
5.4710477772
 30
0.0
  0
VERTEX
  5
1C1
  8
0
  6
CONTINUOUS
 62
     7
 10
6.6698641542
 20
5.4362622468
 30
0.0
  0
VERTEX
  5
1C2
  8
0
  6
CONTINUOUS
 62
     7
 10
6.6644134429
 20
5.4013003391
 30
0.0
  0
VERTEX
  5
1C3
  8
0
  6
CONTINUOUS
 62
     7
 10
6.6616853403
 20
5.3662324627
 30
0.0
  0
VERTEX
  5
1C4
  8
0
  6
CONTINUOUS
 62
     7
 10
6.6616853403
 20
5.3311292398
 30
0.0
  0
VERTEX
  5
1C5
  8
0
  6
CONTINUOUS
 62
     7
 10
6.6644134429
 20
5.2960613635
 30
0.0
  0
VERTEX
  5
1C6
  8
0
  6
CONTINUOUS
 62
     7
 10
6.6698641542
 20
5.2610994558
 30
0.0
  0
VERTEX
  5
1C7
  8
0
  6
CONTINUOUS
 62
     7
 10
6.6780264971
 20
5.2263139253
 30
0.0
  0
VERTEX
  5
1C8
  8
0
  6
CONTINUOUS
 62
     7
 10
6.6888840337
 20
5.1917748256
 30
0.0
  0
VERTEX
  5
1C9
  8
0
  6
CONTINUOUS
 62
     7
 10
6.7024148985
 20
5.1575517138
 30
0.0
  0
VERTEX
  5
1CA
  8
0
  6
CONTINUOUS
 62
     7
 10
6.718591842
 20
5.1237135105
 30
0.0
  0
VERTEX
  5
1CB
  8
0
  6
CONTINUOUS
 62
     7
 10
6.737382286
 20
5.0903283616
 30
0.0
  0
VERTEX
  5
1CC
  8
0
  6
CONTINUOUS
 62
     7
 10
6.7587483892
 20
5.0574635002
 30
0.0
  0
VERTEX
  5
1CD
  8
0
  6
CONTINUOUS
 62
     7
 10
6.7826471229
 20
5.0251851118
 30
0.0
  0
VERTEX
  5
1CE
  8
0
  6
CONTINUOUS
 62
     7
 10
6.8090303583
 20
4.9935582008
 30
0.0
  0
VERTEX
  5
1CF
  8
0
  6
CONTINUOUS
 62
     7
 10
6.8378449632
 20
4.9626464595
 30
0.0
  0
VERTEX
  5
1D0
  8
0
  6
CONTINUOUS
 62
     7
 10
6.8690329087
 20
4.9325121401
 30
0.0
  0
VERTEX
  5
1D1
  8
0
  6
CONTINUOUS
 62
     7
 10
6.9025313864
 20
4.9032159291
 30
0.0
  0
VERTEX
  5
1D2
  8
0
  6
CONTINUOUS
 62
     7
 10
6.9382729349
 20
4.8748168252
 30
0.0
  0
VERTEX
  5
1D3
  8
0
  6
CONTINUOUS
 62
     7
 10
6.9761855754
 20
4.8473720203
 30
0.0
  0
VERTEX
  5
1D4
  8
0
  6
CONTINUOUS
 62
     7
 10
7.016192957
 20
4.8209367848
 30
0.0
  0
VERTEX
  5
1D5
  8
0
  6
CONTINUOUS
 62
     7
 10
7.0582145101
 20
4.7955643555
 30
0.0
  0
SEQEND
  5
53D
  8
0
  6
CONTINUOUS
 62
     7
  0
POLYLINE
  5
F1
  8
0
  6
CONTINUOUS
 62
     7
 66
     1
 10
0.0
 20
0.0
 30
0.0
 70
   128
  0
VERTEX
  5
1D6
  8
0
  6
CONTINUOUS
 62
     7
 10
7.0440723745
 20
4.2505246906
 30
0.0
  0
VERTEX
  5
1D7
  8
0
  6
CONTINUOUS
 62
     7
 10
7.0883492009
 20
4.2260785934
 30
0.0
  0
VERTEX
  5
1D8
  8
0
  6
CONTINUOUS
 62
     7
 10
7.1344684754
 20
4.2027954023
 30
0.0
  0
VERTEX
  5
1D9
  8
0
  6
CONTINUOUS
 62
     7
 10
7.1823386326
 20
4.180721344
 30
0.0
  0
VERTEX
  5
1DA
  8
0
  6
CONTINUOUS
 62
     7
 10
7.2318646306
 20
4.1599002443
 30
0.0
  0
VERTEX
  5
1DB
  8
0
  6
CONTINUOUS
 62
     7
 10
7.2829481402
 20
4.1403734418
 30
0.0
  0
VERTEX
  5
1DC
  8
0
  6
CONTINUOUS
 62
     7
 10
7.3354877398
 20
4.1221797049
 30
0.0
  0
VERTEX
  5
1DD
  8
0
  6
CONTINUOUS
 62
     7
 10
7.3893791168
 20
4.1053551558
 30
0.0
  0
VERTEX
  5
1DE
  8
0
  6
CONTINUOUS
 62
     7
 10
7.444515275
 20
4.089933198
 30
0.0
  0
VERTEX
  5
1DF
  8
0
  6
CONTINUOUS
 62
     7
 10
7.5007867466
 20
4.0759444504
 30
0.0
  0
VERTEX
  5
1E0
  8
0
  6
CONTINUOUS
 62
     7
 10
7.5580818098
 20
4.0634166863
 30
0.0
  0
VERTEX
  5
1E1
  8
0
  6
CONTINUOUS
 62
     7
 10
7.6162867105
 20
4.0523747785
 30
0.0
  0
VERTEX
  5
1E2
  8
0
  6
CONTINUOUS
 62
     7
 10
7.6752858884
 20
4.0428406496
 30
0.0
  0
VERTEX
  5
1E3
  8
0
  6
CONTINUOUS
 62
     7
 10
7.7349622059
 20
4.0348332287
 30
0.0
  0
VERTEX
  5
1E4
  8
0
  6
CONTINUOUS
 62
     7
 10
7.7951971814
 20
4.028368414
 30
0.0
  0
VERTEX
  5
1E5
  8
0
  6
CONTINUOUS
 62
     7
 10
7.8558712238
 20
4.0234590406
 30
0.0
  0
VERTEX
  5
1E6
  8
0
  6
CONTINUOUS
 62
     7
 10
7.9168638704
 20
4.0201148556
 30
0.0
  0
VERTEX
  5
1E7
  8
0
  6
CONTINUOUS
 62
     7
 10
7.978054026
 20
4.0183424987
 30
0.0
  0
VERTEX
  5
1E8
  8
0
  6
CONTINUOUS
 62
     7
 10
8.0393202032
 20
4.0181454886
 30
0.0
  0
VERTEX
  5
1E9
  8
0
  6
CONTINUOUS
 62
     7
 10
8.1005407637
 20
4.0195242166
 30
0.0
  0
VERTEX
  5
1EA
  8
0
  6
CONTINUOUS
 62
     7
 10
8.1615941596
 20
4.0224759453
 30
0.0
  0
VERTEX
  5
1EB
  8
0
  6
CONTINUOUS
 62
     7
 10
8.2223591753
 20
4.0269948143
 30
0.0
  0
VERTEX
  5
1EC
  8
0
  6
CONTINUOUS
 62
     7
 10
8.2827151672
 20
4.0330718518
 30
0.0
  0
VERTEX
  5
1ED
  8
0
  6
CONTINUOUS
 62
     7
 10
8.3425423043
 20
4.0406949924
 30
0.0
  0
VERTEX
  5
1EE
  8
0
  6
CONTINUOUS
 62
     7
 10
8.4017218052
 20
4.0498491011
 30
0.0
  0
VERTEX
  5
1EF
  8
0
  6
CONTINUOUS
 62
     7
 10
8.4601361746
 20
4.0605160032
 30
0.0
  0
VERTEX
  5
1F0
  8
0
  6
CONTINUOUS
 62
     7
 10
8.517669436
 20
4.0726745206
 30
0.0
  0
VERTEX
  5
1F1
  8
0
  6
CONTINUOUS
 62
     7
 10
8.5742073627
 20
4.0863005137
 30
0.0
  0
VERTEX
  5
1F2
  8
0
  6
CONTINUOUS
 62
     7
 10
8.6296377036
 20
4.1013669293
 30
0.0
  0
VERTEX
  5
1F3
  8
0
  6
CONTINUOUS
 62
     7
 10
8.683850407
 20
4.1178438545
 30
0.0
  0
VERTEX
  5
1F4
  8
0
  6
CONTINUOUS
 62
     7
 10
8.7367378387
 20
4.1356985758
 30
0.0
  0
VERTEX
  5
1F5
  8
0
  6
CONTINUOUS
 62
     7
 10
8.7881949955
 20
4.1548956444
 30
0.0
  0
VERTEX
  5
1F6
  8
0
  6
CONTINUOUS
 62
     7
 10
8.8381197139
 20
4.1753969462
 30
0.0
  0
VERTEX
  5
1F7
  8
0
  6
CONTINUOUS
 62
     7
 10
8.8864128732
 20
4.1971617779
 30
0.0
  0
VERTEX
  5
1F8
  8
0
  6
CONTINUOUS
 62
     7
 10
8.9329785916
 20
4.2201469273
 30
0.0
  0
VERTEX
  5
1F9
  8
0
  6
CONTINUOUS
 62
     7
 10
8.9777244173
 20
4.2443067595
 30
0.0
  0
VERTEX
  5
1FA
  8
0
  6
CONTINUOUS
 62
     7
 10
9.0205615115
 20
4.2695933076
 30
0.0
  0
VERTEX
  5
1FB
  8
0
  6
CONTINUOUS
 62
     7
 10
9.0614048253
 20
4.2959563673
 30
0.0
  0
VERTEX
  5
1FC
  8
0
  6
CONTINUOUS
 62
     7
 10
9.1001732679
 20
4.3233435972
 30
0.0
  0
VERTEX
  5
1FD
  8
0
  6
CONTINUOUS
 62
     7
 10
9.1367898682
 20
4.3517006225
 30
0.0
  0
VERTEX
  5
1FE
  8
0
  6
CONTINUOUS
 62
     7
 10
9.1711819273
 20
4.3809711431
 30
0.0
  0
VERTEX
  5
1FF
  8
0
  6
CONTINUOUS
 62
     7
 10
9.203281163
 20
4.4110970449
 30
0.0
  0
VERTEX
  5
200
  8
0
  6
CONTINUOUS
 62
     7
 10
9.2330238453
 20
4.4420185158
 30
0.0
  0
VERTEX
  5
201
  8
0
  6
CONTINUOUS
 62
     7
 10
9.2603509227
 20
4.4736741641
 30
0.0
  0
VERTEX
  5
202
  8
0
  6
CONTINUOUS
 62
     7
 10
9.2852081399
 20
4.5060011403
 30
0.0
  0
VERTEX
  5
203
  8
0
  6
CONTINUOUS
 62
     7
 10
9.3075461453
 20
4.5389352624
 30
0.0
  0
VERTEX
  5
204
  8
0
  6
CONTINUOUS
 62
     7
 10
9.3273205887
 20
4.5724111426
 30
0.0
  0
VERTEX
  5
205
  8
0
  6
CONTINUOUS
 62
     7
 10
9.3444922098
 20
4.6063623177
 30
0.0
  0
VERTEX
  5
206
  8
0
  6
CONTINUOUS
 62
     7
 10
9.3590269159
 20
4.6407213807
 30
0.0
  0
VERTEX
  5
207
  8
0
  6
CONTINUOUS
 62
     7
 10
9.3708958499
 20
4.6754201149
 30
0.0
  0
VERTEX
  5
208
  8
0
  6
CONTINUOUS
 62
     7
 10
9.3800754469
 20
4.7103896293
 30
0.0
  0
VERTEX
  5
209
  8
0
  6
CONTINUOUS
 62
     7
 10
9.3865474817
 20
4.745560495
 30
0.0
  0
VERTEX
  5
20A
  8
0
  6
CONTINUOUS
 62
     7
 10
9.3902991048
 20
4.7808628836
 30
0.0
  0
VERTEX
  5
20B
  8
0
  6
CONTINUOUS
 62
     7
 10
9.3913441986
 20
4.8118052675
 30
0.0
  0
SEQEND
  5
53E
  8
0
  6
CONTINUOUS
 62
     7
  0
POLYLINE
  5
F2
  8
0
  6
CONTINUOUS
 62
     7
 66
     1
 10
0.0
 20
0.0
 30
0.0
 70
   128
  0
VERTEX
  5
20C
  8
0
  6
CONTINUOUS
 62
     7
 10
6.6413441986
 20
4.8118052675
 30
0.0
  0
VERTEX
  5
20D
  8
0
  6
CONTINUOUS
 62
     7
 10
6.6418774429
 20
4.7897008213
 30
0.0
  0
VERTEX
  5
20E
  8
0
  6
CONTINUOUS
 62
     7
 10
6.6449475877
 20
4.7543764964
 30
0.0
  0
VERTEX
  5
20F
  8
0
  6
CONTINUOUS
 62
     7
 10
6.6507405137
 20
4.7191661909
 30
0.0
  0
VERTEX
  5
210
  8
0
  6
CONTINUOUS
 62
     7
 10
6.6592447193
 20
4.6841398118
 30
0.0
  0
VERTEX
  5
211
  8
0
  6
CONTINUOUS
 62
     7
 10
6.6704433203
 20
4.6493669007
 30
0.0
  0
VERTEX
  5
212
  8
0
  6
CONTINUOUS
 62
     7
 10
6.684314083
 20
4.6149164958
 30
0.0
  0
VERTEX
  5
213
  8
0
  6
CONTINUOUS
 62
     7
 10
6.7008294681
 20
4.5808569954
 30
0.0
  0
VERTEX
  5
214
  8
0
  6
CONTINUOUS
 62
     7
 10
6.719956686
 20
4.5472560215
 30
0.0
  0
VERTEX
  5
215
  8
0
  6
CONTINUOUS
 62
     7
 10
6.7416577612
 20
4.5141802855
 30
0.0
  0
VERTEX
  5
216
  8
0
  6
CONTINUOUS
 62
     7
 10
6.7658896084
 20
4.4816954564
 30
0.0
  0
VERTEX
  5
217
  8
0
  6
CONTINUOUS
 62
     7
 10
6.7926041175
 20
4.4498660298
 30
0.0
  0
VERTEX
  5
218
  8
0
  6
CONTINUOUS
 62
     7
 10
6.8217482492
 20
4.4187552001
 30
0.0
  0
VERTEX
  5
219
  8
0
  6
CONTINUOUS
 62
     7
 10
6.8532641405
 20
4.3884247348
 30
0.0
  0
VERTEX
  5
21A
  8
0
  6
CONTINUOUS
 62
     7
 10
6.8870892197
 20
4.3589348525
 30
0.0
  0
VERTEX
  5
21B
  8
0
  6
CONTINUOUS
 62
     7
 10
6.9231563301
 20
4.3303441024
 30
0.0
  0
VERTEX
  5
21C
  8
0
  6
CONTINUOUS
 62
     7
 10
6.9613938638
 20
4.3027092489
 30
0.0
  0
VERTEX
  5
21D
  8
0
  6
CONTINUOUS
 62
     7
 10
7.0017259038
 20
4.2760851584
 30
0.0
  0
VERTEX
  5
21E
  8
0
  6
CONTINUOUS
 62
     7
 10
7.0440723745
 20
4.2505246906
 30
0.0
  0
SEQEND
  5
53F
  8
0
  6
CONTINUOUS
 62
     7
  0
POLYLINE
  5
F3
  8
0
  6
CONTINUOUS
 62
     7
 66
     1
 10
0.0
 20
0.0
 30
0.0
 70
   128
  0
VERTEX
  5
21F
  8
0
  6
CONTINUOUS
 62
     7
 10
7.100640917
 20
4.8200565989
 30
0.0
  0
VERTEX
  5
220
  8
0
  6
CONTINUOUS
 62
     7
 10
7.1435856593
 20
4.7963768318
 30
0.0
  0
VERTEX
  5
221
  8
0
  6
CONTINUOUS
 62
     7
 10
7.1883658264
 20
4.7738585687
 30
0.0
  0
VERTEX
  5
222
  8
0
  6
CONTINUOUS
 62
     7
 10
7.2348872449
 20
4.7525491657
 30
0.0
  0
VERTEX
  5
223
  8
0
  6
CONTINUOUS
 62
     7
 10
7.2830520795
 20
4.732493437
 30
0.0
  0
VERTEX
  5
224
  8
0
  6
CONTINUOUS
 62
     7
 10
7.3327590387
 20
4.7137335599
 30
0.0
  0
VERTEX
  5
225
  8
0
  6
CONTINUOUS
 62
     7
 10
7.3839035882
 20
4.6963089868
 30
0.0
  0
VERTEX
  5
226
  8
0
  6
CONTINUOUS
 62
     7
 10
7.4363781701
 20
4.6802563619
 30
0.0
  0
VERTEX
  5
227
  8
0
  6
CONTINUOUS
 62
     7
 10
7.4900724296
 20
4.6656094441
 30
0.0
  0
VERTEX
  5
228
  8
0
  6
CONTINUOUS
 62
     7
 10
7.5448734467
 20
4.652399036
 30
0.0
  0
VERTEX
  5
229
  8
0
  6
CONTINUOUS
 62
     7
 10
7.6006659741
 20
4.6406529194
 30
0.0
  0
VERTEX
  5
22A
  8
0
  6
CONTINUOUS
 62
     7
 10
7.6573326793
 20
4.6303957965
 30
0.0
  0
VERTEX
  5
22B
  8
0
  6
CONTINUOUS
 62
     7
 10
7.7147543913
 20
4.6216492382
 30
0.0
  0
VERTEX
  5
22C
  8
0
  6
CONTINUOUS
 62
     7
 10
7.7728103514
 20
4.6144316387
 30
0.0
  0
VERTEX
  5
22D
  8
0
  6
CONTINUOUS
 62
     7
 10
7.8313784669
 20
4.6087581767
 30
0.0
  0
VERTEX
  5
22E
  8
0
  6
CONTINUOUS
 62
     7
 10
7.8903355682
 20
4.6046407835
 30
0.0
  0
VERTEX
  5
22F
  8
0
  6
CONTINUOUS
 62
     7
 10
7.9495576676
 20
4.6020881182
 30
0.0
  0
VERTEX
  5
230
  8
0
  6
CONTINUOUS
 62
     7
 10
8.0089202201
 20
4.601105549
 30
0.0
  0
VERTEX
  5
231
  8
0
  6
CONTINUOUS
 62
     7
 10
8.0682983854
 20
4.6016951422
 30
0.0
  0
VERTEX
  5
232
  8
0
  6
CONTINUOUS
 62
     7
 10
8.1275672902
 20
4.6038556579
 30
0.0
  0
VERTEX
  5
233
  8
0
  6
CONTINUOUS
 62
     7
 10
8.1866022911
 20
4.6075825526
 30
0.0
  0
VERTEX
  5
234
  8
0
  6
CONTINUOUS
 62
     7
 10
8.2452792366
 20
4.6128679885
 30
0.0
  0
VERTEX
  5
235
  8
0
  6
CONTINUOUS
 62
     7
 10
8.3034747282
 20
4.6197008503
 30
0.0
  0
VERTEX
  5
236
  8
0
  6
CONTINUOUS
 62
     7
 10
8.3610663798
 20
4.6280667684
 30
0.0
  0
VERTEX
  5
237
  8
0
  6
CONTINUOUS
 62
     7
 10
8.4179330753
 20
4.637948149
 30
0.0
  0
VERTEX
  5
238
  8
0
  6
CONTINUOUS
 62
     7
 10
8.4739552232
 20
4.6493242115
 30
0.0
  0
VERTEX
  5
239
  8
0
  6
CONTINUOUS
 62
     7
 10
8.529015008
 20
4.6621710319
 30
0.0
  0
VERTEX
  5
23A
  8
0
  6
CONTINUOUS
 62
     7
 10
8.5829966381
 20
4.6764615931
 30
0.0
  0
VERTEX
  5
23B
  8
0
  6
CONTINUOUS
 62
     7
 10
8.6357865894
 20
4.6921658419
 30
0.0
  0
VERTEX
  5
23C
  8
0
  6
CONTINUOUS
 62
     7
 10
8.6872738437
 20
4.7092507518
 30
0.0
  0
VERTEX
  5
23D
  8
0
  6
CONTINUOUS
 62
     7
 10
8.7373501225
 20
4.7276803933
 30
0.0
  0
VERTEX
  5
23E
  8
0
  6
CONTINUOUS
 62
     7
 10
8.7859101147
 20
4.7474160083
 30
0.0
  0
VERTEX
  5
23F
  8
0
  6
CONTINUOUS
 62
     7
 10
8.8328516978
 20
4.7684160926
 30
0.0
  0
VERTEX
  5
240
  8
0
  6
CONTINUOUS
 62
     7
 10
8.878076153
 20
4.7906364826
 30
0.0
  0
VERTEX
  5
241
  8
0
  6
CONTINUOUS
 62
     7
 10
8.9214883725
 20
4.8140304487
 30
0.0
  0
VERTEX
  5
242
  8
0
  6
CONTINUOUS
 62
     7
 10
8.9629970598
 20
4.8385487929
 30
0.0
  0
VERTEX
  5
243
  8
0
  6
CONTINUOUS
 62
     7
 10
9.0025149214
 20
4.8641399526
 30
0.0
  0
VERTEX
  5
244
  8
0
  6
CONTINUOUS
 62
     7
 10
9.0399588507
 20
4.8907501095
 30
0.0
  0
VERTEX
  5
245
  8
0
  6
CONTINUOUS
 62
     7
 10
9.0752501025
 20
4.9183233017
 30
0.0
  0
VERTEX
  5
246
  8
0
  6
CONTINUOUS
 62
     7
 10
9.1083144587
 20
4.9468015426
 30
0.0
  0
VERTEX
  5
247
  8
0
  6
CONTINUOUS
 62
     7
 10
9.1390823846
 20
4.9761249419
 30
0.0
  0
VERTEX
  5
248
  8
0
  6
CONTINUOUS
 62
     7
 10
9.1674891746
 20
5.006231832
 30
0.0
  0
VERTEX
  5
249
  8
0
  6
CONTINUOUS
 62
     7
 10
9.1934750889
 20
5.0370588978
 30
0.0
  0
VERTEX
  5
24A
  8
0
  6
CONTINUOUS
 62
     7
 10
9.2169854786
 20
5.0685413093
 30
0.0
  0
VERTEX
  5
24B
  8
0
  6
CONTINUOUS
 62
     7
 10
9.2379709011
 20
5.1006128587
 30
0.0
  0
VERTEX
  5
24C
  8
0
  6
CONTINUOUS
 62
     7
 10
9.2563872237
 20
5.1332060989
 30
0.0
  0
VERTEX
  5
24D
  8
0
  6
CONTINUOUS
 62
     7
 10
9.2721957166
 20
5.1662524859
 30
0.0
  0
VERTEX
  5
24E
  8
0
  6
CONTINUOUS
 62
     7
 10
9.2853631342
 20
5.1996825225
 30
0.0
  0
VERTEX
  5
24F
  8
0
  6
CONTINUOUS
 62
     7
 10
9.2958617853
 20
5.2334259049
 30
0.0
  0
VERTEX
  5
250
  8
0
  6
CONTINUOUS
 62
     7
 10
9.3036695911
 20
5.2674116703
 30
0.0
  0
VERTEX
  5
251
  8
0
  6
CONTINUOUS
 62
     7
 10
9.3087701316
 20
5.301568346
 30
0.0
  0
VERTEX
  5
252
  8
0
  6
CONTINUOUS
 62
     7
 10
9.3111526803
 20
5.3358241
 30
0.0
  0
VERTEX
  5
253
  8
0
  6
CONTINUOUS
 62
     7
 10
9.3108122267
 20
5.370106892
 30
0.0
  0
VERTEX
  5
254
  8
0
  6
CONTINUOUS
 62
     7
 10
9.3077494868
 20
5.4043446247
 30
0.0
  0
VERTEX
  5
255
  8
0
  6
CONTINUOUS
 62
     7
 10
9.3019709015
 20
5.4384652956
 30
0.0
  0
VERTEX
  5
256
  8
0
  6
CONTINUOUS
 62
     7
 10
9.2934886232
 20
5.4723971485
 30
0.0
  0
VERTEX
  5
257
  8
0
  6
CONTINUOUS
 62
     7
 10
9.2823204905
 20
5.506068824
 30
0.0
  0
VERTEX
  5
258
  8
0
  6
CONTINUOUS
 62
     7
 10
9.2684899899
 20
5.5394095102
 30
0.0
  0
VERTEX
  5
259
  8
0
  6
CONTINUOUS
 62
     7
 10
9.2520262073
 20
5.5723490911
 30
0.0
  0
VERTEX
  5
25A
  8
0
  6
CONTINUOUS
 62
     7
 10
9.2329637663
 20
5.6048182942
 30
0.0
  0
VERTEX
  5
25B
  8
0
  6
CONTINUOUS
 62
     7
 10
9.2113427555
 20
5.6367488362
 30
0.0
  0
VERTEX
  5
25C
  8
0
  6
CONTINUOUS
 62
     7
 10
9.1872086441
 20
5.6680735669
 30
0.0
  0
VERTEX
  5
25D
  8
0
  6
CONTINUOUS
 62
     7
 10
9.1606121867
 20
5.6987266097
 30
0.0
  0
VERTEX
  5
25E
  8
0
  6
CONTINUOUS
 62
     7
 10
9.1316093159
 20
5.7286435008
 30
0.0
  0
VERTEX
  5
25F
  8
0
  6
CONTINUOUS
 62
     7
 10
9.1002610253
 20
5.7577613246
 30
0.0
  0
VERTEX
  5
260
  8
0
  6
CONTINUOUS
 62
     7
 10
9.0666332407
 20
5.7860188458
 30
0.0
  0
VERTEX
  5
261
  8
0
  6
CONTINUOUS
 62
     7
 10
9.030796682
 20
5.8133566384
 30
0.0
  0
VERTEX
  5
262
  8
0
  6
CONTINUOUS
 62
     7
 10
8.992826714
 20
5.8397172106
 30
0.0
  0
VERTEX
  5
263
  8
0
  6
CONTINUOUS
 62
     7
 10
8.9528031882
 20
5.8650451257
 30
0.0
  0
VERTEX
  5
264
  8
0
  6
CONTINUOUS
 62
     7
 10
8.9108102745
 20
5.8892871188
 30
0.0
  0
VERTEX
  5
265
  8
0
  6
CONTINUOUS
 62
     7
 10
8.8669362848
 20
5.9123922085
 30
0.0
  0
VERTEX
  5
266
  8
0
  6
CONTINUOUS
 62
     7
 10
8.8212734867
 20
5.9343118044
 30
0.0
  0
VERTEX
  5
267
  8
0
  6
CONTINUOUS
 62
     7
 10
8.7739179099
 20
5.9549998094
 30
0.0
  0
VERTEX
  5
268
  8
0
  6
CONTINUOUS
 62
     7
 10
8.7249691438
 20
5.9744127162
 30
0.0
  0
VERTEX
  5
269
  8
0
  6
CONTINUOUS
 62
     7
 10
8.6745301284
 20
5.9925096992
 30
0.0
  0
VERTEX
  5
26A
  8
0
  6
CONTINUOUS
 62
     7
 10
8.6227069378
 20
6.0092527001
 30
0.0
  0
VERTEX
  5
26B
  8
0
  6
CONTINUOUS
 62
     7
 10
8.569608557
 20
6.0246065082
 30
0.0
  0
VERTEX
  5
26C
  8
0
  6
CONTINUOUS
 62
     7
 10
8.5153466526
 20
6.0385388341
 30
0.0
  0
VERTEX
  5
26D
  8
0
  6
CONTINUOUS
 62
     7
 10
8.4600353383
 20
6.051020378
 30
0.0
  0
VERTEX
  5
26E
  8
0
  6
CONTINUOUS
 62
     7
 10
8.4037909347
 20
6.062024891
 30
0.0
  0
VERTEX
  5
26F
  8
0
  6
CONTINUOUS
 62
     7
 10
8.3467317246
 20
6.0715292303
 30
0.0
  0
VERTEX
  5
270
  8
0
  6
CONTINUOUS
 62
     7
 10
8.2889777043
 20
6.0795134083
 30
0.0
  0
VERTEX
  5
271
  8
0
  6
CONTINUOUS
 62
     7
 10
8.2306503316
 20
6.0859606342
 30
0.0
  0
VERTEX
  5
272
  8
0
  6
CONTINUOUS
 62
     7
 10
8.1718722698
 20
6.0908573491
 30
0.0
  0
VERTEX
  5
273
  8
0
  6
CONTINUOUS
 62
     7
 10
8.11276713
 20
6.0941932554
 30
0.0
  0
VERTEX
  5
274
  8
0
  6
CONTINUOUS
 62
     7
 10
8.0534592113
 20
6.0959613376
 30
0.0
  0
VERTEX
  5
275
  8
0
  6
CONTINUOUS
 62
     7
 10
7.9940732392
 20
6.0961578773
 30
0.0
  0
VERTEX
  5
276
  8
0
  6
CONTINUOUS
 62
     7
 10
7.9347341032
 20
6.0947824612
 30
0.0
  0
VERTEX
  5
277
  8
0
  6
CONTINUOUS
 62
     7
 10
7.8755665945
 20
6.0918379818
 30
0.0
  0
VERTEX
  5
278
  8
0
  6
CONTINUOUS
 62
     7
 10
7.8166951433
 20
6.0873306315
 30
0.0
  0
VERTEX
  5
279
  8
0
  6
CONTINUOUS
 62
     7
 10
7.7582435572
 20
6.0812698892
 30
0.0
  0
VERTEX
  5
27A
  8
0
  6
CONTINUOUS
 62
     7
 10
7.7003347607
 20
6.0736685008
 30
0.0
  0
VERTEX
  5
27B
  8
0
  6
CONTINUOUS
 62
     7
 10
7.643090537
 20
6.0645424521
 30
0.0
  0
VERTEX
  5
27C
  8
0
  6
CONTINUOUS
 62
     7
 10
7.5866312715
 20
6.0539109354
 30
0.0
  0
VERTEX
  5
27D
  8
0
  6
CONTINUOUS
 62
     7
 10
7.531075699
 20
6.0417963088
 30
0.0
  0
VERTEX
  5
27E
  8
0
  6
CONTINUOUS
 62
     7
 10
7.4765406536
 20
6.0282240497
 30
0.0
  0
VERTEX
  5
27F
  8
0
  6
CONTINUOUS
 62
     7
 10
7.4231408235
 20
6.0132227007
 30
0.0
  0
VERTEX
  5
280
  8
0
  6
CONTINUOUS
 62
     7
 10
7.3709885093
 20
5.9968238099
 30
0.0
  0
VERTEX
  5
281
  8
0
  6
CONTINUOUS
 62
     7
 10
7.3201933881
 20
5.9790618644
 30
0.0
  0
VERTEX
  5
282
  8
0
  6
CONTINUOUS
 62
     7
 10
7.2708622829
 20
5.9599742178
 30
0.0
  0
VERTEX
  5
283
  8
0
  6
CONTINUOUS
 62
     7
 10
7.2230989377
 20
5.9396010118
 30
0.0
  0
VERTEX
  5
284
  8
0
  6
CONTINUOUS
 62
     7
 10
7.1770037996
 20
5.9179850916
 30
0.0
  0
VERTEX
  5
285
  8
0
  6
CONTINUOUS
 62
     7
 10
7.1326738073
 20
5.8951719156
 30
0.0
  0
VERTEX
  5
286
  8
0
  6
CONTINUOUS
 62
     7
 10
7.0902021877
 20
5.8712094605
 30
0.0
  0
VERTEX
  5
287
  8
0
  6
CONTINUOUS
 62
     7
 10
7.049678259
 20
5.8461481197
 30
0.0
  0
VERTEX
  5
288
  8
0
  6
CONTINUOUS
 62
     7
 10
7.0111872438
 20
5.8200405974
 30
0.0
  0
VERTEX
  5
289
  8
0
  6
CONTINUOUS
 62
     7
 10
6.9748100893
 20
5.7929417983
 30
0.0
  0
VERTEX
  5
28A
  8
0
  6
CONTINUOUS
 62
     7
 10
6.9406232972
 20
5.7649087115
 30
0.0
  0
VERTEX
  5
28B
  8
0
  6
CONTINUOUS
 62
     7
 10
6.9086987628
 20
5.736000291
 30
0.0
  0
VERTEX
  5
28C
  8
0
  6
CONTINUOUS
 62
     7
 10
6.879103624
 20
5.7062773318
 30
0.0
  0
VERTEX
  5
28D
  8
0
  6
CONTINUOUS
 62
     7
 10
6.8519001198
 20
5.6758023416
 30
0.0
  0
VERTEX
  5
28E
  8
0
  6
CONTINUOUS
 62
     7
 10
6.8271454595
 20
5.6446394099
 30
0.0
  0
VERTEX
  5
28F
  8
0
  6
CONTINUOUS
 62
     7
 10
6.8048917026
 20
5.6128540727
 30
0.0
  0
VERTEX
  5
290
  8
0
  6
CONTINUOUS
 62
     7
 10
6.7851856491
 20
5.5805131751
 30
0.0
  0
VERTEX
  5
291
  8
0
  6
CONTINUOUS
 62
     7
 10
6.7680687411
 20
5.5476847306
 30
0.0
  0
VERTEX
  5
292
  8
0
  6
CONTINUOUS
 62
     7
 10
6.7535769758
 20
5.5144377778
 30
0.0
  0
VERTEX
  5
293
  8
0
  6
CONTINUOUS
 62
     7
 10
6.7417408296
 20
5.4808422356
 30
0.0
  0
VERTEX
  5
294
  8
0
  6
CONTINUOUS
 62
     7
 10
6.732585194
 20
5.446968756
 30
0.0
  0
VERTEX
  5
295
  8
0
  6
CONTINUOUS
 62
     7
 10
6.7261293235
 20
5.4128885753
 30
0.0
  0
VERTEX
  5
296
  8
0
  6
CONTINUOUS
 62
     7
 10
6.722386795
 20
5.3786733649
 30
0.0
  0
VERTEX
  5
297
  8
0
  6
CONTINUOUS
 62
     7
 10
6.7213654789
 20
5.3443950797
 30
0.0
  0
VERTEX
  5
298
  8
0
  6
CONTINUOUS
 62
     7
 10
6.7230675232
 20
5.3101258076
 30
0.0
  0
VERTEX
  5
299
  8
0
  6
CONTINUOUS
 62
     7
 10
6.7274893483
 20
5.2759376173
 30
0.0
  0
VERTEX
  5
29A
  8
0
  6
CONTINUOUS
 62
     7
 10
6.7346216553
 20
5.2419024072
 30
0.0
  0
VERTEX
  5
29B
  8
0
  6
CONTINUOUS
 62
     7
 10
6.7444494446
 20
5.2080917538
 30
0.0
  0
VERTEX
  5
29C
  8
0
  6
CONTINUOUS
 62
     7
 10
6.7569520483
 20
5.1745767614
 30
0.0
  0
VERTEX
  5
29D
  8
0
  6
CONTINUOUS
 62
     7
 10
6.7721031733
 20
5.1414279127
 30
0.0
  0
VERTEX
  5
29E
  8
0
  6
CONTINUOUS
 62
     7
 10
6.7898709565
 20
5.1087149201
 30
0.0
  0
VERTEX
  5
29F
  8
0
  6
CONTINUOUS
 62
     7
 10
6.8102180319
 20
5.0765065796
 30
0.0
  0
VERTEX
  5
2A0
  8
0
  6
CONTINUOUS
 62
     7
 10
6.8331016093
 20
5.0448706258
 30
0.0
  0
VERTEX
  5
2A1
  8
0
  6
CONTINUOUS
 62
     7
 10
6.8584735643
 20
5.0138735896
 30
0.0
  0
VERTEX
  5
2A2
  8
0
  6
CONTINUOUS
 62
     7
 10
6.8862805392
 20
4.9835806583
 30
0.0
  0
VERTEX
  5
2A3
  8
0
  6
CONTINUOUS
 62
     7
 10
6.9164640555
 20
4.9540555383
 30
0.0
  0
VERTEX
  5
2A4
  8
0
  6
CONTINUOUS
 62
     7
 10
6.9489606368
 20
4.9253603215
 30
0.0
  0
VERTEX
  5
2A5
  8
0
  6
CONTINUOUS
 62
     7
 10
6.9837019423
 20
4.8975553544
 30
0.0
  0
VERTEX
  5
2A6
  8
0
  6
CONTINUOUS
 62
     7
 10
7.0206149105
 20
4.8706991111
 30
0.0
  0
VERTEX
  5
2A7
  8
0
  6
CONTINUOUS
 62
     7
 10
7.0596219128
 20
4.8448480709
 30
0.0
  0
VERTEX
  5
2A8
  8
0
  6
CONTINUOUS
 62
     7
 10
7.100640917
 20
4.8200565989
 30
0.0
  0
SEQEND
  5
540
  8
0
  6
CONTINUOUS
 62
     7
  0
POLYLINE
  5
F4
  8
0
  6
CONTINUOUS
 62
     7
 66
     1
 10
0.0
 20
0.0
 30
0.0
 70
   128
  0
VERTEX
  5
2A9
  8
0
  6
CONTINUOUS
 62
     7
 10
9.3112669511
 20
5.3405154431
 30
0.0
  0
VERTEX
  5
2AA
  8
0
  6
CONTINUOUS
 62
     7
 10
9.3108122267
 20
5.3537760758
 30
0.0
  0
VERTEX
  5
2AB
  8
0
  6
CONTINUOUS
 62
     7
 10
9.3077494868
 20
5.3880138085
 30
0.0
  0
VERTEX
  5
2AC
  8
0
  6
CONTINUOUS
 62
     7
 10
9.3019709015
 20
5.4221344794
 30
0.0
  0
VERTEX
  5
2AD
  8
0
  6
CONTINUOUS
 62
     7
 10
9.2934886232
 20
5.4560663322
 30
0.0
  0
VERTEX
  5
2AE
  8
0
  6
CONTINUOUS
 62
     7
 10
9.2823204905
 20
5.4897380078
 30
0.0
  0
VERTEX
  5
2AF
  8
0
  6
CONTINUOUS
 62
     7
 10
9.2684899899
 20
5.523078694
 30
0.0
  0
VERTEX
  5
2B0
  8
0
  6
CONTINUOUS
 62
     7
 10
9.2520262073
 20
5.5560182749
 30
0.0
  0
VERTEX
  5
2B1
  8
0
  6
CONTINUOUS
 62
     7
 10
9.2329637663
 20
5.5884874779
 30
0.0
  0
VERTEX
  5
2B2
  8
0
  6
CONTINUOUS
 62
     7
 10
9.2113427555
 20
5.62041802
 30
0.0
  0
VERTEX
  5
2B3
  8
0
  6
CONTINUOUS
 62
     7
 10
9.1872086441
 20
5.6517427506
 30
0.0
  0
VERTEX
  5
2B4
  8
0
  6
CONTINUOUS
 62
     7
 10
9.1606121867
 20
5.6823957934
 30
0.0
  0
VERTEX
  5
2B5
  8
0
  6
CONTINUOUS
 62
     7
 10
9.1316093159
 20
5.7123126846
 30
0.0
  0
VERTEX
  5
2B6
  8
0
  6
CONTINUOUS
 62
     7
 10
9.1002610253
 20
5.7414305083
 30
0.0
  0
VERTEX
  5
2B7
  8
0
  6
CONTINUOUS
 62
     7
 10
9.0666332407
 20
5.7696880295
 30
0.0
  0
VERTEX
  5
2B8
  8
0
  6
CONTINUOUS
 62
     7
 10
9.030796682
 20
5.7970258222
 30
0.0
  0
VERTEX
  5
2B9
  8
0
  6
CONTINUOUS
 62
     7
 10
8.992826714
 20
5.8233863944
 30
0.0
  0
VERTEX
  5
2BA
  8
0
  6
CONTINUOUS
 62
     7
 10
8.9528031882
 20
5.8487143095
 30
0.0
  0
VERTEX
  5
2BB
  8
0
  6
CONTINUOUS
 62
     7
 10
8.9321962715
 20
5.8608883781
 30
0.0
  0
SEQEND
  5
541
  8
0
  6
CONTINUOUS
 62
     7
  0
POLYLINE
  5
F5
  8
0
  6
CONTINUOUS
 62
     7
 66
     1
 10
0.0
 20
0.0
 30
0.0
 70
   128
  0
VERTEX
  5
2BC
  8
0
  6
CONTINUOUS
 62
     7
 10
7.1004921257
 20
5.8608883781
 30
0.0
  0
VERTEX
  5
2BD
  8
0
  6
CONTINUOUS
 62
     7
 10
7.0902021877
 20
5.8548786443
 30
0.0
  0
VERTEX
  5
2BE
  8
0
  6
CONTINUOUS
 62
     7
 10
7.049678259
 20
5.8298173034
 30
0.0
  0
VERTEX
  5
2BF
  8
0
  6
CONTINUOUS
 62
     7
 10
7.0111872438
 20
5.8037097811
 30
0.0
  0
VERTEX
  5
2C0
  8
0
  6
CONTINUOUS
 62
     7
 10
6.9748100893
 20
5.776610982
 30
0.0
  0
VERTEX
  5
2C1
  8
0
  6
CONTINUOUS
 62
     7
 10
6.9406232972
 20
5.7485778952
 30
0.0
  0
VERTEX
  5
2C2
  8
0
  6
CONTINUOUS
 62
     7
 10
6.9086987628
 20
5.7196694748
 30
0.0
  0
VERTEX
  5
2C3
  8
0
  6
CONTINUOUS
 62
     7
 10
6.879103624
 20
5.6899465156
 30
0.0
  0
VERTEX
  5
2C4
  8
0
  6
CONTINUOUS
 62
     7
 10
6.8519001198
 20
5.6594715254
 30
0.0
  0
VERTEX
  5
2C5
  8
0
  6
CONTINUOUS
 62
     7
 10
6.8271454595
 20
5.6283085936
 30
0.0
  0
VERTEX
  5
2C6
  8
0
  6
CONTINUOUS
 62
     7
 10
6.8048917026
 20
5.5965232564
 30
0.0
  0
VERTEX
  5
2C7
  8
0
  6
CONTINUOUS
 62
     7
 10
6.7851856491
 20
5.5641823589
 30
0.0
  0
VERTEX
  5
2C8
  8
0
  6
CONTINUOUS
 62
     7
 10
6.7680687411
 20
5.5313539143
 30
0.0
  0
VERTEX
  5
2C9
  8
0
  6
CONTINUOUS
 62
     7
 10
6.7535769758
 20
5.4981069615
 30
0.0
  0
VERTEX
  5
2CA
  8
0
  6
CONTINUOUS
 62
     7
 10
6.7417408296
 20
5.4645114193
 30
0.0
  0
VERTEX
  5
2CB
  8
0
  6
CONTINUOUS
 62
     7
 10
6.732585194
 20
5.4306379397
 30
0.0
  0
VERTEX
  5
2CC
  8
0
  6
CONTINUOUS
 62
     7
 10
6.7261293235
 20
5.3965577591
 30
0.0
  0
VERTEX
  5
2CD
  8
0
  6
CONTINUOUS
 62
     7
 10
6.722386795
 20
5.3623425487
 30
0.0
  0
VERTEX
  5
2CE
  8
0
  6
CONTINUOUS
 62
     7
 10
6.7214214461
 20
5.3405154431
 30
0.0
  0
SEQEND
  5
542
  8
0
  6
CONTINUOUS
 62
     7
  0
POLYLINE
  5
F6
  8
0
  6
CONTINUOUS
 62
     7
 66
     1
 10
0.0
 20
0.0
 30
0.0
 70
   128
  0
VERTEX
  5
2CF
  8
0
  6
CONTINUOUS
 62
     7
 10
8.7992949892
 20
5.4202527958
 30
0.0
  0
VERTEX
  5
2D0
  8
0
  6
CONTINUOUS
 62
     7
 10
8.7692361439
 20
5.4383276268
 30
0.0
  0
VERTEX
  5
2D1
  8
0
  6
CONTINUOUS
 62
     7
 10
8.7301364612
 20
5.4597836906
 30
0.0
  0
VERTEX
  5
2D2
  8
0
  6
CONTINUOUS
 62
     7
 10
8.689204484
 20
5.4800689746
 30
0.0
  0
VERTEX
  5
2D3
  8
0
  6
CONTINUOUS
 62
     7
 10
8.6465452842
 20
5.4991314066
 30
0.0
  0
VERTEX
  5
2D4
  8
0
  6
CONTINUOUS
 62
     7
 10
8.6022683672
 20
5.5169220536
 30
0.0
  0
VERTEX
  5
2D5
  8
0
  6
CONTINUOUS
 62
     7
 10
8.5564873912
 20
5.5333952474
 30
0.0
  0
VERTEX
  5
2D6
  8
0
  6
CONTINUOUS
 62
     7
 10
8.5093198754
 20
5.5485087015
 30
0.0
  0
VERTEX
  5
2D7
  8
0
  6
CONTINUOUS
 62
     7
 10
8.4608868981
 20
5.5622236198
 30
0.0
  0
VERTEX
  5
2D8
  8
0
  6
CONTINUOUS
 62
     7
 10
8.4113127861
 20
5.5745047965
 30
0.0
  0
VERTEX
  5
2D9
  8
0
  6
CONTINUOUS
 62
     7
 10
8.3607247954
 20
5.5853207057
 30
0.0
  0
VERTEX
  5
2DA
  8
0
  6
CONTINUOUS
 62
     7
 10
8.3092527847
 20
5.5946435833
 30
0.0
  0
VERTEX
  5
2DB
  8
0
  6
CONTINUOUS
 62
     7
 10
8.2570288818
 20
5.6024494977
 30
0.0
  0
VERTEX
  5
2DC
  8
0
  6
CONTINUOUS
 62
     7
 10
8.2041871447
 20
5.608718411
 30
0.0
  0
VERTEX
  5
2DD
  8
0
  6
CONTINUOUS
 62
     7
 10
8.1508632176
 20
5.6134342311
 30
0.0
  0
VERTEX
  5
2DE
  8
0
  6
CONTINUOUS
 62
     7
 10
8.097193982
 20
5.6165848526
 30
0.0
  0
VERTEX
  5
2DF
  8
0
  6
CONTINUOUS
 62
     7
 10
8.0433172062
 20
5.6181621878
 30
0.0
  0
VERTEX
  5
2E0
  8
0
  6
CONTINUOUS
 62
     7
 10
7.989371191
 20
5.6181621878
 30
0.0
  0
VERTEX
  5
2E1
  8
0
  6
CONTINUOUS
 62
     7
 10
7.9354944152
 20
5.6165848526
 30
0.0
  0
VERTEX
  5
2E2
  8
0
  6
CONTINUOUS
 62
     7
 10
7.8818251797
 20
5.6134342311
 30
0.0
  0
VERTEX
  5
2E3
  8
0
  6
CONTINUOUS
 62
     7
 10
7.8285012525
 20
5.608718411
 30
0.0
  0
VERTEX
  5
2E4
  8
0
  6
CONTINUOUS
 62
     7
 10
7.7756595155
 20
5.6024494977
 30
0.0
  0
VERTEX
  5
2E5
  8
0
  6
CONTINUOUS
 62
     7
 10
7.7234356126
 20
5.5946435833
 30
0.0
  0
VERTEX
  5
2E6
  8
0
  6
CONTINUOUS
 62
     7
 10
7.6719636018
 20
5.5853207057
 30
0.0
  0
VERTEX
  5
2E7
  8
0
  6
CONTINUOUS
 62
     7
 10
7.6213756111
 20
5.5745047965
 30
0.0
  0
VERTEX
  5
2E8
  8
0
  6
CONTINUOUS
 62
     7
 10
7.5718014991
 20
5.5622236198
 30
0.0
  0
VERTEX
  5
2E9
  8
0
  6
CONTINUOUS
 62
     7
 10
7.5233685218
 20
5.5485087015
 30
0.0
  0
VERTEX
  5
2EA
  8
0
  6
CONTINUOUS
 62
     7
 10
7.476201006
 20
5.5333952474
 30
0.0
  0
VERTEX
  5
2EB
  8
0
  6
CONTINUOUS
 62
     7
 10
7.4304200301
 20
5.5169220536
 30
0.0
  0
VERTEX
  5
2EC
  8
0
  6
CONTINUOUS
 62
     7
 10
7.386143113
 20
5.4991314066
 30
0.0
  0
VERTEX
  5
2ED
  8
0
  6
CONTINUOUS
 62
     7
 10
7.3434839132
 20
5.4800689746
 30
0.0
  0
VERTEX
  5
2EE
  8
0
  6
CONTINUOUS
 62
     7
 10
7.302551936
 20
5.4597836906
 30
0.0
  0
VERTEX
  5
2EF
  8
0
  6
CONTINUOUS
 62
     7
 10
7.2634522533
 20
5.4383276268
 30
0.0
  0
VERTEX
  5
2F0
  8
0
  6
CONTINUOUS
 62
     7
 10
7.233393408
 20
5.4202527958
 30
0.0
  0
SEQEND
  5
543
  8
0
  6
CONTINUOUS
 62
     7
  0
POLYLINE
  5
F7
  8
0
  6
CONTINUOUS
 62
     7
 66
     1
 10
0.0
 20
0.0
 30
0.0
 70
   128
  0
VERTEX
  5
2F1
  8
0
  6
CONTINUOUS
 62
     7
 10
7.0546789762
 20
4.2443996392
 30
0.0
  0
VERTEX
  5
2F2
  8
0
  6
CONTINUOUS
 62
     7
 10
7.0984727827
 20
4.2202202268
 30
0.0
  0
VERTEX
  5
2F3
  8
0
  6
CONTINUOUS
 62
     7
 10
7.1440889378
 20
4.1971910341
 30
0.0
  0
VERTEX
  5
2F4
  8
0
  6
CONTINUOUS
 62
     7
 10
7.1914368751
 20
4.1753577837
 30
0.0
  0
VERTEX
  5
2F5
  8
0
  6
CONTINUOUS
 62
     7
 10
7.2404225895
 20
4.1547638233
 30
0.0
  0
VERTEX
  5
2F6
  8
0
  6
CONTINUOUS
 62
     7
 10
7.2909488245
 20
4.1354500404
 30
0.0
  0
VERTEX
  5
2F7
  8
0
  6
CONTINUOUS
 62
     7
 10
7.3429152648
 20
4.1174547807
 30
0.0
  0
VERTEX
  5
2F8
  8
0
  6
CONTINUOUS
 62
     7
 10
7.3962187359
 20
4.1008137721
 30
0.0
  0
VERTEX
  5
2F9
  8
0
  6
CONTINUOUS
 62
     7
 10
7.4507534087
 20
4.0855600539
 30
0.0
  0
VERTEX
  5
2FA
  8
0
  6
CONTINUOUS
 62
     7
 10
7.5064110097
 20
4.0717239108
 30
0.0
  0
VERTEX
  5
2FB
  8
0
  6
CONTINUOUS
 62
     7
 10
7.5630810358
 20
4.0593328132
 30
0.0
  0
VERTEX
  5
2FC
  8
0
  6
CONTINUOUS
 62
     7
 10
7.620650974
 20
4.0484113625
 30
0.0
  0
VERTEX
  5
2FD
  8
0
  6
CONTINUOUS
 62
     7
 10
7.6790065245
 20
4.0389812423
 30
0.0
  0
VERTEX
  5
2FE
  8
0
  6
CONTINUOUS
 62
     7
 10
7.7380318277
 20
4.0310611752
 30
0.0
  0
VERTEX
  5
2FF
  8
0
  6
CONTINUOUS
 62
     7
 10
7.7976096943
 20
4.0246668856
 30
0.0
  0
VERTEX
  5
300
  8
0
  6
CONTINUOUS
 62
     7
 10
7.857621838
 20
4.019811069
 30
0.0
  0
VERTEX
  5
301
  8
0
  6
CONTINUOUS
 62
     7
 10
7.9179491103
 20
4.0165033661
 30
0.0
  0
VERTEX
  5
302
  8
0
  6
CONTINUOUS
 62
     7
 10
7.978471737
 20
4.014750344
 30
0.0
  0
VERTEX
  5
303
  8
0
  6
CONTINUOUS
 62
     7
 10
8.0390695559
 20
4.0145554831
 30
0.0
  0
VERTEX
  5
304
  8
0
  6
CONTINUOUS
 62
     7
 10
8.0996222557
 20
4.0159191705
 30
0.0
  0
VERTEX
  5
305
  8
0
  6
CONTINUOUS
 62
     7
 10
8.1600096146
 20
4.0188386985
 30
0.0
  0
VERTEX
  5
306
  8
0
  6
CONTINUOUS
 62
     7
 10
8.2201117392
 20
4.0233082707
 30
0.0
  0
VERTEX
  5
307
  8
0
  6
CONTINUOUS
 62
     7
 10
8.2798093021
 20
4.0293190132
 30
0.0
  0
VERTEX
  5
308
  8
0
  6
CONTINUOUS
 62
     7
 10
8.3389837795
 20
4.0368589923
 30
0.0
  0
VERTEX
  5
309
  8
0
  6
CONTINUOUS
 62
     7
 10
8.3975176859
 20
4.045913238
 30
0.0
  0
VERTEX
  5
30A
  8
0
  6
CONTINUOUS
 62
     7
 10
8.4552948076
 20
4.0564637739
 30
0.0
  0
VERTEX
  5
30B
  8
0
  6
CONTINUOUS
 62
     7
 10
8.5122004335
 20
4.0684896529
 30
0.0
  0
VERTEX
  5
30C
  8
0
  6
CONTINUOUS
 62
     7
 10
8.5681215827
 20
4.0819669988
 30
0.0
  0
VERTEX
  5
30D
  8
0
  6
CONTINUOUS
 62
     7
 10
8.622947229
 20
4.0968690535
 30
0.0
  0
VERTEX
  5
30E
  8
0
  6
CONTINUOUS
 62
     7
 10
8.6765685211
 20
4.1131662304
 30
0.0
  0
VERTEX
  5
30F
  8
0
  6
CONTINUOUS
 62
     7
 10
8.728878999
 20
4.130826173
 30
0.0
  0
VERTEX
  5
310
  8
0
  6
CONTINUOUS
 62
     7
 10
8.779774805
 20
4.149813819
 30
0.0
  0
VERTEX
  5
311
  8
0
  6
CONTINUOUS
 62
     7
 10
8.8291548901
 20
4.1700914703
 30
0.0
  0
VERTEX
  5
312
  8
0
  6
CONTINUOUS
 62
     7
 10
8.8769212149
 20
4.1916188674
 30
0.0
  0
VERTEX
  5
313
  8
0
  6
CONTINUOUS
 62
     7
 10
8.9229789437
 20
4.2143532697
 30
0.0
  0
VERTEX
  5
314
  8
0
  6
CONTINUOUS
 62
     7
 10
8.9672366331
 20
4.2382495402
 30
0.0
  0
VERTEX
  5
315
  8
0
  6
CONTINUOUS
 62
     7
 10
8.9781656806
 20
4.2444898606
 30
0.0
  0
SEQEND
  5
544
  8
0
  6
CONTINUOUS
 62
     7
  0
POLYLINE
  5
F8
  8
0
  6
CONTINUOUS
 62
     7
 66
     1
 10
0.0
 20
0.0
 30
0.0
 70
   128
  0
VERTEX
  5
316
  8
0
  6
CONTINUOUS
 62
     7
 10
8.8731449941
 20
5.1741452527
 30
0.0
  0
VERTEX
  5
317
  8
0
  6
CONTINUOUS
 62
     7
 10
8.8594090379
 20
5.1956183753
 30
0.0
  0
VERTEX
  5
318
  8
0
  6
CONTINUOUS
 62
     7
 10
8.8399955505
 20
5.221909796
 30
0.0
  0
VERTEX
  5
319
  8
0
  6
CONTINUOUS
 62
     7
 10
8.8181239637
 20
5.2475499701
 30
0.0
  0
VERTEX
  5
31A
  8
0
  6
CONTINUOUS
 62
     7
 10
8.7938595509
 20
5.2724623773
 30
0.0
  0
VERTEX
  5
31B
  8
0
  6
CONTINUOUS
 62
     7
 10
8.7672747268
 20
5.296572669
 30
0.0
  0
VERTEX
  5
31C
  8
0
  6
CONTINUOUS
 62
     7
 10
8.7384488308
 20
5.3198088908
 30
0.0
  0
VERTEX
  5
31D
  8
0
  6
CONTINUOUS
 62
     7
 10
8.7074678908
 20
5.3421016967
 30
0.0
  0
VERTEX
  5
31E
  8
0
  6
CONTINUOUS
 62
     7
 10
8.6744243661
 20
5.363384556
 30
0.0
  0
VERTEX
  5
31F
  8
0
  6
CONTINUOUS
 62
     7
 10
8.6394168715
 20
5.3835939525
 30
0.0
  0
VERTEX
  5
320
  8
0
  6
CONTINUOUS
 62
     7
 10
8.6025498831
 20
5.4026695733
 30
0.0
  0
VERTEX
  5
321
  8
0
  6
CONTINUOUS
 62
     7
 10
8.5639334266
 20
5.4205544893
 30
0.0
  0
VERTEX
  5
322
  8
0
  6
CONTINUOUS
 62
     7
 10
8.5236827486
 20
5.4371953248
 30
0.0
  0
VERTEX
  5
323
  8
0
  6
CONTINUOUS
 62
     7
 10
8.481917973
 20
5.4525424171
 30
0.0
  0
VERTEX
  5
324
  8
0
  6
CONTINUOUS
 62
     7
 10
8.4387637422
 20
5.4665499644
 30
0.0
  0
VERTEX
  5
325
  8
0
  6
CONTINUOUS
 62
     7
 10
8.3943488455
 20
5.4791761627
 30
0.0
  0
VERTEX
  5
326
  8
0
  6
CONTINUOUS
 62
     7
 10
8.3488058344
 20
5.4903833304
 30
0.0
  0
VERTEX
  5
327
  8
0
  6
CONTINUOUS
 62
     7
 10
8.3022706271
 20
5.500138021
 30
0.0
  0
VERTEX
  5
328
  8
0
  6
CONTINUOUS
 62
     7
 10
8.2548821029
 20
5.5084111227
 30
0.0
  0
VERTEX
  5
329
  8
0
  6
CONTINUOUS
 62
     7
 10
8.2067816879
 20
5.5151779451
 30
0.0
  0
VERTEX
  5
32A
  8
0
  6
CONTINUOUS
 62
     7
 10
8.1581129326
 20
5.5204182935
 30
0.0
  0
VERTEX
  5
32B
  8
0
  6
CONTINUOUS
 62
     7
 10
8.1090210836
 20
5.5241165287
 30
0.0
  0
VERTEX
  5
32C
  8
0
  6
CONTINUOUS
 62
     7
 10
8.0596526504
 20
5.5262616136
 30
0.0
  0
VERTEX
  5
32D
  8
0
  6
CONTINUOUS
 62
     7
 10
8.0101549677
 20
5.5268471464
 30
0.0
  0
VERTEX
  5
32E
  8
0
  6
CONTINUOUS
 62
     7
 10
7.9606757562
 20
5.5258713797
 30
0.0
  0
VERTEX
  5
32F
  8
0
  6
CONTINUOUS
 62
     7
 10
7.9113626811
 20
5.5233372256
 30
0.0
  0
VERTEX
  5
330
  8
0
  6
CONTINUOUS
 62
     7
 10
7.8623629122
 20
5.519252247
 30
0.0
  0
VERTEX
  5
331
  8
0
  6
CONTINUOUS
 62
     7
 10
7.8138226839
 20
5.513628635
 30
0.0
  0
VERTEX
  5
332
  8
0
  6
CONTINUOUS
 62
     7
 10
7.7658868595
 20
5.5064831728
 30
0.0
  0
VERTEX
  5
333
  8
0
  6
CONTINUOUS
 62
     7
 10
7.7186984981
 20
5.4978371851
 30
0.0
  0
VERTEX
  5
334
  8
0
  6
CONTINUOUS
 62
     7
 10
7.6723984286
 20
5.4877164751
 30
0.0
  0
VERTEX
  5
335
  8
0
  6
CONTINUOUS
 62
     7
 10
7.6271248284
 20
5.4761512469
 30
0.0
  0
VERTEX
  5
336
  8
0
  6
CONTINUOUS
 62
     7
 10
7.5830128117
 20
5.4631760156
 30
0.0
  0
VERTEX
  5
337
  8
0
  6
CONTINUOUS
 62
     7
 10
7.5401940263
 20
5.4488295045
 30
0.0
  0
VERTEX
  5
338
  8
0
  6
CONTINUOUS
 62
     7
 10
7.4987962601
 20
5.4331545293
 30
0.0
  0
VERTEX
  5
339
  8
0
  6
CONTINUOUS
 62
     7
 10
7.4589430603
 20
5.4161978701
 30
0.0
  0
VERTEX
  5
33A
  8
0
  6
CONTINUOUS
 62
     7
 10
7.4207533647
 20
5.3980101323
 30
0.0
  0
VERTEX
  5
33B
  8
0
  6
CONTINUOUS
 62
     7
 10
7.3843411462
 20
5.3786455954
 30
0.0
  0
VERTEX
  5
33C
  8
0
  6
CONTINUOUS
 62
     7
 10
7.3498150731
 20
5.3581620505
 30
0.0
  0
VERTEX
  5
33D
  8
0
  6
CONTINUOUS
 62
     7
 10
7.317278185
 20
5.3366206289
 30
0.0
  0
VERTEX
  5
33E
  8
0
  6
CONTINUOUS
 62
     7
 10
7.2868275846
 20
5.3140856184
 30
0.0
  0
VERTEX
  5
33F
  8
0
  6
CONTINUOUS
 62
     7
 10
7.2585541485
 20
5.2906242724
 30
0.0
  0
VERTEX
  5
340
  8
0
  6
CONTINUOUS
 62
     7
 10
7.2325422558
 20
5.2663066088
 30
0.0
  0
VERTEX
  5
341
  8
0
  6
CONTINUOUS
 62
     7
 10
7.2088695361
 20
5.2412052011
 30
0.0
  0
VERTEX
  5
342
  8
0
  6
CONTINUOUS
 62
     7
 10
7.1876066381
 20
5.2153949617
 30
0.0
  0
VERTEX
  5
343
  8
0
  6
CONTINUOUS
 62
     7
 10
7.1688170188
 20
5.1889529185
 30
0.0
  0
VERTEX
  5
344
  8
0
  6
CONTINUOUS
 62
     7
 10
7.1595434031
 20
5.1741452527
 30
0.0
  0
SEQEND
  5
545
  8
0
  6
CONTINUOUS
 62
     7
  0
POLYLINE
  5
F9
  8
0
  6
CONTINUOUS
 62
     7
 66
     1
 10
0.0
 20
0.0
 30
0.0
 70
   128
  0
VERTEX
  5
345
  8
0
  6
CONTINUOUS
 62
     7
 10
8.7983881779
 20
5.0802430594
 30
0.0
  0
VERTEX
  5
346
  8
0
  6
CONTINUOUS
 62
     7
 10
8.7938595509
 20
5.0846579905
 30
0.0
  0
VERTEX
  5
347
  8
0
  6
CONTINUOUS
 62
     7
 10
8.7672747268
 20
5.1087682823
 30
0.0
  0
VERTEX
  5
348
  8
0
  6
CONTINUOUS
 62
     7
 10
8.7384488308
 20
5.1320045041
 30
0.0
  0
VERTEX
  5
349
  8
0
  6
CONTINUOUS
 62
     7
 10
8.7074678908
 20
5.1542973099
 30
0.0
  0
VERTEX
  5
34A
  8
0
  6
CONTINUOUS
 62
     7
 10
8.6744243661
 20
5.1755801693
 30
0.0
  0
VERTEX
  5
34B
  8
0
  6
CONTINUOUS
 62
     7
 10
8.6394168715
 20
5.1957895658
 30
0.0
  0
VERTEX
  5
34C
  8
0
  6
CONTINUOUS
 62
     7
 10
8.6025498831
 20
5.2148651866
 30
0.0
  0
VERTEX
  5
34D
  8
0
  6
CONTINUOUS
 62
     7
 10
8.5639334266
 20
5.2327501025
 30
0.0
  0
VERTEX
  5
34E
  8
0
  6
CONTINUOUS
 62
     7
 10
8.5236827486
 20
5.2493909381
 30
0.0
  0
VERTEX
  5
34F
  8
0
  6
CONTINUOUS
 62
     7
 10
8.481917973
 20
5.2647380304
 30
0.0
  0
VERTEX
  5
350
  8
0
  6
CONTINUOUS
 62
     7
 10
8.4387637422
 20
5.2787455777
 30
0.0
  0
VERTEX
  5
351
  8
0
  6
CONTINUOUS
 62
     7
 10
8.3943488455
 20
5.291371776
 30
0.0
  0
VERTEX
  5
352
  8
0
  6
CONTINUOUS
 62
     7
 10
8.3488058344
 20
5.3025789437
 30
0.0
  0
VERTEX
  5
353
  8
0
  6
CONTINUOUS
 62
     7
 10
8.3022706271
 20
5.3123336343
 30
0.0
  0
VERTEX
  5
354
  8
0
  6
CONTINUOUS
 62
     7
 10
8.2548821029
 20
5.3206067359
 30
0.0
  0
VERTEX
  5
355
  8
0
  6
CONTINUOUS
 62
     7
 10
8.2067816879
 20
5.3273735584
 30
0.0
  0
VERTEX
  5
356
  8
0
  6
CONTINUOUS
 62
     7
 10
8.1581129326
 20
5.3326139068
 30
0.0
  0
VERTEX
  5
357
  8
0
  6
CONTINUOUS
 62
     7
 10
8.1090210836
 20
5.336312142
 30
0.0
  0
VERTEX
  5
358
  8
0
  6
CONTINUOUS
 62
     7
 10
8.0596526504
 20
5.3384572268
 30
0.0
  0
VERTEX
  5
359
  8
0
  6
CONTINUOUS
 62
     7
 10
8.0101549677
 20
5.3390427597
 30
0.0
  0
VERTEX
  5
35A
  8
0
  6
CONTINUOUS
 62
     7
 10
7.9606757562
 20
5.338066993
 30
0.0
  0
VERTEX
  5
35B
  8
0
  6
CONTINUOUS
 62
     7
 10
7.9113626811
 20
5.3355328389
 30
0.0
  0
VERTEX
  5
35C
  8
0
  6
CONTINUOUS
 62
     7
 10
7.8623629122
 20
5.3314478603
 30
0.0
  0
VERTEX
  5
35D
  8
0
  6
CONTINUOUS
 62
     7
 10
7.8138226839
 20
5.3258242483
 30
0.0
  0
VERTEX
  5
35E
  8
0
  6
CONTINUOUS
 62
     7
 10
7.7658868595
 20
5.318678786
 30
0.0
  0
VERTEX
  5
35F
  8
0
  6
CONTINUOUS
 62
     7
 10
7.7186984981
 20
5.3100327984
 30
0.0
  0
VERTEX
  5
360
  8
0
  6
CONTINUOUS
 62
     7
 10
7.6723984286
 20
5.2999120884
 30
0.0
  0
VERTEX
  5
361
  8
0
  6
CONTINUOUS
 62
     7
 10
7.6271248284
 20
5.2883468601
 30
0.0
  0
VERTEX
  5
362
  8
0
  6
CONTINUOUS
 62
     7
 10
7.5830128117
 20
5.2753716289
 30
0.0
  0
VERTEX
  5
363
  8
0
  6
CONTINUOUS
 62
     7
 10
7.5401940263
 20
5.2610251178
 30
0.0
  0
VERTEX
  5
364
  8
0
  6
CONTINUOUS
 62
     7
 10
7.4987962601
 20
5.2453501425
 30
0.0
  0
VERTEX
  5
365
  8
0
  6
CONTINUOUS
 62
     7
 10
7.4589430603
 20
5.2283934834
 30
0.0
  0
VERTEX
  5
366
  8
0
  6
CONTINUOUS
 62
     7
 10
7.4207533647
 20
5.2102057456
 30
0.0
  0
VERTEX
  5
367
  8
0
  6
CONTINUOUS
 62
     7
 10
7.3843411462
 20
5.1908412086
 30
0.0
  0
VERTEX
  5
368
  8
0
  6
CONTINUOUS
 62
     7
 10
7.3498150731
 20
5.1703576638
 30
0.0
  0
VERTEX
  5
369
  8
0
  6
CONTINUOUS
 62
     7
 10
7.317278185
 20
5.1488162421
 30
0.0
  0
VERTEX
  5
36A
  8
0
  6
CONTINUOUS
 62
     7
 10
7.2868275846
 20
5.1262812316
 30
0.0
  0
VERTEX
  5
36B
  8
0
  6
CONTINUOUS
 62
     7
 10
7.2585541485
 20
5.1028198856
 30
0.0
  0
VERTEX
  5
36C
  8
0
  6
CONTINUOUS
 62
     7
 10
7.2343002194
 20
5.0802430594
 30
0.0
  0
SEQEND
  5
546
  8
0
  6
CONTINUOUS
 62
     7
  0
ARC
  5
FA
  8
0
  6
CONTINUOUS
 62
     7
 10
8.0163441986
 20
3.9115120316
 30
0.0
 40
1.425874072885279
 50
62.9737784236
 51
117.0262215764
  0
POLYLINE
  5
FB
  8
0
  6
CONTINUOUS
 62
     7
 66
     1
 10
0.0
 20
0.0
 30
0.0
 70
   128
  0
VERTEX
  5
36D
  8
0
  6
CONTINUOUS
 62
     7
 10
7.1253896543
 20
4.846591853
 30
0.0
  0
VERTEX
  5
36E
  8
0
  6
CONTINUOUS
 62
     7
 10
7.1678063972
 20
4.8232191282
 30
0.0
  0
VERTEX
  5
36F
  8
0
  6
CONTINUOUS
 62
     7
 10
7.212060884
 20
4.8010109631
 30
0.0
  0
VERTEX
  5
370
  8
0
  6
CONTINUOUS
 62
     7
 10
7.2580572694
 20
4.7800154558
 30
0.0
  0
VERTEX
  5
371
  8
0
  6
CONTINUOUS
 62
     7
 10
7.3056959355
 20
4.7602780778
 30
0.0
  0
VERTEX
  5
372
  8
0
  6
CONTINUOUS
 62
     7
 10
7.3548737074
 20
4.7418415758
 30
0.0
  0
VERTEX
  5
373
  8
0
  6
CONTINUOUS
 62
     7
 10
7.4054840771
 20
4.7247458792
 30
0.0
  0
VERTEX
  5
374
  8
0
  6
CONTINUOUS
 62
     7
 10
7.4574174338
 20
4.7090280136
 30
0.0
  0
VERTEX
  5
375
  8
0
  6
CONTINUOUS
 62
     7
 10
7.5105613014
 20
4.6947220202
 30
0.0
  0
VERTEX
  5
376
  8
0
  6
CONTINUOUS
 62
     7
 10
7.5648005822
 20
4.6818588828
 30
0.0
  0
VERTEX
  5
377
  8
0
  6
CONTINUOUS
 62
     7
 10
7.6200178059
 20
4.6704664599
 30
0.0
  0
VERTEX
  5
378
  8
0
  6
CONTINUOUS
 62
     7
 10
7.6760933843
 20
4.6605694251
 30
0.0
  0
VERTEX
  5
379
  8
0
  6
CONTINUOUS
 62
     7
 10
7.7329058701
 20
4.652189213
 30
0.0
  0
VERTEX
  5
37A
  8
0
  6
CONTINUOUS
 62
     7
 10
7.7903322203
 20
4.6453439734
 30
0.0
  0
VERTEX
  5
37B
  8
0
  6
CONTINUOUS
 62
     7
 10
7.8482480621
 20
4.6400485316
 30
0.0
  0
VERTEX
  5
37C
  8
0
  6
CONTINUOUS
 62
     7
 10
7.9065279628
 20
4.6363143563
 30
0.0
  0
VERTEX
  5
37D
  8
0
  6
CONTINUOUS
 62
     7
 10
7.9650457009
 20
4.6341495349
 30
0.0
  0
VERTEX
  5
37E
  8
0
  6
CONTINUOUS
 62
     7
 10
8.0236745401
 20
4.6335587558
 30
0.0
  0
VERTEX
  5
37F
  8
0
  6
CONTINUOUS
 62
     7
 10
8.0822875035
 20
4.6345432987
 30
0.0
  0
VERTEX
  5
380
  8
0
  6
CONTINUOUS
 62
     7
 10
8.1407576483
 20
4.6371010311
 30
0.0
  0
VERTEX
  5
381
  8
0
  6
CONTINUOUS
 62
     7
 10
8.1989583413
 20
4.6412264137
 30
0.0
  0
VERTEX
  5
382
  8
0
  6
CONTINUOUS
 62
     7
 10
8.2567635328
 20
4.6469105118
 30
0.0
  0
VERTEX
  5
383
  8
0
  6
CONTINUOUS
 62
     7
 10
8.3140480295
 20
4.6541410148
 30
0.0
  0
VERTEX
  5
384
  8
0
  6
CONTINUOUS
 62
     7
 10
8.370687766
 20
4.6629022631
 30
0.0
  0
VERTEX
  5
385
  8
0
  6
CONTINUOUS
 62
     7
 10
8.4265600732
 20
4.6731752818
 30
0.0
  0
VERTEX
  5
386
  8
0
  6
CONTINUOUS
 62
     7
 10
8.4815439442
 20
4.6849378219
 30
0.0
  0
VERTEX
  5
387
  8
0
  6
CONTINUOUS
 62
     7
 10
8.5355202962
 20
4.6981644082
 30
0.0
  0
VERTEX
  5
388
  8
0
  6
CONTINUOUS
 62
     7
 10
8.5883722283
 20
4.712826395
 30
0.0
  0
VERTEX
  5
389
  8
0
  6
CONTINUOUS
 62
     7
 10
8.6399852751
 20
4.7288920276
 30
0.0
  0
VERTEX
  5
38A
  8
0
  6
CONTINUOUS
 62
     7
 10
8.6902476542
 20
4.7463265115
 30
0.0
  0
VERTEX
  5
38B
  8
0
  6
CONTINUOUS
 62
     7
 10
8.7390505084
 20
4.7650920875
 30
0.0
  0
VERTEX
  5
38C
  8
0
  6
CONTINUOUS
 62
     7
 10
8.7862881417
 20
4.7851481134
 30
0.0
  0
VERTEX
  5
38D
  8
0
  6
CONTINUOUS
 62
     7
 10
8.8318582479
 20
4.8064511525
 30
0.0
  0
VERTEX
  5
38E
  8
0
  6
CONTINUOUS
 62
     7
 10
8.8756621323
 20
4.828955067
 30
0.0
  0
VERTEX
  5
38F
  8
0
  6
CONTINUOUS
 62
     7
 10
8.9176049254
 20
4.8526111185
 30
0.0
  0
VERTEX
  5
390
  8
0
  6
CONTINUOUS
 62
     7
 10
8.9575957884
 20
4.8773680733
 30
0.0
  0
VERTEX
  5
391
  8
0
  6
CONTINUOUS
 62
     7
 10
8.99554811
 20
4.9031723133
 30
0.0
  0
VERTEX
  5
392
  8
0
  6
CONTINUOUS
 62
     7
 10
9.0313796941
 20
4.9299679522
 30
0.0
  0
VERTEX
  5
393
  8
0
  6
CONTINUOUS
 62
     7
 10
9.0650129373
 20
4.9576969568
 30
0.0
  0
VERTEX
  5
394
  8
0
  6
CONTINUOUS
 62
     7
 10
9.0963749975
 20
4.986299272
 30
0.0
  0
VERTEX
  5
395
  8
0
  6
CONTINUOUS
 62
     7
 10
9.1253979515
 20
5.0157129518
 30
0.0
  0
VERTEX
  5
396
  8
0
  6
CONTINUOUS
 62
     7
 10
9.152018942
 20
5.0458742926
 30
0.0
  0
VERTEX
  5
397
  8
0
  6
CONTINUOUS
 62
     7
 10
9.176180314
 20
5.0767179716
 30
0.0
  0
VERTEX
  5
398
  8
0
  6
CONTINUOUS
 62
     7
 10
9.1978297391
 20
5.1081771884
 30
0.0
  0
VERTEX
  5
399
  8
0
  6
CONTINUOUS
 62
     7
 10
9.2169203297
 20
5.1401838092
 30
0.0
  0
VERTEX
  5
39A
  8
0
  6
CONTINUOUS
 62
     7
 10
9.2334107397
 20
5.1726685149
 30
0.0
  0
VERTEX
  5
39B
  8
0
  6
CONTINUOUS
 62
     7
 10
9.2472652546
 20
5.2055609508
 30
0.0
  0
VERTEX
  5
39C
  8
0
  6
CONTINUOUS
 62
     7
 10
9.2584538686
 20
5.2387898792
 30
0.0
  0
VERTEX
  5
39D
  8
0
  6
CONTINUOUS
 62
     7
 10
9.2669523497
 20
5.2722833337
 30
0.0
  0
VERTEX
  5
39E
  8
0
  6
CONTINUOUS
 62
     7
 10
9.2727422919
 20
5.3059687748
 30
0.0
  0
VERTEX
  5
39F
  8
0
  6
CONTINUOUS
 62
     7
 10
9.2758111557
 20
5.3397732475
 30
0.0
  0
VERTEX
  5
3A0
  8
0
  6
CONTINUOUS
 62
     7
 10
9.2761522945
 20
5.3736235388
 30
0.0
  0
VERTEX
  5
3A1
  8
0
  6
CONTINUOUS
 62
     7
 10
9.2737649695
 20
5.4074463364
 30
0.0
  0
VERTEX
  5
3A2
  8
0
  6
CONTINUOUS
 62
     7
 10
9.2686543511
 20
5.4411683878
 30
0.0
  0
VERTEX
  5
3A3
  8
0
  6
CONTINUOUS
 62
     7
 10
9.2608315078
 20
5.4747166584
 30
0.0
  0
VERTEX
  5
3A4
  8
0
  6
CONTINUOUS
 62
     7
 10
9.250313382
 20
5.5080184902
 30
0.0
  0
VERTEX
  5
3A5
  8
0
  6
CONTINUOUS
 62
     7
 10
9.2371227538
 20
5.5410017589
 30
0.0
  0
VERTEX
  5
3A6
  8
0
  6
CONTINUOUS
 62
     7
 10
9.2212881911
 20
5.57359503
 30
0.0
  0
VERTEX
  5
3A7
  8
0
  6
CONTINUOUS
 62
     7
 10
9.202843988
 20
5.6057277137
 30
0.0
  0
VERTEX
  5
3A8
  8
0
  6
CONTINUOUS
 62
     7
 10
9.1818300906
 20
5.6373302179
 30
0.0
  0
VERTEX
  5
3A9
  8
0
  6
CONTINUOUS
 62
     7
 10
9.1582920103
 20
5.6683340985
 30
0.0
  0
VERTEX
  5
3AA
  8
0
  6
CONTINUOUS
 62
     7
 10
9.1322807253
 20
5.698672208
 30
0.0
  0
VERTEX
  5
3AB
  8
0
  6
CONTINUOUS
 62
     7
 10
9.1038525702
 20
5.7282788409
 30
0.0
  0
VERTEX
  5
3AC
  8
0
  6
CONTINUOUS
 62
     7
 10
9.0730691142
 20
5.7570898757
 30
0.0
  0
VERTEX
  5
3AD
  8
0
  6
CONTINUOUS
 62
     7
 10
9.0399970274
 20
5.7850429142
 30
0.0
  0
VERTEX
  5
3AE
  8
0
  6
CONTINUOUS
 62
     7
 10
9.0047079364
 20
5.8120774164
 30
0.0
  0
VERTEX
  5
3AF
  8
0
  6
CONTINUOUS
 62
     7
 10
8.9672782697
 20
5.8381348314
 30
0.0
  0
VERTEX
  5
3B0
  8
0
  6
CONTINUOUS
 62
     7
 10
8.9277890915
 20
5.8631587248
 30
0.0
  0
VERTEX
  5
3B1
  8
0
  6
CONTINUOUS
 62
     7
 10
8.8863259267
 20
5.8870949004
 30
0.0
  0
VERTEX
  5
3B2
  8
0
  6
CONTINUOUS
 62
     7
 10
8.8429785751
 20
5.9098915177
 30
0.0
  0
VERTEX
  5
3B3
  8
0
  6
CONTINUOUS
 62
     7
 10
8.7978409176
 20
5.9314992043
 30
0.0
  0
VERTEX
  5
3B4
  8
0
  6
CONTINUOUS
 62
     7
 10
8.7510107122
 20
5.9518711629
 30
0.0
  0
VERTEX
  5
3B5
  8
0
  6
CONTINUOUS
 62
     7
 10
8.7025893827
 20
5.9709632723
 30
0.0
  0
VERTEX
  5
3B6
  8
0
  6
CONTINUOUS
 62
     7
 10
8.652681799
 20
5.9887341832
 30
0.0
  0
VERTEX
  5
3B7
  8
0
  6
CONTINUOUS
 62
     7
 10
8.6013960497
 20
6.0051454077
 30
0.0
  0
VERTEX
  5
3B8
  8
0
  6
CONTINUOUS
 62
     7
 10
8.5488432084
 20
6.020161403
 30
0.0
  0
VERTEX
  5
3B9
  8
0
  6
CONTINUOUS
 62
     7
 10
8.4951370928
 20
6.0337496475
 30
0.0
  0
VERTEX
  5
3BA
  8
0
  6
CONTINUOUS
 62
     7
 10
8.4403940184
 20
6.0458807123
 30
0.0
  0
VERTEX
  5
3BB
  8
0
  6
CONTINUOUS
 62
     7
 10
8.3847325466
 20
6.0565283241
 30
0.0
  0
VERTEX
  5
3BC
  8
0
  6
CONTINUOUS
 62
     7
 10
8.3282732276
 20
6.0656694226
 30
0.0
  0
VERTEX
  5
3BD
  8
0
  6
CONTINUOUS
 62
     7
 10
8.2711383398
 20
6.0732842101
 30
0.0
  0
VERTEX
  5
3BE
  8
0
  6
CONTINUOUS
 62
     7
 10
8.2134516246
 20
6.0793561949
 30
0.0
  0
VERTEX
  5
3BF
  8
0
  6
CONTINUOUS
 62
     7
 10
8.1553380186
 20
6.0838722262
 30
0.0
  0
VERTEX
  5
3C0
  8
0
  6
CONTINUOUS
 62
     7
 10
8.0969233829
 20
6.0868225234
 30
0.0
  0
VERTEX
  5
3C1
  8
0
  6
CONTINUOUS
 62
     7
 10
8.0383342307
 20
6.0882006968
 30
0.0
  0
VERTEX
  5
3C2
  8
0
  6
CONTINUOUS
 62
     7
 10
7.979697453
 20
6.0880037616
 30
0.0
  0
VERTEX
  5
3C3
  8
0
  6
CONTINUOUS
 62
     7
 10
7.921140044
 20
6.0862321442
 30
0.0
  0
VERTEX
  5
3C4
  8
0
  6
CONTINUOUS
 62
     7
 10
7.8627888259
 20
6.0828896817
 30
0.0
  0
VERTEX
  5
3C5
  8
0
  6
CONTINUOUS
 62
     7
 10
7.8047701746
 20
6.077983613
 30
0.0
  0
VERTEX
  5
3C6
  8
0
  6
CONTINUOUS
 62
     7
 10
7.7472097456
 20
6.0715245636
 30
0.0
  0
VERTEX
  5
3C7
  8
0
  6
CONTINUOUS
 62
     7
 10
7.6902322018
 20
6.0635265224
 30
0.0
  0
VERTEX
  5
3C8
  8
0
  6
CONTINUOUS
 62
     7
 10
7.633960944
 20
6.0540068114
 30
0.0
  0
VERTEX
  5
3C9
  8
0
  6
CONTINUOUS
 62
     7
 10
7.5785178432
 20
6.042986048
 30
0.0
  0
VERTEX
  5
3CA
  8
0
  6
CONTINUOUS
 62
     7
 10
7.5240229767
 20
6.0304881009
 30
0.0
  0
VERTEX
  5
3CB
  8
0
  6
CONTINUOUS
 62
     7
 10
7.4705943684
 20
6.0165400377
 30
0.0
  0
VERTEX
  5
3CC
  8
0
  6
CONTINUOUS
 62
     7
 10
7.4183477327
 20
6.001172067
 30
0.0
  0
VERTEX
  5
3CD
  8
0
  6
CONTINUOUS
 62
     7
 10
7.3673962242
 20
5.9844174723
 30
0.0
  0
VERTEX
  5
3CE
  8
0
  6
CONTINUOUS
 62
     7
 10
7.3178501925
 20
5.9663125403
 30
0.0
  0
VERTEX
  5
3CF
  8
0
  6
CONTINUOUS
 62
     7
 10
7.2698169433
 20
5.9468964823
 30
0.0
  0
VERTEX
  5
3D0
  8
0
  6
CONTINUOUS
 62
     7
 10
7.2234005059
 20
5.9262113491
 30
0.0
  0
VERTEX
  5
3D1
  8
0
  6
CONTINUOUS
 62
     7
 10
7.1787014079
 20
5.9043019402
 30
0.0
  0
VERTEX
  5
3D2
  8
0
  6
CONTINUOUS
 62
     7
 10
7.1358164577
 20
5.8812157064
 30
0.0
  0
VERTEX
  5
3D3
  8
0
  6
CONTINUOUS
 62
     7
 10
7.0948385346
 20
5.8570026473
 30
0.0
  0
VERTEX
  5
3D4
  8
0
  6
CONTINUOUS
 62
     7
 10
7.0558563875
 20
5.8317152032
 30
0.0
  0
VERTEX
  5
3D5
  8
0
  6
CONTINUOUS
 62
     7
 10
7.0189544431
 20
5.8054081408
 30
0.0
  0
VERTEX
  5
3D6
  8
0
  6
CONTINUOUS
 62
     7
 10
6.9842126228
 20
5.7781384355
 30
0.0
  0
VERTEX
  5
3D7
  8
0
  6
CONTINUOUS
 62
     7
 10
6.9517061697
 20
5.7499651475
 30
0.0
  0
VERTEX
  5
3D8
  8
0
  6
CONTINUOUS
 62
     7
 10
6.9215054855
 20
5.7209492936
 30
0.0
  0
VERTEX
  5
3D9
  8
0
  6
CONTINUOUS
 62
     7
 10
6.8936759781
 20
5.6911537159
 30
0.0
  0
VERTEX
  5
3DA
  8
0
  6
CONTINUOUS
 62
     7
 10
6.8682779202
 20
5.660642945
 30
0.0
  0
VERTEX
  5
3DB
  8
0
  6
CONTINUOUS
 62
     7
 10
6.8453663181
 20
5.6294830603
 30
0.0
  0
VERTEX
  5
3DC
  8
0
  6
CONTINUOUS
 62
     7
 10
6.8249907934
 20
5.5977415472
 30
0.0
  0
VERTEX
  5
3DD
  8
0
  6
CONTINUOUS
 62
     7
 10
6.8071954748
 20
5.5654871507
 30
0.0
  0
VERTEX
  5
3DE
  8
0
  6
CONTINUOUS
 62
     7
 10
6.7920189032
 20
5.5327897269
 30
0.0
  0
VERTEX
  5
3DF
  8
0
  6
CONTINUOUS
 62
     7
 10
6.7794939475
 20
5.4997200908
 30
0.0
  0
VERTEX
  5
3E0
  8
0
  6
CONTINUOUS
 62
     7
 10
6.769647734
 20
5.4663498641
 30
0.0
  0
VERTEX
  5
3E1
  8
0
  6
CONTINUOUS
 62
     7
 10
6.7625015875
 20
5.4327513192
 30
0.0
  0
VERTEX
  5
3E2
  8
0
  6
CONTINUOUS
 62
     7
 10
6.7580709848
 20
5.398997223
 30
0.0
  0
VERTEX
  5
3E3
  8
0
  6
CONTINUOUS
 62
     7
 10
6.7563655218
 20
5.3651606795
 30
0.0
  0
VERTEX
  5
3E4
  8
0
  6
CONTINUOUS
 62
     7
 10
6.757388892
 20
5.3313149711
 30
0.0
  0
VERTEX
  5
3E5
  8
0
  6
CONTINUOUS
 62
     7
 10
6.761138879
 20
5.2975333999
 30
0.0
  0
VERTEX
  5
3E6
  8
0
  6
CONTINUOUS
 62
     7
 10
6.7676073613
 20
5.2638891294
 30
0.0
  0
VERTEX
  5
3E7
  8
0
  6
CONTINUOUS
 62
     7
 10
6.7767803295
 20
5.2304550256
 30
0.0
  0
VERTEX
  5
3E8
  8
0
  6
CONTINUOUS
 62
     7
 10
6.788637917
 20
5.1973034993
 30
0.0
  0
VERTEX
  5
3E9
  8
0
  6
CONTINUOUS
 62
     7
 10
6.8031544429
 20
5.1645063493
 30
0.0
  0
VERTEX
  5
3EA
  8
0
  6
CONTINUOUS
 62
     7
 10
6.8202984677
 20
5.1321346069
 30
0.0
  0
VERTEX
  5
3EB
  8
0
  6
CONTINUOUS
 62
     7
 10
6.8400328612
 20
5.1002583822
 30
0.0
  0
VERTEX
  5
3EC
  8
0
  6
CONTINUOUS
 62
     7
 10
6.8623148832
 20
5.0689467119
 30
0.0
  0
VERTEX
  5
3ED
  8
0
  6
CONTINUOUS
 62
     7
 10
6.8870962756
 20
5.0382674102
 30
0.0
  0
VERTEX
  5
3EE
  8
0
  6
CONTINUOUS
 62
     7
 10
6.9143233676
 20
5.0082869215
 30
0.0
  0
VERTEX
  5
3EF
  8
0
  6
CONTINUOUS
 62
     7
 10
6.9439371913
 20
4.979070177
 30
0.0
  0
VERTEX
  5
3F0
  8
0
  6
CONTINUOUS
 62
     7
 10
6.9758736098
 20
4.9506804535
 30
0.0
  0
VERTEX
  5
3F1
  8
0
  6
CONTINUOUS
 62
     7
 10
7.010063456
 20
4.923179237
 30
0.0
  0
VERTEX
  5
3F2
  8
0
  6
CONTINUOUS
 62
     7
 10
7.0464326821
 20
4.8966260889
 30
0.0
  0
VERTEX
  5
3F3
  8
0
  6
CONTINUOUS
 62
     7
 10
7.0849025206
 20
4.8710785175
 30
0.0
  0
VERTEX
  5
3F4
  8
0
  6
CONTINUOUS
 62
     7
 10
7.1253896543
 20
4.846591853
 30
0.0
  0
SEQEND
  5
547
  8
0
  6
CONTINUOUS
 62
     7
  0
POLYLINE
  5
FC
  8
0
  6
CONTINUOUS
 62
     7
 66
     1
 10
0.0
 20
0.0
 30
0.0
 70
   128
  0
VERTEX
  5
3F5
  8
0
  6
CONTINUOUS
 62
     7
 10
7.3613865425
 20
4.9828299567
 30
0.0
  0
VERTEX
  5
3F6
  8
0
  6
CONTINUOUS
 62
     7
 10
7.397805787
 20
4.9629146039
 30
0.0
  0
VERTEX
  5
3F7
  8
0
  6
CONTINUOUS
 62
     7
 10
7.4360393113
 20
4.9441666958
 30
0.0
  0
VERTEX
  5
3F8
  8
0
  6
CONTINUOUS
 62
     7
 10
7.4759749697
 20
4.9266412232
 30
0.0
  0
VERTEX
  5
3F9
  8
0
  6
CONTINUOUS
 62
     7
 10
7.5174956242
 20
4.9103895914
 30
0.0
  0
VERTEX
  5
3FA
  8
0
  6
CONTINUOUS
 62
     7
 10
7.5604794875
 20
4.8954594692
 30
0.0
  0
VERTEX
  5
3FB
  8
0
  6
CONTINUOUS
 62
     7
 10
7.6048004806
 20
4.8818946492
 30
0.0
  0
VERTEX
  5
3FC
  8
0
  6
CONTINUOUS
 62
     7
 10
7.6503286023
 20
4.8697349194
 30
0.0
  0
VERTEX
  5
3FD
  8
0
  6
CONTINUOUS
 62
     7
 10
7.6969303108
 20
4.8590159464
 30
0.0
  0
VERTEX
  5
3FE
  8
0
  6
CONTINUOUS
 62
     7
 10
7.7444689153
 20
4.8497691708
 30
0.0
  0
VERTEX
  5
3FF
  8
0
  6
CONTINUOUS
 62
     7
 10
7.7928049768
 20
4.8420217148
 30
0.0
  0
VERTEX
  5
400
  8
0
  6
CONTINUOUS
 62
     7
 10
7.8417967174
 20
4.8357963033
 30
0.0
  0
VERTEX
  5
401
  8
0
  6
CONTINUOUS
 62
     7
 10
7.8913004358
 20
4.8311111963
 30
0.0
  0
VERTEX
  5
402
  8
0
  6
CONTINUOUS
 62
     7
 10
7.9411709291
 20
4.8279801361
 30
0.0
  0
VERTEX
  5
403
  8
0
  6
CONTINUOUS
 62
     7
 10
7.9912619186
 20
4.8264123067
 30
0.0
  0
VERTEX
  5
404
  8
0
  6
CONTINUOUS
 62
     7
 10
8.0414264787
 20
4.8264123067
 30
0.0
  0
VERTEX
  5
405
  8
0
  6
CONTINUOUS
 62
     7
 10
8.0915174681
 20
4.8279801361
 30
0.0
  0
VERTEX
  5
406
  8
0
  6
CONTINUOUS
 62
     7
 10
8.1413879614
 20
4.8311111963
 30
0.0
  0
VERTEX
  5
407
  8
0
  6
CONTINUOUS
 62
     7
 10
8.1908916799
 20
4.8357963033
 30
0.0
  0
VERTEX
  5
408
  8
0
  6
CONTINUOUS
 62
     7
 10
8.2398834204
 20
4.8420217148
 30
0.0
  0
VERTEX
  5
409
  8
0
  6
CONTINUOUS
 62
     7
 10
8.288219482
 20
4.8497691708
 30
0.0
  0
VERTEX
  5
40A
  8
0
  6
CONTINUOUS
 62
     7
 10
8.3357580864
 20
4.8590159464
 30
0.0
  0
VERTEX
  5
40B
  8
0
  6
CONTINUOUS
 62
     7
 10
8.3823597949
 20
4.8697349194
 30
0.0
  0
VERTEX
  5
40C
  8
0
  6
CONTINUOUS
 62
     7
 10
8.4278879166
 20
4.8818946492
 30
0.0
  0
VERTEX
  5
40D
  8
0
  6
CONTINUOUS
 62
     7
 10
8.4722089097
 20
4.8954594692
 30
0.0
  0
VERTEX
  5
40E
  8
0
  6
CONTINUOUS
 62
     7
 10
8.515192773
 20
4.9103895914
 30
0.0
  0
VERTEX
  5
40F
  8
0
  6
CONTINUOUS
 62
     7
 10
8.5567134275
 20
4.9266412232
 30
0.0
  0
VERTEX
  5
410
  8
0
  6
CONTINUOUS
 62
     7
 10
8.596649086
 20
4.9441666958
 30
0.0
  0
VERTEX
  5
411
  8
0
  6
CONTINUOUS
 62
     7
 10
8.6348826102
 20
4.9629146039
 30
0.0
  0
VERTEX
  5
412
  8
0
  6
CONTINUOUS
 62
     7
 10
8.6713018547
 20
4.9828299567
 30
0.0
  0
VERTEX
  5
413
  8
0
  6
CONTINUOUS
 62
     7
 10
8.7057999955
 20
5.003854339
 30
0.0
  0
VERTEX
  5
414
  8
0
  6
CONTINUOUS
 62
     7
 10
8.7382758437
 20
5.0259260827
 30
0.0
  0
VERTEX
  5
415
  8
0
  6
CONTINUOUS
 62
     7
 10
8.768634142
 20
5.0489804476
 30
0.0
  0
VERTEX
  5
416
  8
0
  6
CONTINUOUS
 62
     7
 10
8.7967858443
 20
5.0729498113
 30
0.0
  0
VERTEX
  5
417
  8
0
  6
CONTINUOUS
 62
     7
 10
8.8226483768
 20
5.0977638674
 30
0.0
  0
VERTEX
  5
418
  8
0
  6
CONTINUOUS
 62
     7
 10
8.8461458801
 20
5.1233498321
 30
0.0
  0
VERTEX
  5
419
  8
0
  6
CONTINUOUS
 62
     7
 10
8.8672094322
 20
5.1496326573
 30
0.0
  0
VERTEX
  5
41A
  8
0
  6
CONTINUOUS
 62
     7
 10
8.88577725
 20
5.1765352509
 30
0.0
  0
VERTEX
  5
41B
  8
0
  6
CONTINUOUS
 62
     7
 10
8.9017948708
 20
5.2039787032
 30
0.0
  0
VERTEX
  5
41C
  8
0
  6
CONTINUOUS
 62
     7
 10
8.9152153122
 20
5.2318825175
 30
0.0
  0
VERTEX
  5
41D
  8
0
  6
CONTINUOUS
 62
     7
 10
8.9259992098
 20
5.2601648473
 30
0.0
  0
VERTEX
  5
41E
  8
0
  6
CONTINUOUS
 62
     7
 10
8.9341149324
 20
5.2887427357
 30
0.0
  0
VERTEX
  5
41F
  8
0
  6
CONTINUOUS
 62
     7
 10
8.9395386754
 20
5.3175323587
 30
0.0
  0
VERTEX
  5
420
  8
0
  6
CONTINUOUS
 62
     7
 10
8.94225453
 20
5.3464492714
 30
0.0
  0
VERTEX
  5
421
  8
0
  6
CONTINUOUS
 62
     7
 10
8.94225453
 20
5.3754086555
 30
0.0
  0
VERTEX
  5
422
  8
0
  6
CONTINUOUS
 62
     7
 10
8.9395386754
 20
5.4043255682
 30
0.0
  0
VERTEX
  5
423
  8
0
  6
CONTINUOUS
 62
     7
 10
8.9341149324
 20
5.4331151912
 30
0.0
  0
VERTEX
  5
424
  8
0
  6
CONTINUOUS
 62
     7
 10
8.9259992098
 20
5.4616930795
 30
0.0
  0
VERTEX
  5
425
  8
0
  6
CONTINUOUS
 62
     7
 10
8.9152153122
 20
5.4899754094
 30
0.0
  0
VERTEX
  5
426
  8
0
  6
CONTINUOUS
 62
     7
 10
8.9017948708
 20
5.5178792237
 30
0.0
  0
VERTEX
  5
427
  8
0
  6
CONTINUOUS
 62
     7
 10
8.88577725
 20
5.5453226759
 30
0.0
  0
VERTEX
  5
428
  8
0
  6
CONTINUOUS
 62
     7
 10
8.8672094322
 20
5.5722252696
 30
0.0
  0
VERTEX
  5
429
  8
0
  6
CONTINUOUS
 62
     7
 10
8.8461458801
 20
5.5985080948
 30
0.0
  0
VERTEX
  5
42A
  8
0
  6
CONTINUOUS
 62
     7
 10
8.8226483768
 20
5.6240940595
 30
0.0
  0
VERTEX
  5
42B
  8
0
  6
CONTINUOUS
 62
     7
 10
8.7967858443
 20
5.6489081156
 30
0.0
  0
VERTEX
  5
42C
  8
0
  6
CONTINUOUS
 62
     7
 10
8.768634142
 20
5.6728774793
 30
0.0
  0
VERTEX
  5
42D
  8
0
  6
CONTINUOUS
 62
     7
 10
8.7382758437
 20
5.6959318442
 30
0.0
  0
VERTEX
  5
42E
  8
0
  6
CONTINUOUS
 62
     7
 10
8.7057999955
 20
5.7180035879
 30
0.0
  0
VERTEX
  5
42F
  8
0
  6
CONTINUOUS
 62
     7
 10
8.6713018547
 20
5.7390279702
 30
0.0
  0
VERTEX
  5
430
  8
0
  6
CONTINUOUS
 62
     7
 10
8.6348826102
 20
5.758943323
 30
0.0
  0
VERTEX
  5
431
  8
0
  6
CONTINUOUS
 62
     7
 10
8.596649086
 20
5.7776912311
 30
0.0
  0
VERTEX
  5
432
  8
0
  6
CONTINUOUS
 62
     7
 10
8.5567134275
 20
5.7952167037
 30
0.0
  0
VERTEX
  5
433
  8
0
  6
CONTINUOUS
 62
     7
 10
8.515192773
 20
5.8114683355
 30
0.0
  0
VERTEX
  5
434
  8
0
  6
CONTINUOUS
 62
     7
 10
8.4722089097
 20
5.8263984577
 30
0.0
  0
VERTEX
  5
435
  8
0
  6
CONTINUOUS
 62
     7
 10
8.4278879166
 20
5.8399632777
 30
0.0
  0
VERTEX
  5
436
  8
0
  6
CONTINUOUS
 62
     7
 10
8.3823597949
 20
5.8521230074
 30
0.0
  0
VERTEX
  5
437
  8
0
  6
CONTINUOUS
 62
     7
 10
8.3357580864
 20
5.8628419805
 30
0.0
  0
VERTEX
  5
438
  8
0
  6
CONTINUOUS
 62
     7
 10
8.288219482
 20
5.8720887561
 30
0.0
  0
VERTEX
  5
439
  8
0
  6
CONTINUOUS
 62
     7
 10
8.2398834204
 20
5.8798362121
 30
0.0
  0
VERTEX
  5
43A
  8
0
  6
CONTINUOUS
 62
     7
 10
8.1908916799
 20
5.8860616236
 30
0.0
  0
VERTEX
  5
43B
  8
0
  6
CONTINUOUS
 62
     7
 10
8.1413879614
 20
5.8907467306
 30
0.0
  0
VERTEX
  5
43C
  8
0
  6
CONTINUOUS
 62
     7
 10
8.0915174681
 20
5.8938777908
 30
0.0
  0
VERTEX
  5
43D
  8
0
  6
CONTINUOUS
 62
     7
 10
8.0414264787
 20
5.8954456202
 30
0.0
  0
VERTEX
  5
43E
  8
0
  6
CONTINUOUS
 62
     7
 10
7.9912619186
 20
5.8954456202
 30
0.0
  0
VERTEX
  5
43F
  8
0
  6
CONTINUOUS
 62
     7
 10
7.9411709291
 20
5.8938777908
 30
0.0
  0
VERTEX
  5
440
  8
0
  6
CONTINUOUS
 62
     7
 10
7.8913004358
 20
5.8907467306
 30
0.0
  0
VERTEX
  5
441
  8
0
  6
CONTINUOUS
 62
     7
 10
7.8417967174
 20
5.8860616236
 30
0.0
  0
VERTEX
  5
442
  8
0
  6
CONTINUOUS
 62
     7
 10
7.7928049768
 20
5.8798362121
 30
0.0
  0
VERTEX
  5
443
  8
0
  6
CONTINUOUS
 62
     7
 10
7.7444689153
 20
5.8720887561
 30
0.0
  0
VERTEX
  5
444
  8
0
  6
CONTINUOUS
 62
     7
 10
7.6969303108
 20
5.8628419805
 30
0.0
  0
VERTEX
  5
445
  8
0
  6
CONTINUOUS
 62
     7
 10
7.6503286023
 20
5.8521230074
 30
0.0
  0
VERTEX
  5
446
  8
0
  6
CONTINUOUS
 62
     7
 10
7.6048004806
 20
5.8399632777
 30
0.0
  0
VERTEX
  5
447
  8
0
  6
CONTINUOUS
 62
     7
 10
7.5604794875
 20
5.8263984577
 30
0.0
  0
VERTEX
  5
448
  8
0
  6
CONTINUOUS
 62
     7
 10
7.5174956242
 20
5.8114683355
 30
0.0
  0
VERTEX
  5
449
  8
0
  6
CONTINUOUS
 62
     7
 10
7.4759749697
 20
5.7952167037
 30
0.0
  0
VERTEX
  5
44A
  8
0
  6
CONTINUOUS
 62
     7
 10
7.4360393113
 20
5.7776912311
 30
0.0
  0
VERTEX
  5
44B
  8
0
  6
CONTINUOUS
 62
     7
 10
7.397805787
 20
5.758943323
 30
0.0
  0
VERTEX
  5
44C
  8
0
  6
CONTINUOUS
 62
     7
 10
7.3613865425
 20
5.7390279702
 30
0.0
  0
VERTEX
  5
44D
  8
0
  6
CONTINUOUS
 62
     7
 10
7.3268884017
 20
5.7180035879
 30
0.0
  0
VERTEX
  5
44E
  8
0
  6
CONTINUOUS
 62
     7
 10
7.2944125535
 20
5.6959318442
 30
0.0
  0
VERTEX
  5
44F
  8
0
  6
CONTINUOUS
 62
     7
 10
7.2640542552
 20
5.6728774793
 30
0.0
  0
VERTEX
  5
450
  8
0
  6
CONTINUOUS
 62
     7
 10
7.2359025529
 20
5.6489081156
 30
0.0
  0
VERTEX
  5
451
  8
0
  6
CONTINUOUS
 62
     7
 10
7.2100400205
 20
5.6240940595
 30
0.0
  0
VERTEX
  5
452
  8
0
  6
CONTINUOUS
 62
     7
 10
7.1865425171
 20
5.5985080948
 30
0.0
  0
VERTEX
  5
453
  8
0
  6
CONTINUOUS
 62
     7
 10
7.165478965
 20
5.5722252696
 30
0.0
  0
VERTEX
  5
454
  8
0
  6
CONTINUOUS
 62
     7
 10
7.1469111473
 20
5.5453226759
 30
0.0
  0
VERTEX
  5
455
  8
0
  6
CONTINUOUS
 62
     7
 10
7.1308935265
 20
5.5178792237
 30
0.0
  0
VERTEX
  5
456
  8
0
  6
CONTINUOUS
 62
     7
 10
7.117473085
 20
5.4899754094
 30
0.0
  0
VERTEX
  5
457
  8
0
  6
CONTINUOUS
 62
     7
 10
7.1066891875
 20
5.4616930795
 30
0.0
  0
VERTEX
  5
458
  8
0
  6
CONTINUOUS
 62
     7
 10
7.0985734648
 20
5.4331151912
 30
0.0
  0
VERTEX
  5
459
  8
0
  6
CONTINUOUS
 62
     7
 10
7.0931497218
 20
5.4043255682
 30
0.0
  0
VERTEX
  5
45A
  8
0
  6
CONTINUOUS
 62
     7
 10
7.0904338672
 20
5.3754086555
 30
0.0
  0
VERTEX
  5
45B
  8
0
  6
CONTINUOUS
 62
     7
 10
7.0904338672
 20
5.3464492714
 30
0.0
  0
VERTEX
  5
45C
  8
0
  6
CONTINUOUS
 62
     7
 10
7.0931497218
 20
5.3175323587
 30
0.0
  0
VERTEX
  5
45D
  8
0
  6
CONTINUOUS
 62
     7
 10
7.0985734648
 20
5.2887427357
 30
0.0
  0
VERTEX
  5
45E
  8
0
  6
CONTINUOUS
 62
     7
 10
7.1066891875
 20
5.2601648473
 30
0.0
  0
VERTEX
  5
45F
  8
0
  6
CONTINUOUS
 62
     7
 10
7.117473085
 20
5.2318825175
 30
0.0
  0
VERTEX
  5
460
  8
0
  6
CONTINUOUS
 62
     7
 10
7.1308935265
 20
5.2039787032
 30
0.0
  0
VERTEX
  5
461
  8
0
  6
CONTINUOUS
 62
     7
 10
7.1469111473
 20
5.1765352509
 30
0.0
  0
VERTEX
  5
462
  8
0
  6
CONTINUOUS
 62
     7
 10
7.165478965
 20
5.1496326573
 30
0.0
  0
VERTEX
  5
463
  8
0
  6
CONTINUOUS
 62
     7
 10
7.1865425171
 20
5.1233498321
 30
0.0
  0
VERTEX
  5
464
  8
0
  6
CONTINUOUS
 62
     7
 10
7.2100400205
 20
5.0977638674
 30
0.0
  0
VERTEX
  5
465
  8
0
  6
CONTINUOUS
 62
     7
 10
7.2359025529
 20
5.0729498113
 30
0.0
  0
VERTEX
  5
466
  8
0
  6
CONTINUOUS
 62
     7
 10
7.2640542552
 20
5.0489804476
 30
0.0
  0
VERTEX
  5
467
  8
0
  6
CONTINUOUS
 62
     7
 10
7.2944125535
 20
5.0259260827
 30
0.0
  0
VERTEX
  5
468
  8
0
  6
CONTINUOUS
 62
     7
 10
7.3268884017
 20
5.003854339
 30
0.0
  0
VERTEX
  5
469
  8
0
  6
CONTINUOUS
 62
     7
 10
7.3613865425
 20
4.9828299567
 30
0.0
  0
SEQEND
  5
548
  8
0
  6
CONTINUOUS
 62
     7
  0
POLYLINE
  5
FD
  8
0
  6
CONTINUOUS
 62
     7
 66
     1
 10
0.0
 20
0.0
 30
0.0
 70
   128
  0
VERTEX
  5
46A
  8
0
  6
CONTINUOUS
 62
     7
 10
8.6642588448
 20
4.9788073724
 30
0.0
  0
VERTEX
  5
46B
  8
0
  6
CONTINUOUS
 62
     7
 10
8.6658526313
 20
4.979750551
 30
0.0
  0
VERTEX
  5
46C
  8
0
  6
CONTINUOUS
 62
     7
 10
8.6993966278
 20
5.0007708773
 30
0.0
  0
VERTEX
  5
46D
  8
0
  6
CONTINUOUS
 62
     7
 10
8.7309021274
 20
5.0228173194
 30
0.0
  0
VERTEX
  5
46E
  8
0
  6
CONTINUOUS
 62
     7
 10
8.7602751052
 20
5.0458240819
 30
0.0
  0
VERTEX
  5
46F
  8
0
  6
CONTINUOUS
 62
     7
 10
8.7874279009
 20
5.0697225036
 30
0.0
  0
VERTEX
  5
470
  8
0
  6
CONTINUOUS
 62
     7
 10
8.8122794797
 20
5.0944412623
 30
0.0
  0
VERTEX
  5
471
  8
0
  6
CONTINUOUS
 62
     7
 10
8.8347556748
 20
5.1199065875
 30
0.0
  0
VERTEX
  5
472
  8
0
  6
CONTINUOUS
 62
     7
 10
8.8547894084
 20
5.1460424805
 30
0.0
  0
VERTEX
  5
473
  8
0
  6
CONTINUOUS
 62
     7
 10
8.8723208919
 20
5.1727709418
 30
0.0
  0
VERTEX
  5
474
  8
0
  6
CONTINUOUS
 62
     7
 10
8.8872978046
 20
5.2000122029
 30
0.0
  0
VERTEX
  5
475
  8
0
  6
CONTINUOUS
 62
     7
 10
8.8996754494
 20
5.2276849653
 30
0.0
  0
VERTEX
  5
476
  8
0
  6
CONTINUOUS
 62
     7
 10
8.9094168865
 20
5.2557066427
 30
0.0
  0
VERTEX
  5
477
  8
0
  6
CONTINUOUS
 62
     7
 10
8.9164930438
 20
5.2839936072
 30
0.0
  0
VERTEX
  5
478
  8
0
  6
CONTINUOUS
 62
     7
 10
8.9208828031
 20
5.3124614394
 30
0.0
  0
VERTEX
  5
479
  8
0
  6
CONTINUOUS
 62
     7
 10
8.9225730637
 20
5.3410251803
 30
0.0
  0
VERTEX
  5
47A
  8
0
  6
CONTINUOUS
 62
     7
 10
8.9215587812
 20
5.3695995842
 30
0.0
  0
VERTEX
  5
47B
  8
0
  6
CONTINUOUS
 62
     7
 10
8.9178429826
 20
5.3980993741
 30
0.0
  0
VERTEX
  5
47C
  8
0
  6
CONTINUOUS
 62
     7
 10
8.9114367573
 20
5.4264394953
 30
0.0
  0
VERTEX
  5
47D
  8
0
  6
CONTINUOUS
 62
     7
 10
8.902359224
 20
5.4545353697
 30
0.0
  0
VERTEX
  5
47E
  8
0
  6
CONTINUOUS
 62
     7
 10
8.8906374736
 20
5.4823031482
 30
0.0
  0
VERTEX
  5
47F
  8
0
  6
CONTINUOUS
 62
     7
 10
8.8763064885
 20
5.5096599609
 30
0.0
  0
VERTEX
  5
480
  8
0
  6
CONTINUOUS
 62
     7
 10
8.8594090379
 20
5.5365241643
 30
0.0
  0
VERTEX
  5
481
  8
0
  6
CONTINUOUS
 62
     7
 10
8.8399955505
 20
5.562815585
 30
0.0
  0
VERTEX
  5
482
  8
0
  6
CONTINUOUS
 62
     7
 10
8.8181239637
 20
5.5884557591
 30
0.0
  0
VERTEX
  5
483
  8
0
  6
CONTINUOUS
 62
     7
 10
8.7938595509
 20
5.6133681662
 30
0.0
  0
VERTEX
  5
484
  8
0
  6
CONTINUOUS
 62
     7
 10
8.7672747268
 20
5.637478458
 30
0.0
  0
VERTEX
  5
485
  8
0
  6
CONTINUOUS
 62
     7
 10
8.7384488308
 20
5.6607146798
 30
0.0
  0
VERTEX
  5
486
  8
0
  6
CONTINUOUS
 62
     7
 10
8.7074678908
 20
5.6830074856
 30
0.0
  0
VERTEX
  5
487
  8
0
  6
CONTINUOUS
 62
     7
 10
8.6744243661
 20
5.704290345
 30
0.0
  0
VERTEX
  5
488
  8
0
  6
CONTINUOUS
 62
     7
 10
8.6394168715
 20
5.7244997415
 30
0.0
  0
VERTEX
  5
489
  8
0
  6
CONTINUOUS
 62
     7
 10
8.6025498831
 20
5.7435753623
 30
0.0
  0
VERTEX
  5
48A
  8
0
  6
CONTINUOUS
 62
     7
 10
8.5639334266
 20
5.7614602782
 30
0.0
  0
VERTEX
  5
48B
  8
0
  6
CONTINUOUS
 62
     7
 10
8.5236827486
 20
5.7781011138
 30
0.0
  0
VERTEX
  5
48C
  8
0
  6
CONTINUOUS
 62
     7
 10
8.481917973
 20
5.7934482061
 30
0.0
  0
VERTEX
  5
48D
  8
0
  6
CONTINUOUS
 62
     7
 10
8.4387637422
 20
5.8074557534
 30
0.0
  0
VERTEX
  5
48E
  8
0
  6
CONTINUOUS
 62
     7
 10
8.3943488455
 20
5.8200819517
 30
0.0
  0
VERTEX
  5
48F
  8
0
  6
CONTINUOUS
 62
     7
 10
8.3488058344
 20
5.8312891194
 30
0.0
  0
VERTEX
  5
490
  8
0
  6
CONTINUOUS
 62
     7
 10
8.3022706271
 20
5.84104381
 30
0.0
  0
VERTEX
  5
491
  8
0
  6
CONTINUOUS
 62
     7
 10
8.2548821029
 20
5.8493169116
 30
0.0
  0
VERTEX
  5
492
  8
0
  6
CONTINUOUS
 62
     7
 10
8.2067816879
 20
5.8560837341
 30
0.0
  0
VERTEX
  5
493
  8
0
  6
CONTINUOUS
 62
     7
 10
8.1581129326
 20
5.8613240825
 30
0.0
  0
VERTEX
  5
494
  8
0
  6
CONTINUOUS
 62
     7
 10
8.1090210836
 20
5.8650223177
 30
0.0
  0
VERTEX
  5
495
  8
0
  6
CONTINUOUS
 62
     7
 10
8.0596526504
 20
5.8671674025
 30
0.0
  0
VERTEX
  5
496
  8
0
  6
CONTINUOUS
 62
     7
 10
8.0101549677
 20
5.8677529354
 30
0.0
  0
VERTEX
  5
497
  8
0
  6
CONTINUOUS
 62
     7
 10
7.9606757562
 20
5.8667771687
 30
0.0
  0
VERTEX
  5
498
  8
0
  6
CONTINUOUS
 62
     7
 10
7.9113626811
 20
5.8642430146
 30
0.0
  0
VERTEX
  5
499
  8
0
  6
CONTINUOUS
 62
     7
 10
7.8623629122
 20
5.8601580359
 30
0.0
  0
VERTEX
  5
49A
  8
0
  6
CONTINUOUS
 62
     7
 10
7.8138226839
 20
5.854534424
 30
0.0
  0
VERTEX
  5
49B
  8
0
  6
CONTINUOUS
 62
     7
 10
7.7658868595
 20
5.8473889617
 30
0.0
  0
VERTEX
  5
49C
  8
0
  6
CONTINUOUS
 62
     7
 10
7.7186984981
 20
5.8387429741
 30
0.0
  0
VERTEX
  5
49D
  8
0
  6
CONTINUOUS
 62
     7
 10
7.6723984286
 20
5.8286222641
 30
0.0
  0
VERTEX
  5
49E
  8
0
  6
CONTINUOUS
 62
     7
 10
7.6271248284
 20
5.8170570358
 30
0.0
  0
VERTEX
  5
49F
  8
0
  6
CONTINUOUS
 62
     7
 10
7.5830128117
 20
5.8040818046
 30
0.0
  0
VERTEX
  5
4A0
  8
0
  6
CONTINUOUS
 62
     7
 10
7.5401940263
 20
5.7897352935
 30
0.0
  0
VERTEX
  5
4A1
  8
0
  6
CONTINUOUS
 62
     7
 10
7.4987962601
 20
5.7740603182
 30
0.0
  0
VERTEX
  5
4A2
  8
0
  6
CONTINUOUS
 62
     7
 10
7.4589430603
 20
5.7571036591
 30
0.0
  0
VERTEX
  5
4A3
  8
0
  6
CONTINUOUS
 62
     7
 10
7.4207533647
 20
5.7389159213
 30
0.0
  0
VERTEX
  5
4A4
  8
0
  6
CONTINUOUS
 62
     7
 10
7.3843411462
 20
5.7195513843
 30
0.0
  0
VERTEX
  5
4A5
  8
0
  6
CONTINUOUS
 62
     7
 10
7.3498150731
 20
5.6990678395
 30
0.0
  0
VERTEX
  5
4A6
  8
0
  6
CONTINUOUS
 62
     7
 10
7.317278185
 20
5.6775264178
 30
0.0
  0
VERTEX
  5
4A7
  8
0
  6
CONTINUOUS
 62
     7
 10
7.2868275846
 20
5.6549914073
 30
0.0
  0
VERTEX
  5
4A8
  8
0
  6
CONTINUOUS
 62
     7
 10
7.2585541485
 20
5.6315300613
 30
0.0
  0
VERTEX
  5
4A9
  8
0
  6
CONTINUOUS
 62
     7
 10
7.2325422558
 20
5.6072123978
 30
0.0
  0
VERTEX
  5
4AA
  8
0
  6
CONTINUOUS
 62
     7
 10
7.2088695361
 20
5.58211099
 30
0.0
  0
VERTEX
  5
4AB
  8
0
  6
CONTINUOUS
 62
     7
 10
7.1876066381
 20
5.5563007506
 30
0.0
  0
VERTEX
  5
4AC
  8
0
  6
CONTINUOUS
 62
     7
 10
7.1688170188
 20
5.5298587074
 30
0.0
  0
VERTEX
  5
4AD
  8
0
  6
CONTINUOUS
 62
     7
 10
7.1525567537
 20
5.5028637739
 30
0.0
  0
VERTEX
  5
4AE
  8
0
  6
CONTINUOUS
 62
     7
 10
7.1388743698
 20
5.4753965136
 30
0.0
  0
VERTEX
  5
4AF
  8
0
  6
CONTINUOUS
 62
     7
 10
7.1278107008
 20
5.4475388995
 30
0.0
  0
VERTEX
  5
4B0
  8
0
  6
CONTINUOUS
 62
     7
 10
7.1193987649
 20
5.4193740698
 30
0.0
  0
VERTEX
  5
4B1
  8
0
  6
CONTINUOUS
 62
     7
 10
7.1136636668
 20
5.3909860793
 30
0.0
  0
VERTEX
  5
4B2
  8
0
  6
CONTINUOUS
 62
     7
 10
7.1106225221
 20
5.362459649
 30
0.0
  0
VERTEX
  5
4B3
  8
0
  6
CONTINUOUS
 62
     7
 10
7.1102844069
 20
5.333879913
 30
0.0
  0
VERTEX
  5
4B4
  8
0
  6
CONTINUOUS
 62
     7
 10
7.1126503302
 20
5.3053321644
 30
0.0
  0
VERTEX
  5
4B5
  8
0
  6
CONTINUOUS
 62
     7
 10
7.1177132312
 20
5.2769016009
 30
0.0
  0
VERTEX
  5
4B6
  8
0
  6
CONTINUOUS
 62
     7
 10
7.1254580003
 20
5.2486730705
 30
0.0
  0
VERTEX
  5
4B7
  8
0
  6
CONTINUOUS
 62
     7
 10
7.1358615238
 20
5.2207308182
 30
0.0
  0
VERTEX
  5
4B8
  8
0
  6
CONTINUOUS
 62
     7
 10
7.1488927538
 20
5.1931582348
 30
0.0
  0
VERTEX
  5
4B9
  8
0
  6
CONTINUOUS
 62
     7
 10
7.1645127998
 20
5.1660376075
 30
0.0
  0
VERTEX
  5
4BA
  8
0
  6
CONTINUOUS
 62
     7
 10
7.1826750455
 20
5.1394498751
 30
0.0
  0
VERTEX
  5
4BB
  8
0
  6
CONTINUOUS
 62
     7
 10
7.2033252876
 20
5.1134743858
 30
0.0
  0
VERTEX
  5
4BC
  8
0
  6
CONTINUOUS
 62
     7
 10
7.2264018976
 20
5.0881886606
 30
0.0
  0
VERTEX
  5
4BD
  8
0
  6
CONTINUOUS
 62
     7
 10
7.251836006
 20
5.0636681621
 30
0.0
  0
VERTEX
  5
4BE
  8
0
  6
CONTINUOUS
 62
     7
 10
7.2795517073
 20
5.039986069
 30
0.0
  0
VERTEX
  5
4BF
  8
0
  6
CONTINUOUS
 62
     7
 10
7.309466287
 20
5.0172130582
 30
0.0
  0
VERTEX
  5
4C0
  8
0
  6
CONTINUOUS
 62
     7
 10
7.3414904682
 20
4.9954170931
 30
0.0
  0
VERTEX
  5
4C1
  8
0
  6
CONTINUOUS
 62
     7
 10
7.3684295525
 20
4.9788073724
 30
0.0
  0
SEQEND
  5
549
  8
0
  6
CONTINUOUS
 62
     7
  0
POLYLINE
  5
FE
  8
0
  6
CONTINUOUS
 62
     7
 66
     1
 10
0.0
 20
0.0
 30
0.0
 70
   128
  0
VERTEX
  5
4C2
  8
0
  6
CONTINUOUS
 62
     7
 10
8.9078768471
 20
5.2506959538
 30
0.0
  0
VERTEX
  5
4C3
  8
0
  6
CONTINUOUS
 62
     7
 10
8.902359224
 20
5.266730983
 30
0.0
  0
VERTEX
  5
4C4
  8
0
  6
CONTINUOUS
 62
     7
 10
8.8906374736
 20
5.2944987615
 30
0.0
  0
VERTEX
  5
4C5
  8
0
  6
CONTINUOUS
 62
     7
 10
8.8763064885
 20
5.3218555742
 30
0.0
  0
VERTEX
  5
4C6
  8
0
  6
CONTINUOUS
 62
     7
 10
8.8594090379
 20
5.3487197776
 30
0.0
  0
VERTEX
  5
4C7
  8
0
  6
CONTINUOUS
 62
     7
 10
8.8399955505
 20
5.3750111983
 30
0.0
  0
VERTEX
  5
4C8
  8
0
  6
CONTINUOUS
 62
     7
 10
8.8181239637
 20
5.4006513724
 30
0.0
  0
VERTEX
  5
4C9
  8
0
  6
CONTINUOUS
 62
     7
 10
8.7938595509
 20
5.4255637795
 30
0.0
  0
VERTEX
  5
4CA
  8
0
  6
CONTINUOUS
 62
     7
 10
8.7672747268
 20
5.4496740713
 30
0.0
  0
VERTEX
  5
4CB
  8
0
  6
CONTINUOUS
 62
     7
 10
8.7384488308
 20
5.4729102931
 30
0.0
  0
VERTEX
  5
4CC
  8
0
  6
CONTINUOUS
 62
     7
 10
8.7074678908
 20
5.4952030989
 30
0.0
  0
VERTEX
  5
4CD
  8
0
  6
CONTINUOUS
 62
     7
 10
8.6744243661
 20
5.5164859583
 30
0.0
  0
VERTEX
  5
4CE
  8
0
  6
CONTINUOUS
 62
     7
 10
8.6394168715
 20
5.5366953547
 30
0.0
  0
VERTEX
  5
4CF
  8
0
  6
CONTINUOUS
 62
     7
 10
8.6025498831
 20
5.5557709755
 30
0.0
  0
VERTEX
  5
4D0
  8
0
  6
CONTINUOUS
 62
     7
 10
8.5639334266
 20
5.5736558915
 30
0.0
  0
VERTEX
  5
4D1
  8
0
  6
CONTINUOUS
 62
     7
 10
8.5236827486
 20
5.590296727
 30
0.0
  0
VERTEX
  5
4D2
  8
0
  6
CONTINUOUS
 62
     7
 10
8.481917973
 20
5.6056438193
 30
0.0
  0
VERTEX
  5
4D3
  8
0
  6
CONTINUOUS
 62
     7
 10
8.4387637422
 20
5.6196513666
 30
0.0
  0
VERTEX
  5
4D4
  8
0
  6
CONTINUOUS
 62
     7
 10
8.3943488455
 20
5.6322775649
 30
0.0
  0
VERTEX
  5
4D5
  8
0
  6
CONTINUOUS
 62
     7
 10
8.3488058344
 20
5.6434847327
 30
0.0
  0
VERTEX
  5
4D6
  8
0
  6
CONTINUOUS
 62
     7
 10
8.3022706271
 20
5.6532394233
 30
0.0
  0
VERTEX
  5
4D7
  8
0
  6
CONTINUOUS
 62
     7
 10
8.2548821029
 20
5.6615125249
 30
0.0
  0
VERTEX
  5
4D8
  8
0
  6
CONTINUOUS
 62
     7
 10
8.2067816879
 20
5.6682793473
 30
0.0
  0
VERTEX
  5
4D9
  8
0
  6
CONTINUOUS
 62
     7
 10
8.1581129326
 20
5.6735196958
 30
0.0
  0
VERTEX
  5
4DA
  8
0
  6
CONTINUOUS
 62
     7
 10
8.1090210836
 20
5.6772179309
 30
0.0
  0
VERTEX
  5
4DB
  8
0
  6
CONTINUOUS
 62
     7
 10
8.0596526504
 20
5.6793630158
 30
0.0
  0
VERTEX
  5
4DC
  8
0
  6
CONTINUOUS
 62
     7
 10
8.0101549677
 20
5.6799485486
 30
0.0
  0
VERTEX
  5
4DD
  8
0
  6
CONTINUOUS
 62
     7
 10
7.9606757562
 20
5.678972782
 30
0.0
  0
VERTEX
  5
4DE
  8
0
  6
CONTINUOUS
 62
     7
 10
7.9113626811
 20
5.6764386278
 30
0.0
  0
VERTEX
  5
4DF
  8
0
  6
CONTINUOUS
 62
     7
 10
7.8623629122
 20
5.6723536492
 30
0.0
  0
VERTEX
  5
4E0
  8
0
  6
CONTINUOUS
 62
     7
 10
7.8138226839
 20
5.6667300372
 30
0.0
  0
VERTEX
  5
4E1
  8
0
  6
CONTINUOUS
 62
     7
 10
7.7658868595
 20
5.659584575
 30
0.0
  0
VERTEX
  5
4E2
  8
0
  6
CONTINUOUS
 62
     7
 10
7.7186984981
 20
5.6509385874
 30
0.0
  0
VERTEX
  5
4E3
  8
0
  6
CONTINUOUS
 62
     7
 10
7.6723984286
 20
5.6408178773
 30
0.0
  0
VERTEX
  5
4E4
  8
0
  6
CONTINUOUS
 62
     7
 10
7.6271248284
 20
5.6292526491
 30
0.0
  0
VERTEX
  5
4E5
  8
0
  6
CONTINUOUS
 62
     7
 10
7.5830128117
 20
5.6162774178
 30
0.0
  0
VERTEX
  5
4E6
  8
0
  6
CONTINUOUS
 62
     7
 10
7.5401940263
 20
5.6019309068
 30
0.0
  0
VERTEX
  5
4E7
  8
0
  6
CONTINUOUS
 62
     7
 10
7.4987962601
 20
5.5862559315
 30
0.0
  0
VERTEX
  5
4E8
  8
0
  6
CONTINUOUS
 62
     7
 10
7.4589430603
 20
5.5692992723
 30
0.0
  0
VERTEX
  5
4E9
  8
0
  6
CONTINUOUS
 62
     7
 10
7.4207533647
 20
5.5511115346
 30
0.0
  0
VERTEX
  5
4EA
  8
0
  6
CONTINUOUS
 62
     7
 10
7.3843411462
 20
5.5317469976
 30
0.0
  0
VERTEX
  5
4EB
  8
0
  6
CONTINUOUS
 62
     7
 10
7.3498150731
 20
5.5112634528
 30
0.0
  0
VERTEX
  5
4EC
  8
0
  6
CONTINUOUS
 62
     7
 10
7.317278185
 20
5.4897220311
 30
0.0
  0
VERTEX
  5
4ED
  8
0
  6
CONTINUOUS
 62
     7
 10
7.2868275846
 20
5.4671870206
 30
0.0
  0
VERTEX
  5
4EE
  8
0
  6
CONTINUOUS
 62
     7
 10
7.2585541485
 20
5.4437256746
 30
0.0
  0
VERTEX
  5
4EF
  8
0
  6
CONTINUOUS
 62
     7
 10
7.2325422558
 20
5.419408011
 30
0.0
  0
VERTEX
  5
4F0
  8
0
  6
CONTINUOUS
 62
     7
 10
7.2088695361
 20
5.3943066033
 30
0.0
  0
VERTEX
  5
4F1
  8
0
  6
CONTINUOUS
 62
     7
 10
7.1876066381
 20
5.3684963639
 30
0.0
  0
VERTEX
  5
4F2
  8
0
  6
CONTINUOUS
 62
     7
 10
7.1688170188
 20
5.3420543207
 30
0.0
  0
VERTEX
  5
4F3
  8
0
  6
CONTINUOUS
 62
     7
 10
7.1525567537
 20
5.3150593872
 30
0.0
  0
VERTEX
  5
4F4
  8
0
  6
CONTINUOUS
 62
     7
 10
7.1388743698
 20
5.2875921269
 30
0.0
  0
VERTEX
  5
4F5
  8
0
  6
CONTINUOUS
 62
     7
 10
7.1278107008
 20
5.2597345128
 30
0.0
  0
VERTEX
  5
4F6
  8
0
  6
CONTINUOUS
 62
     7
 10
7.1248115501
 20
5.2506959538
 30
0.0
  0
SEQEND
  5
54A
  8
0
  6
CONTINUOUS
 62
     7
  0
POLYLINE
  5
FF
  8
0
  6
CONTINUOUS
 62
     8
 66
     1
 10
0.0
 20
0.0
 30
0.0
 70
   128
  0
VERTEX
  5
4F7
  8
0
  6
CONTINUOUS
 62
     8
 10
7.0440723745
 20
4.7710694582
 30
0.0
  0
VERTEX
  5
4F8
  8
0
  6
CONTINUOUS
 62
     8
 10
7.0883492009
 20
4.746623361
 30
0.0
  0
VERTEX
  5
4F9
  8
0
  6
CONTINUOUS
 62
     8
 10
7.1344684754
 20
4.7233401699
 30
0.0
  0
VERTEX
  5
4FA
  8
0
  6
CONTINUOUS
 62
     8
 10
7.1823386326
 20
4.7012661115
 30
0.0
  0
VERTEX
  5
4FB
  8
0
  6
CONTINUOUS
 62
     8
 10
7.2318646306
 20
4.6804450119
 30
0.0
  0
VERTEX
  5
4FC
  8
0
  6
CONTINUOUS
 62
     8
 10
7.2829481402
 20
4.6609182093
 30
0.0
  0
VERTEX
  5
4FD
  8
0
  6
CONTINUOUS
 62
     8
 10
7.3354877398
 20
4.6427244725
 30
0.0
  0
VERTEX
  5
4FE
  8
0
  6
CONTINUOUS
 62
     8
 10
7.3893791168
 20
4.6258999234
 30
0.0
  0
VERTEX
  5
4FF
  8
0
  6
CONTINUOUS
 62
     8
 10
7.444515275
 20
4.6104779656
 30
0.0
  0
VERTEX
  5
500
  8
0
  6
CONTINUOUS
 62
     8
 10
7.5007867466
 20
4.596489218
 30
0.0
  0
VERTEX
  5
501
  8
0
  6
CONTINUOUS
 62
     8
 10
7.5580818098
 20
4.5839614539
 30
0.0
  0
VERTEX
  5
502
  8
0
  6
CONTINUOUS
 62
     8
 10
7.6162867105
 20
4.572919546
 30
0.0
  0
VERTEX
  5
503
  8
0
  6
CONTINUOUS
 62
     8
 10
7.6752858884
 20
4.5633854171
 30
0.0
  0
VERTEX
  5
504
  8
0
  6
CONTINUOUS
 62
     8
 10
7.7349622059
 20
4.5553779963
 30
0.0
  0
VERTEX
  5
505
  8
0
  6
CONTINUOUS
 62
     8
 10
7.7951971814
 20
4.5489131815
 30
0.0
  0
VERTEX
  5
506
  8
0
  6
CONTINUOUS
 62
     8
 10
7.8558712238
 20
4.5440038081
 30
0.0
  0
VERTEX
  5
507
  8
0
  6
CONTINUOUS
 62
     8
 10
7.9168638704
 20
4.5406596232
 30
0.0
  0
VERTEX
  5
508
  8
0
  6
CONTINUOUS
 62
     8
 10
7.978054026
 20
4.5388872663
 30
0.0
  0
VERTEX
  5
509
  8
0
  6
CONTINUOUS
 62
     8
 10
8.0393202032
 20
4.5386902562
 30
0.0
  0
VERTEX
  5
50A
  8
0
  6
CONTINUOUS
 62
     8
 10
8.1005407637
 20
4.5400689842
 30
0.0
  0
VERTEX
  5
50B
  8
0
  6
CONTINUOUS
 62
     8
 10
8.1615941596
 20
4.5430207129
 30
0.0
  0
VERTEX
  5
50C
  8
0
  6
CONTINUOUS
 62
     8
 10
8.2223591753
 20
4.5475395819
 30
0.0
  0
VERTEX
  5
50D
  8
0
  6
CONTINUOUS
 62
     8
 10
8.2827151672
 20
4.5536166194
 30
0.0
  0
VERTEX
  5
50E
  8
0
  6
CONTINUOUS
 62
     8
 10
8.3425423043
 20
4.56123976
 30
0.0
  0
VERTEX
  5
50F
  8
0
  6
CONTINUOUS
 62
     8
 10
8.4017218052
 20
4.5703938686
 30
0.0
  0
VERTEX
  5
510
  8
0
  6
CONTINUOUS
 62
     8
 10
8.4601361746
 20
4.5810607708
 30
0.0
  0
VERTEX
  5
511
  8
0
  6
CONTINUOUS
 62
     8
 10
8.517669436
 20
4.5932192882
 30
0.0
  0
VERTEX
  5
512
  8
0
  6
CONTINUOUS
 62
     8
 10
8.5742073627
 20
4.6068452813
 30
0.0
  0
VERTEX
  5
513
  8
0
  6
CONTINUOUS
 62
     8
 10
8.6296377036
 20
4.6219116969
 30
0.0
  0
VERTEX
  5
514
  8
0
  6
CONTINUOUS
 62
     8
 10
8.683850407
 20
4.6383886221
 30
0.0
  0
VERTEX
  5
515
  8
0
  6
CONTINUOUS
 62
     8
 10
8.7367378387
 20
4.6562433434
 30
0.0
  0
VERTEX
  5
516
  8
0
  6
CONTINUOUS
 62
     8
 10
8.7881949955
 20
4.675440412
 30
0.0
  0
VERTEX
  5
517
  8
0
  6
CONTINUOUS
 62
     8
 10
8.8381197139
 20
4.6959417138
 30
0.0
  0
VERTEX
  5
518
  8
0
  6
CONTINUOUS
 62
     8
 10
8.8864128732
 20
4.7177065455
 30
0.0
  0
VERTEX
  5
519
  8
0
  6
CONTINUOUS
 62
     8
 10
8.9329785916
 20
4.7406916949
 30
0.0
  0
VERTEX
  5
51A
  8
0
  6
CONTINUOUS
 62
     8
 10
8.9777244173
 20
4.7648515271
 30
0.0
  0
VERTEX
  5
51B
  8
0
  6
CONTINUOUS
 62
     8
 10
9.0205615115
 20
4.7901380752
 30
0.0
  0
VERTEX
  5
51C
  8
0
  6
CONTINUOUS
 62
     8
 10
9.0614048253
 20
4.8165011348
 30
0.0
  0
VERTEX
  5
51D
  8
0
  6
CONTINUOUS
 62
     8
 10
9.1001732679
 20
4.8438883648
 30
0.0
  0
VERTEX
  5
51E
  8
0
  6
CONTINUOUS
 62
     8
 10
9.1367898682
 20
4.8722453901
 30
0.0
  0
VERTEX
  5
51F
  8
0
  6
CONTINUOUS
 62
     8
 10
9.1711819273
 20
4.9015159107
 30
0.0
  0
VERTEX
  5
520
  8
0
  6
CONTINUOUS
 62
     8
 10
9.203281163
 20
4.9316418125
 30
0.0
  0
VERTEX
  5
521
  8
0
  6
CONTINUOUS
 62
     8
 10
9.2330238453
 20
4.9625632834
 30
0.0
  0
VERTEX
  5
522
  8
0
  6
CONTINUOUS
 62
     8
 10
9.2603509227
 20
4.9942189316
 30
0.0
  0
VERTEX
  5
523
  8
0
  6
CONTINUOUS
 62
     8
 10
9.2852081399
 20
5.0265459079
 30
0.0
  0
VERTEX
  5
524
  8
0
  6
CONTINUOUS
 62
     8
 10
9.3075461453
 20
5.05948003
 30
0.0
  0
VERTEX
  5
525
  8
0
  6
CONTINUOUS
 62
     8
 10
9.3273205887
 20
5.0929559102
 30
0.0
  0
VERTEX
  5
526
  8
0
  6
CONTINUOUS
 62
     8
 10
9.3444922098
 20
5.1269070852
 30
0.0
  0
VERTEX
  5
527
  8
0
  6
CONTINUOUS
 62
     8
 10
9.3590269159
 20
5.1612661483
 30
0.0
  0
VERTEX
  5
528
  8
0
  6
CONTINUOUS
 62
     8
 10
9.3708958499
 20
5.1959648825
 30
0.0
  0
VERTEX
  5
529
  8
0
  6
CONTINUOUS
 62
     8
 10
9.3800754469
 20
5.2309343969
 30
0.0
  0
VERTEX
  5
52A
  8
0
  6
CONTINUOUS
 62
     8
 10
9.3858513943
 20
5.2614703849
 30
0.0
  0
SEQEND
  5
54B
  8
0
  6
CONTINUOUS
 62
     8
  0
POLYLINE
  5
100
  8
0
  6
CONTINUOUS
 62
     8
 66
     1
 10
0.0
 20
0.0
 30
0.0
 70
   128
  0
VERTEX
  5
52B
  8
0
  6
CONTINUOUS
 62
     8
 10
6.6475941072
 20
5.2567535815
 30
0.0
  0
VERTEX
  5
52C
  8
0
  6
CONTINUOUS
 62
     8
 10
6.6507405137
 20
5.2397109585
 30
0.0
  0
VERTEX
  5
52D
  8
0
  6
CONTINUOUS
 62
     8
 10
6.6592447193
 20
5.2046845794
 30
0.0
  0
VERTEX
  5
52E
  8
0
  6
CONTINUOUS
 62
     8
 10
6.6704433203
 20
5.1699116682
 30
0.0
  0
VERTEX
  5
52F
  8
0
  6
CONTINUOUS
 62
     8
 10
6.684314083
 20
5.1354612634
 30
0.0
  0
VERTEX
  5
530
  8
0
  6
CONTINUOUS
 62
     8
 10
6.7008294681
 20
5.101401763
 30
0.0
  0
VERTEX
  5
531
  8
0
  6
CONTINUOUS
 62
     8
 10
6.719956686
 20
5.067800789
 30
0.0
  0
VERTEX
  5
532
  8
0
  6
CONTINUOUS
 62
     8
 10
6.7416577612
 20
5.0347250531
 30
0.0
  0
VERTEX
  5
533
  8
0
  6
CONTINUOUS
 62
     8
 10
6.7658896084
 20
5.002240224
 30
0.0
  0
VERTEX
  5
534
  8
0
  6
CONTINUOUS
 62
     8
 10
6.7926041175
 20
4.9704107974
 30
0.0
  0
VERTEX
  5
535
  8
0
  6
CONTINUOUS
 62
     8
 10
6.8217482492
 20
4.9392999676
 30
0.0
  0
VERTEX
  5
536
  8
0
  6
CONTINUOUS
 62
     8
 10
6.8532641405
 20
4.9089695024
 30
0.0
  0
VERTEX
  5
537
  8
0
  6
CONTINUOUS
 62
     8
 10
6.8870892197
 20
4.87947962
 30
0.0
  0
VERTEX
  5
538
  8
0
  6
CONTINUOUS
 62
     8
 10
6.9231563301
 20
4.8508888699
 30
0.0
  0
VERTEX
  5
539
  8
0
  6
CONTINUOUS
 62
     8
 10
6.9613938638
 20
4.8232540164
 30
0.0
  0
VERTEX
  5
53A
  8
0
  6
CONTINUOUS
 62
     8
 10
7.0017259038
 20
4.796629926
 30
0.0
  0
VERTEX
  5
53B
  8
0
  6
CONTINUOUS
 62
     8
 10
7.0440723745
 20
4.7710694582
 30
0.0
  0
SEQEND
  5
54C
  8
0
  6
CONTINUOUS
 62
     8
  0
ENDSEC
  0
EOF
